osu file format v14

[General]
AudioFilename: audio.mp3
AudioLeadIn: 0
PreviewTime: 92053
Countdown: 1
SampleSet: Soft
StackLeniency: 0.7
Mode: 0
LetterboxInBreaks: 0
WidescreenStoryboard: 0

[Editor]
Bookmarks: 1130,6053,13437,18360,20206,23283,28206,33130,38053,47899,57745,67591,79899,84822,87283,92206,102053,111899,116822,121745
DistanceSpacing: 1.6
BeatDivisor: 4
GridSize: 4
TimelineZoom: 4.099998

[Metadata]
Title:Utsushigi no Syojyo Lix
TitleUnicode:写儀の少女Lix
Artist:Se-U-Ra
ArtistUnicode:Se-U-Ra
Creator:rui
Version:Extra
Source:bms
Tags:bofu 2017 Errata Chord Qlifa\Arq\Lix
BeatmapID:1551482
BeatmapSetID:734896

[Difficulty]
HPDrainRate:6
CircleSize:4.5
OverallDifficulty:8
ApproachRate:9.2
SliderMultiplier:1.6
SliderTickRate:1

[Events]
//Background and Video events
0,0,"bg.jpg",0,0
Video,0,"Lix_movie.mp4"
//Break Periods
//Storyboard Layer 0 (Background)
//Storyboard Layer 1 (Fail)
//Storyboard Layer 2 (Pass)
//Storyboard Layer 3 (Foreground)
//Storyboard Sound Samples

[TimingPoints]
1130,307.692307692308,4,2,2,50,1,0
1130,-133.333333333333,4,2,2,50,0,0
2360,-100,4,2,2,50,0,0
5283,-133.333333333333,4,2,3,50,0,0
6053,-133.333333333333,4,2,2,50,0,0
7283,-100,4,2,2,55,0,0
8514,-100,4,2,2,50,0,0
10668,-100,4,2,2,45,0,0
10976,-133.333333333333,4,2,2,50,0,0
13437,-200,4,2,1,50,0,0
18360,-133.333333333333,4,2,1,50,0,0
18976,-117.647058823529,4,2,1,50,0,0
19591,-105.263157894737,4,2,1,50,0,0
20206,-95.238095238095,4,2,1,50,0,0
22053,-95.238095238095,4,2,2,55,0,0
23283,-95.238095238095,4,2,2,55,0,0
25745,-181.818181818182,4,2,2,50,0,0
26976,-100,4,2,1,55,0,0
28206,-133.333333333333,4,2,1,50,0,0
32668,-133.333333333333,4,2,2,40,0,0
33130,-111.111111111111,4,2,4,60,0,0
36668,-100,4,2,4,60,0,0
36976,-83.3333333333333,4,2,4,65,0,0
37283,-66.6666666666667,4,2,1,70,0,0
38053,-100,4,2,4,60,0,0
42976,-100,4,2,2,60,0,0
45130,-100,4,2,4,60,0,0
45437,-100,4,2,2,60,0,0
47283,-100,4,2,4,60,0,0
47899,-100,4,2,2,55,0,0
50360,-100,4,2,4,55,0,0
55591,-100,4,2,4,57,0,0
55899,-100,4,2,4,59,0,0
56206,-100,4,2,4,61,0,0
56514,-100,4,2,4,63,0,0
57130,-83.3333333333333,4,2,2,65,0,0
64822,-83.3333333333333,4,2,4,65,0,0
67130,-66.6666666666667,4,2,4,65,0,0
67591,-133.333333333333,4,2,2,50,0,0
72514,-100,4,2,4,55,0,0
74976,-133.333333333333,4,2,4,55,0,0
77437,-133.333333333333,4,2,2,55,0,0
79283,-133.333333333333,4,2,4,45,0,0
79899,-133.333333333333,4,2,2,55,0,0
84822,-133.333333333333,4,2,4,60,0,0
87283,-100,4,2,4,60,0,0
89745,-100,4,2,2,50,0,0
90053,-100,4,2,2,45,0,0
90360,-100,4,2,2,40,0,0
90668,-100,4,2,2,35,0,0
90976,-100,4,2,4,60,0,0
92206,-100,4,2,4,65,0,1
99591,-83.3333333333333,4,2,4,65,0,1
100514,-83.3333333333333,4,2,4,70,0,1
102053,-100,4,2,4,65,0,0
104514,-100,4,2,4,65,0,1
111899,-100,4,2,4,50,0,0
116053,-100,4,2,2,50,0,0
116822,-133.333333333333,4,2,2,40,0,0
119283,-221,4,2,2,40,0,0
121668,-221,4,2,2,5,0,0

[Colours]
Combo1 : 191,128,255
Combo2 : 240,240,0
Combo3 : 145,145,255
Combo4 : 176,0,0

[HitObjects]
104,44,1130,6,0,L|88:108,1,60.0000022888184,4|0,0:0|0:0,0:0:0:0:
24,148,1437,1,2,0:0:0:0:
168,96,1591,1,0,0:0:0:0:
155,178,1745,2,0,L|218:159,1,60.0000022888184,2|0,0:0|0:0,0:0:0:0:
285,195,2052,1,2,0:0:0:0:
168,96,2206,1,0,0:0:0:0:
312,44,2360,6,0,P|320:76|340:120,1,80,0|0,1:0|0:0,0:0:0:0:
368,192,2668,1,0,0:0:0:0:
212,161,2822,1,0,0:0:0:0:
192,168,2899,1,0,0:0:0:0:
176,176,2976,1,2,0:0:0:0:
116,260,3130,1,0,0:0:0:0:
280,240,3283,2,0,B|400:264,1,120,2|0,0:0|0:0,0:0:0:0:
444,320,3591,2,0,B|408:336|408:336|336:320|336:320|279:334|279:334|251:323|251:323|300:308,1,240,2|0,0:0|0:0,0:0:0:0:
40,216,4360,5,2,0:0:0:0:
116,196,4514,1,0,0:0:0:0:
188,228,4668,1,2,0:0:0:0:
264,208,4822,1,2,0:0:0:0:
336,240,4976,1,0,0:0:0:0:
412,220,5130,1,0,0:0:0:0:
332,148,5283,6,0,L|352:120,1,30.0000011444092,2|0,0:0|0:0,0:0:0:0:
312,124,5437,2,0,L|321:91,1,30.0000011444092,2|0,0:0|0:0,0:0:0:0:
285,109,5591,2,0,L|283:75,1,30.0000011444092,2|0,0:0|0:0,0:0:0:0:
255,104,5745,2,0,L|241:72,1,30.0000011444092,2|0,0:0|0:0,0:0:0:0:
225,109,5899,2,0,L|201:84,1,30.0000011444092,2|0,0:0|0:0,0:0:0:0:
199,124,6053,5,6,0:0:0:0:
132,164,6206,1,0,0:0:0:0:
68,116,6360,1,2,0:0:0:0:
136,76,6514,1,2,0:0:0:0:
204,204,6668,5,2,0:0:0:0:
271,243,6821,1,0,0:0:0:0:
335,195,6975,1,2,0:0:0:0:
267,155,7129,1,2,0:0:0:0:
132,256,7283,6,0,P|152:325|264:316,1,200,4|0,1:0|0:0,0:0:0:0:
204,272,7745,2,0,B|212:248|196:212|196:212|184:184|192:144,1,120,4|0,1:0|0:0,0:0:0:0:
248,36,8053,1,4,1:0:0:0:
276,160,8206,6,0,L|261:183,1,20
271,206,8283,2,0,L|289:227,1,20
315,224,8360,2,0,L|341:213,1,20
346,187,8437,2,0,L|344:158,1,20
340,140,8514,5,6,0:0:0:0:
368,64,8668,1,0,0:0:0:0:
420,124,8822,1,2,0:0:0:0:
292,76,8976,1,2,0:0:0:0:
180,136,9130,5,2,0:0:0:0:
208,212,9284,1,0,0:0:0:0:
128,196,9438,1,2,0:0:0:0:
256,148,9592,1,2,0:0:0:0:
316,308,9745,6,0,L|328:336,22,20
196,284,10668,2,0,L|211:242,1,40,2|0,0:1|0:0,0:0:0:0:
288,156,10822,2,0,L|273:114,1,40,2|0,0:1|0:0,0:0:0:0:
100,56,10976,6,0,P|97:96|98:138,1,60.0000022888184,4|0,0:1|0:0,0:0:0:0:
200,99,11283,2,0,P|218:62|240:26,1,60.0000022888184,2|0,0:0|0:0,0:0:0:0:
288,156,11591,2,0,P|299:195|314:233,1,60.0000022888184,2|0,0:0|0:0,0:0:0:0:
396,162,11899,2,0,P|400:121|408:80,1,60.0000022888184,2|0,0:0|0:0,0:0:0:0:
460,24,12206,5,4,0:3:0:0:
52,360,12822,2,0,L|264:340,1,210.000008010865,2|0,0:0|0:0,0:0:0:0:
328,292,13437,6,0,P|276:260|216:268,1,120,6|0,0:0|0:0,0:0:0:0:
148,304,14053,2,0,P|108:304|68:288,1,80,2|0,0:0|0:0,0:0:0:0:
32,220,14514,1,0,0:0:0:0:
24,212,14591,1,0,0:0:0:0:
16,204,14668,2,0,L|4:160,1,40,2|0,0:0|0:0,0:0:0:0:
108,108,14976,2,0,L|97:146,1,40
48,60,15283,2,0,P|97:32|155:46,1,120,2|0,0:0|0:0,0:0:0:0:
244,132,15899,6,0,P|300:146|352:118,1,120,2|0,0:0|0:0,0:0:0:0:
396,48,16514,2,0,P|420:76|436:124,1,80,2|0,0:0|0:0,0:0:0:0:
460,192,16976,1,0,0:0:0:0:
448,196,17053,1,0,0:0:0:0:
436,200,17130,2,0,L|396:193,1,40,2|0,0:0|0:0,0:0:0:0:
316,110,17437,2,0,L|332:148,1,40
372,272,17745,2,0,P|320:280|276:260,1,100,2|0,0:0|0:0,0:0:0:0:
180,216,18360,6,0,P|148:220|120:228,1,60.0000022888184,6|0,0:0|0:0,0:0:0:0:
168,328,18668,2,0,P|200:324|228:316,1,60.0000022888184,2|0,0:0|0:0,0:0:0:0:
332,215,18976,6,0,P|367:218|401:226,1,68.0000012969971,2|0,0:0|0:0,0:0:0:0:
480,108,19283,2,0,P|444:105|410:97,1,68.0000012969971,2|0,0:0|0:0,0:0:0:0:
121,48,19591,6,0,P|155:63|188:83,1,75.9999979705811,6|0,0:0|0:0,0:0:0:0:
149,241,19899,2,0,P|113:224|80:203,1,75.9999979705811,2|0,0:0|0:0,0:0:0:0:
325,178,20206,6,0,P|363:160|398:138,1,83.9999974365235,6|0,0:0|0:0,0:0:0:0:
447,320,20514,2,0,P|408:337|373:359,1,83.9999974365235,2|0,0:0|0:0,0:0:0:0:
144,288,20822,5,6,0:0:0:0:
140,264,20899,1,2,0:0:0:0:
136,240,20976,1,2,0:0:0:0:
132,216,21053,1,2,0:0:0:0:
128,192,21130,1,6,0:0:0:0:
124,168,21206,1,2,0:0:0:0:
120,144,21283,1,2,0:0:0:0:
116,120,21360,1,2,0:0:0:0:
112,96,21437,1,6,0:0:0:0:
108,72,21514,1,2,0:0:0:0:
104,48,21591,6,0,L|100:16,2,27.9999991455078,0|2|2,0:0|0:0|0:0,0:0:0:0:
44,96,21745,5,6,0:0:0:0:
40,120,21822,1,2,0:0:0:0:
36,144,21899,1,2,0:0:0:0:
32,168,21976,1,2,0:0:0:0:
28,192,22053,6,0,L|20:240,1,41.9999987182618,6|0,0:1|0:0,0:0:0:0:
124,232,22206,2,0,L|141:277,1,41.9999987182618,2|0,0:1|0:0,0:0:0:0:
228,224,22360,2,0,L|265:254,1,41.9999987182618,2|0,0:1|0:0,0:0:0:0:
484,192,22668,6,0,L|492:144,1,41.9999987182618,6|0,0:1|0:0,0:0:0:0:
280,152,22899,2,0,L|262:106,1,41.9999987182618,6|0,0:1|0:0,0:0:0:0:
60,160,23130,2,0,L|22:129,1,41.9999987182618,6|0,0:1|0:0,0:0:0:0:
80,46,23283,5,6,0:0:0:0:
112,168,23514,1,2,0:0:0:0:
120,292,23745,1,2,0:0:0:0:
124,208,23899,5,2,0:0:0:0:
150,127,24052,1,2,0:0:0:0:
191,53,24206,1,2,0:0:0:0:
228,164,24360,5,2,0:0:0:0:
236,196,24437,1,2,0:0:0:0:
240,228,24514,6,0,P|222:249|195:274,2,55.9999982910157,2|2|2,0:0|0:0|0:0,0:0:0:0:
324,152,24822,2,0,P|341:130|368:105,2,55.9999982910157,2|2|2,0:0|0:0|0:0,0:0:0:0:
223,75,25130,5,2,0:0:0:0:
182,74,25206,1,2,0:0:0:0:
143,85,25283,1,2,0:0:0:0:
107,108,25360,1,2,0:0:0:0:
89,192,25437,5,2,0:0:0:0:
144,180,25540,5,2,0:0:0:0:
200,186,25642,5,2,0:0:0:0:
254,208,25745,6,0,P|324:232|196:300,1,330.000010070801,2|0,0:0|0:0,0:0:0:0:
136,280,26976,6,0,P|152:264|172:252,1,40,2|0,0:1|0:0,0:0:0:0:
222,142,27130,2,0,P|205:153|192:168,1,40,2|0,0:1|0:0,0:0:0:0:
56,272,27283,2,0,P|61:250|73:229,1,40,2|0,0:1|0:0,0:0:0:0:
186,74,27437,2,0,P|169:85|156:100,1,40,2|0,0:1|0:0,0:0:0:0:
156,99,27745,6,0,P|164:117|175:133,1,40,2|0,0:1|0:0,0:0:0:0:
293,241,27899,2,0,P|309:253|327:261,1,40,2|0,0:1|0:0,0:0:0:0:
444,152,28053,1,2,0:0:0:0:
444,152,28130,1,2,0:0:0:0:
444,152,28206,6,0,L|508:140,2,60.0000022888184,4|0|0,0:0|0:0|0:0,0:0:0:0:
368,136,28668,1,0,0:0:0:0:
296,168,28822,2,0,L|232:156,1,60.0000022888184,2|0,0:0|0:0,0:0:0:0:
184,100,29130,1,0,0:0:0:0:
262,79,29283,1,0,0:0:0:0:
204,24,29437,6,0,L|144:8,2,60.0000022888184,2|0|0,0:0|0:0|0:0,0:0:0:0:
337,51,29899,1,0,0:0:0:0:
337,51,30053,2,0,L|404:64,1,60.0000022888184,2|0,0:0|0:0,0:0:0:0:
484,124,30360,2,0,L|417:137,1,60.0000022888184
316,132,30668,5,2,0:0:0:0:
258,82,30822,1,0,0:0:0:0:
208,140,30976,1,0,0:0:0:0:
225,214,31130,1,0,0:0:0:0:
151,230,31283,1,2,0:0:0:0:
93,181,31437,2,0,L|44:148,2,60.0000022888184
208,140,31899,6,0,L|268:108,1,60.0000022888184,2|0,0:0|0:0,0:0:0:0:
344,148,32206,1,0,0:0:0:0:
280,192,32360,1,0,0:0:0:0:
224,248,32514,1,2,0:0:0:0:
128,188,32668,1,2,0:0:0:0:
132,160,32745,1,2,0:0:0:0:
140,132,32822,1,2,0:0:0:0:
152,104,32899,1,2,0:0:0:0:
164,76,32976,1,2,0:0:0:0:
268,40,33130,6,0,P|324:36|368:60,1,107.999996704102,4|0,0:0|0:0,0:0:0:0:
496,120,33437,2,0,P|440:116|396:140,1,107.999996704102,8|0,0:0|0:0,0:0:0:0:
420,236,33745,2,0,L|344:228,1,71.9999978027344,4|0,0:0|0:0,0:0:0:0:
240,220,33976,2,0,L|168:212,1,71.9999978027344,12|0,0:0|0:0,0:0:0:0:
60,204,34206,1,4,0:0:0:0:
224,312,34360,6,0,B|312:292|312:320|404:292,1,179.999994506836,4|0,0:0|0:0,0:0:0:0:
432,256,34822,2,0,B|344:236|344:264|252:236,1,179.999994506836,4|0,0:0|0:0,0:0:0:0:
208,220,35283,1,0,0:0:0:0:
336,152,35437,1,0,0:0:0:0:
216,80,35591,6,0,P|162:75|120:42,1,107.999996704102,4|0,0:0|0:0,0:0:0:0:
8,168,35899,2,0,P|61:162|103:130,1,107.999996704102,8|0,0:0|0:0,0:0:0:0:
28,84,36206,2,0,L|33:48,1,35.9999989013672,8|0,0:0|0:0,0:0:0:0:
144,216,36360,2,0,L|252:196,1,107.999996704102,8|0,0:0|0:0,0:0:0:0:
300,112,36668,6,0,B|348:120|348:120|368:136|368:136|416:144,1,120,4|0,0:0|0:0,0:0:0:0:
352,236,36976,6,0,B|304:244|304:244|270:267|270:267|216:276,1,143.999995605469,4|0,0:0|0:0,0:0:0:0:
62,131,37283,6,0,B|125:141|125:141|170:171|170:171|232:180,1,180.000006866455,4|0,0:0|0:0,0:0:0:0:
388,32,37591,5,2,0:0:0:0:
388,32,38053,6,0,P|380:72|372:120,1,80,4|0,0:0|0:0,0:0:0:0:
396,220,38360,1,8,0:0:0:0:
280,88,38514,1,2,0:0:0:0:
267,103,38591,1,2,0:0:0:0:
254,119,38668,1,2,0:0:0:0:
241,135,38745,1,2,0:0:0:0:
229,151,38822,1,2,0:1:0:0:
121,297,38976,1,8,0:0:0:0:
294,241,39130,1,0,0:0:0:0:
121,185,39283,6,0,P|80:196|36:220,1,80,2|0,0:1|0:0,0:0:0:0:
44,356,39591,1,8,0:0:0:0:
200,240,39745,5,0,0:0:0:0:
212,236,39796,5,0,0:0:0:0:
224,232,39847,5,0,0:0:0:0:
236,228,39899,6,0,L|280:212,1,40
380,184,40053,1,2,0:1:0:0:
204,128,40206,1,8,0:0:0:0:
324,56,40360,1,0,0:0:0:0:
408,264,40514,6,0,P|368:264|328:248,1,80,0|2,0:1|0:0,0:0:0:0:
248,172,40745,1,2,0:0:0:0:
224,168,40822,1,8,0:0:0:0:
200,166,40898,1,2,0:0:0:0:
176,169,40975,1,2,0:0:0:0:
154,178,41052,1,2,0:0:0:0:
124,188,41130,1,2,0:0:0:0:
100,189,41206,1,2,0:0:0:0:
76,186,41283,1,2,0:1:0:0:
31,85,41437,2,0,L|108:108,1,80,8|0,0:0|0:0,0:0:0:0:
259,284,41745,6,0,P|292:264|330:249,1,80,2|0,0:1|0:0,0:0:0:0:
440,132,42053,1,8,0:0:0:0:
264,48,42206,1,2,0:0:0:0:
420,212,42360,1,2,0:1:0:0:
216,144,42514,1,2,0:1:0:0:
343,216,42668,1,8,0:0:0:0:
164,280,42822,1,2,0:1:0:0:
100,100,42976,6,0,P|63:119|29:142,1,80,4|0,0:0|0:0,0:0:0:0:
164,280,43283,2,0,B|208:272|208:272|276:288|276:288|328:280,1,160,2|0,0:1|0:0,0:0:0:0:
508,104,43745,2,0,B|464:112|464:112|396:96|396:96|344:104,1,160,2|0,0:1|0:0,0:0:0:0:
116,208,44206,2,0,P|84:272|116:352,1,160,2|0,0:1|0:0,0:0:0:0:
396,176,44668,2,0,P|428:108|396:32,1,160,2|0,0:1|0:0,0:0:0:0:
144,136,45130,2,0,P|104:136|56:156,1,80,8|0,0:0|0:0,0:0:0:0:
116,208,45360,1,0,0:0:0:0:
116,208,45437,6,0,P|156:208|204:188,1,80,4|0,0:1|0:1,0:1:0:0:
397,33,45745,2,0,B|435:16|473:21|473:21|467:60|436:93,1,160,2|0,0:1|0:0,0:0:0:0:
308,276,46206,2,0,B|303:318|280:348|280:348|249:323|236:280,1,160,2|0,0:1|0:0,0:0:0:0:
47,149,46668,2,0,B|13:124|0:89|0:89|36:74|80:85,1,160,2|0,0:1|0:0,0:0:0:0:
368,216,47130,1,2,0:1:0:0:
368,216,47283,2,8,P|328:200|280:192,1,80,4|0,0:1|0:0,0:0:0:0:
65,82,47591,2,0,P|105:66|153:58,1,80,4|0,0:1|0:0,0:0:0:0:
396,24,47899,5,4,0:1:0:0:
428,96,48053,1,2,0:0:0:0:
384,160,48206,1,2,0:0:0:0:
304,160,48360,1,2,0:0:0:0:
260,92,48514,1,2,0:0:0:0:
180,84,48668,1,2,0:0:0:0:
124,144,48822,1,2,0:0:0:0:
132,224,48976,1,2,0:0:0:0:
200,268,49130,5,2,0:0:0:0:
132,308,49283,1,2,0:0:0:0:
160,384,49437,1,2,0:0:0:0:
232,348,49591,5,2,0:0:0:0:
232,348,49642,5,0,0:0:0:0:
232,348,49694,5,0,0:0:0:0:
232,348,49745,6,0,B|255:337|255:337|309:345,1,80,2|0,0:0|0:0,0:0:0:0:
232,191,50053,2,0,B|285:183|285:183|309:193,1,80,2|0,0:0|0:0,0:0:0:0:
336,36,50360,5,2,0:1:0:0:
336,36,50437,1,2,0:1:0:0:
336,36,50514,1,8,0:0:0:0:
428,184,50668,1,2,0:1:0:0:
460,60,50822,1,8,0:0:0:0:
304,160,50976,1,0,0:0:0:0:
196,296,51130,1,2,0:1:0:0:
276,348,51283,1,0,0:0:0:0:
200,188,51437,1,8,0:0:0:0:
268,20,51591,5,2,0:1:0:0:
268,20,51899,2,0,L|184:32,1,80,8|0,0:0|0:0,0:0:0:0:
132,224,52206,1,2,0:1:0:0:
112,220,52283,1,2,0:1:0:0:
92,216,52360,1,2,0:1:0:0:
204,152,52514,1,8,0:0:0:0:
328,188,52668,1,0,0:0:0:0:
436,116,52822,5,4,0:0:0:0:
344,96,52976,1,0,0:0:0:0:
264,152,53130,1,0,0:0:0:0:
256,248,53284,1,0,0:0:0:0:
391,285,53437,2,0,P|379:247|363:211,1,80,2|0,0:1|0:0,0:0:0:0:
200,56,53745,1,0,0:0:0:0:
344,96,53899,1,0,0:0:0:0:
203,211,54053,6,0,P|164:207|125:199,1,80,2|0,0:1|0:0,0:0:0:0:
200,56,54360,1,0,0:0:0:0:
352,180,54514,5,0,0:0:0:0:
352,180,54565,5,0,0:0:0:0:
352,180,54617,5,0,0:0:0:0:
352,180,54668,2,0,P|388:163|422:142,1,80,2|0,0:1|0:0,0:0:0:0:
296,332,54976,2,0,P|260:349|226:370,1,80,0|0,0:1|0:0,0:0:0:0:
128,316,55283,5,2,0:1:0:0:
324,256,55437,1,0,0:0:0:0:
352,180,55591,1,2,0:1:0:0:
96,216,55745,1,0,0:0:0:0:
76,112,55899,1,2,0:1:0:0:
380,104,56053,1,0,0:0:0:0:
408,28,56206,1,2,0:1:0:0:
64,8,56360,1,0,0:0:0:0:
284,136,56514,5,2,0:1:0:0:
284,136,56591,1,0,0:0:0:0:
284,136,56668,1,2,0:1:0:0:
304,40,56822,1,2,0:1:0:0:
342,242,56976,1,2,0:1:0:0:
342,242,57053,1,2,0:1:0:0:
341,242,57130,2,0,P|277:270|210:249,1,143.999995605469,4|0,0:0|0:0,0:0:0:0:
238,174,57437,2,0,P|306:174|254:138,1,143.999995605469,4|0,0:0|0:0,0:0:0:0:
3,87,57745,6,0,P|45:17|124:64,1,191.999994140625,4|0,0:1|0:0,0:0:0:0:
316,227,58206,2,0,P|243:274|195:203,1,191.999994140625,4|0,0:1|0:0,0:0:0:0:
64,76,58668,2,0,L|76:176,2,95.9999970703126,4|0|0,0:1|0:0|0:0,0:0:0:0:
380,233,59130,2,0,P|327:164|256:214,1,191.999994140625,4|0,0:1|0:0,0:0:0:0:
86,76,59591,2,0,L|74:176,1,95.9999970703126,4|0,0:1|0:0,0:0:0:0:
56,196,59822,1,0,0:0:0:0:
64,216,59899,1,2,0:0:0:0:
172,288,60053,1,2,0:0:0:0:
180,308,60130,1,0,0:0:0:0:
188,324,60206,6,0,P|260:364|256:288,1,191.999994140625,4|0,0:1|0:0,0:0:0:0:
124,124,60668,2,0,P|84:196|160:192,1,191.999994140625,4|0,0:1|0:0,0:0:0:0:
324,60,61130,2,0,P|252:20|256:96,1,191.999994140625,4|0,0:1|0:0,0:0:0:0:
388,260,61591,2,0,P|428:187|352:191,1,191.999994140625,4|0,0:1|0:0,0:0:0:0:
160,196,62053,2,0,L|64:176,1,95.9999970703126,4|0,0:1|0:0,0:0:0:0:
0,56,62360,2,0,P|24:48|52:40,1,47.9999985351563,2|0,0:0|0:0,0:0:0:0:
204,76,62514,2,0,P|182:84|159:92,1,47.9999985351563,2|0,0:0|0:0,0:0:0:0:
120,212,62668,6,0,P|72:211|36:242,2,95.9999970703126,4|0|0,0:1|0:0|0:0,0:0:0:0:
248,340,63130,2,0,P|288:363|334:355,2,95.9999970703126,4|0|0,0:1|0:0|0:0,0:0:0:0:
174,161,63591,2,0,P|133:137|87:145,2,95.9999970703126,4|0|0,0:1|0:0|0:0,0:0:0:0:
300,292,64053,2,0,P|347:292|382:261,2,95.9999970703126,4|0|0,0:1|0:0|0:0,0:0:0:0:
245,145,64514,2,0,P|221:104|177:88,1,95.9999970703126,4|0,0:1|0:0,0:0:0:0:
16,16,64822,6,0,L|4:64,1,47.9999985351563,8|0,0:0|0:0,0:0:0:0:
31,186,64976,2,0,L|173:160,1,143.999995605469,4|0,0:1|0:0,0:0:0:0:
364,104,65283,2,0,L|376:152,1,47.9999985351563,8|0,0:0|0:0,0:0:0:0:
348,274,65437,2,0,L|206:247,1,143.999995605469,4|0,0:1|0:0,0:0:0:0:
31,186,65745,2,0,L|19:234,1,47.9999985351563,8|0,0:0|0:0,0:0:0:0:
47,356,65899,2,0,L|189:329,1,143.999995605469,4|0,0:1|0:0,0:0:0:0:
363,305,66206,2,0,L|375:257,1,47.9999985351563,8|0,0:0|0:0,0:0:0:0:
332,132,66360,6,0,B|261:113|189:161|189:161|212:120,1,191.999994140625,4|0,0:1|0:0,0:0:0:0:
69,150,66822,2,0,B|37:134|1:141|1:141|-2:181|20:212,1,143.999995605469,4|0,0:1|0:0,0:0:0:0:
88,252,67130,2,0,B|131:223|171:181|171:181|134:245|129:301|144:326|164:341|164:341|162:316,1,300.000011444092,4|0,0:3|0:0,0:0:0:0:
244,140,67591,6,0,B|259:141|259:141|224:96|144:108|116:128|116:128|144:108|176:88,1,240.000009155274,4|0,0:0|0:0,0:0:0:0:
204,24,68360,1,2,0:0:0:0:
133,35,68514,1,2,0:0:0:0:
71,66,68668,2,0,B|103:112|153:101|153:101|103:112|32:156|44:256,1,300.000011444092,2|0,0:0|0:0,0:0:0:0:
92,303,69591,1,2,0:0:0:0:
156,264,69745,1,2,0:0:0:0:
193,328,69899,6,0,B|252:340|252:340|312:316,1,120.000004577637,2|2,0:0|0:0,0:0:0:0:
432,141,70360,2,0,L|420:200,1,60.0000022888184,2|0,0:0|0:0,0:0:0:0:
392,284,70668,1,2,0:0:0:0:
320,244,70822,1,2,0:0:0:0:
232,276,70976,1,2,0:0:0:0:
136,228,71130,1,2,0:0:0:0:
40,300,71283,6,0,P|16:248|20:184,1,120.000004577637,2|2,0:0|0:0,0:0:0:0:
299,130,71899,2,0,P|323:182|319:246,1,120.000004577637,2|2,0:0|0:0,0:0:0:0:
144,336,72514,5,4,0:0:0:0:
140,348,72591,1,2,0:1:0:0:
136,360,72668,1,8,0:0:0:0:
44,284,72822,1,2,0:1:0:0:
228,344,72976,2,0,P|220:304|208:264,1,80,8|0,0:0|0:0,0:0:0:0:
84,172,73283,1,2,0:1:0:0:
44,284,73437,1,0,0:0:0:0:
36,100,73591,2,0,P|80:88|120:80,1,80,8|2,0:0|0:1,0:0:0:0:
304,40,73899,5,0,0:0:0:0:
168,140,74053,2,0,P|156:176|148:220,1,80,8|0,0:0|0:0,0:0:0:0:
280,288,74360,1,2,0:1:0:0:
284,300,74437,1,2,0:1:0:0:
288,312,74514,1,2,0:1:0:0:
308,110,74668,2,0,P|340:136|372:172,1,80,8|0,0:0|0:0,0:0:0:0:
96,32,74976,6,0,P|76:56|60:84,1,60.0000022888184,4|0,0:1|0:0,0:0:0:0:
96,32,75591,6,0,P|85:61|79:93,1,60.0000022888184,2|0,0:1|0:0,0:0:0:0:
96,32,76206,5,2,0:1:0:0:
218,229,76360,1,2,0:1:0:0:
244,76,76514,1,2,0:1:0:0:
46,198,76668,1,2,0:1:0:0:
188,300,76822,5,2,0:1:0:0:
244,304,76899,1,2,0:1:0:0:
304,312,76976,1,2,0:1:0:0:
360,316,77053,1,2,0:1:0:0:
388,264,77130,5,2,0:1:0:0:
328,268,77207,1,2,0:1:0:0:
272,276,77284,1,2,0:1:0:0:
216,280,77361,1,2,0:1:0:0:
188,228,77437,6,0,L|248:236,1,60.0000022888184,6|0,0:0|0:0,0:0:0:0:
388,180,77745,2,0,L|328:172,1,60.0000022888184,2|0,0:0|0:0,0:0:0:0:
208,81,78053,2,0,L|268:88,1,60.0000022888184,2|0,0:0|0:0,0:0:0:0:
148,40,78360,6,0,B|116:84|128:132|173:165|216:212|224:264|192:316|128:304|112:276,1,330.000012588501,2|0,0:0|0:0,0:0:0:0:
56,220,79283,5,2,0:1:0:0:
82,207,79360,1,2,0:1:0:0:
119,205,79437,1,2,0:1:0:0:
157,215,79514,1,2,0:1:0:0:
184,236,79591,5,2,0:1:0:0:
135,197,79668,1,2,0:1:0:0:
114,140,79745,1,2,0:1:0:0:
123,82,79822,1,2,0:1:0:0:
160,33,79899,5,6,0:0:0:0:
249,54,80053,1,0,0:0:0:0:
318,109,80206,1,2,0:0:0:0:
351,193,80360,1,0,0:0:0:0:
225,9,80514,5,2,0:0:0:0:
301,58,80668,1,0,0:0:0:0:
348,134,80821,1,2,0:0:0:0:
350,225,80975,1,0,0:0:0:0:
293,15,81130,5,2,0:0:0:0:
349,81,81284,1,0,0:0:0:0:
368,168,81437,1,2,0:0:0:0:
339,254,81591,1,0,0:0:0:0:
207,296,81745,6,0,L|267:307,1,60.0000022888184,2|0,0:1|0:0,0:0:0:0:
184,72,82053,2,2,L|248:82,1,60.0000022888184,2|2,0:1|0:0,0:0:0:0:
438,302,82360,5,6,0:0:0:0:
347,312,82514,1,0,0:0:0:0:
263,284,82667,1,2,0:0:0:0:
203,216,82821,1,0,0:0:0:0:
385,346,82975,5,2,0:0:0:0:
296,326,83129,1,0,0:0:0:0:
226,271,83282,1,2,0:0:0:0:
193,186,83436,1,0,0:0:0:0:
319,364,83591,5,2,0:0:0:0:
243,321,83745,1,0,0:0:0:0:
196,246,83898,1,2,0:0:0:0:
194,155,84052,1,0,0:0:0:0:
301,69,84206,6,0,L|243:81,1,60.0000022888184,2|0,0:1|0:0,0:0:0:0:
402,273,84514,2,0,L|337:284,1,60.0000022888184,2|0,0:1|0:0,0:0:0:0:
46,150,84822,5,4,0:0:0:0:
236,95,84975,1,0,0:0:0:0:
124,24,85130,2,0,P|114:60|98:88,1,60.0000022888184,8|0,0:0|0:0,0:0:0:0:
188,287,85437,1,2,0:1:0:0:
236,95,85590,1,0,0:0:0:0:
306,226,85745,2,0,P|280:199|264:171,1,60.0000022888184,8|0,0:0|0:0,0:0:0:0:
46,150,86053,5,2,0:1:0:0:
188,287,86206,1,0,0:0:0:0:
40,282,86360,2,0,P|76:273|108:273,1,60.0000022888184,8|0,0:0|0:0,0:0:0:0:
288,160,86668,2,0,P|324:163|354:174,1,60.0000022888184,2|0,0:1|0:0,0:0:0:0:
480,352,86976,2,0,P|446:335|422:315,1,60.0000022888184,8|0,0:0|3:0,3:0:0:0:
380,268,87206,1,0,0:0:0:0:
380,268,87283,5,4,0:1:0:0:
204,176,87437,1,2,0:1:0:0:
336,104,87591,5,2,0:1:0:0:
176,320,87745,1,2,0:1:0:0:
40,112,87899,5,2,0:1:0:0:
288,176,88053,1,2,0:1:0:0:
52,280,88206,5,2,0:1:0:0:
296,24,88360,1,2,0:1:0:0:
296,24,88437,1,2,0:1:0:0:
296,24,88514,5,8,0:0:0:0:
336,24,88591,1,2,0:1:0:0:
372,36,88668,1,2,0:1:0:0:
404,60,88745,1,2,0:1:0:0:
424,96,88822,1,2,0:1:0:0:
432,136,88899,1,2,0:1:0:0:
424,176,88976,1,2,0:1:0:0:
400,208,89053,1,2,0:1:0:0:
368,232,89130,1,4,0:0:0:0:
224,132,89283,1,0,0:0:0:0:
208,160,89360,1,0,0:0:0:0:
196,192,89437,1,2,0:1:0:0:
60,108,89591,1,0,0:0:0:0:
48,76,89668,1,0,0:0:0:0:
32,48,89745,5,6,0:0:0:0:
116,36,89860,1,2,0:0:0:0:
200,56,89976,1,2,0:0:0:0:
256,112,90053,5,2,0:0:0:0:
188,132,90168,1,2,0:0:0:0:
124,164,90284,1,2,0:0:0:0:
184,204,90360,5,2,0:0:0:0:
244,200,90475,1,2,0:0:0:0:
304,216,90591,1,2,0:0:0:0:
259,267,90668,5,2,0:0:0:0:
216,270,90783,1,2,0:0:0:0:
175,280,90899,1,2,0:0:0:0:
208,324,90976,6,0,P|247:326|288:332,1,80,4|0,0:1|0:0,0:0:0:0:
336,360,91206,2,0,P|296:362|256:368,1,80,2|0,0:0|0:0,0:0:0:0:
124,352,91437,2,0,L|80:360,2,40,2|2|8,0:0|0:0|0:0,0:0:0:0:
259,267,91745,2,0,P|283:260|299:260,1,40
371,283,91899,2,0,P|371:248|354:203,1,80,4|2,3:0|0:0,0:0:0:0:
240,40,92206,6,0,L|160:56,1,80,4|0,0:1|0:0,0:0:0:0:
76,76,92514,1,8,0:0:0:0:
224,160,92668,1,2,0:0:0:0:
224,160,92745,1,2,0:0:0:0:
224,160,92822,2,0,L|304:176,1,80,2|2,0:0|0:1,0:0:0:0:
340,80,93130,1,0,0:0:0:0:
164,108,93283,6,0,B|144:184|144:184|168:220,1,120,8|0,0:0|0:0,0:0:0:0:
188,256,93591,1,2,0:1:0:0:
220,284,93668,1,0,0:0:0:0:
264,296,93745,1,8,0:0:0:0:
308,296,93822,1,0,0:0:0:0:
344,272,93899,1,2,0:0:0:0:
360,232,93976,1,0,0:0:0:0:
348,188,94053,5,2,0:1:0:0:
316,160,94130,1,0,0:0:0:0:
272,156,94206,1,2,0:0:0:0:
236,132,94283,1,0,0:0:0:0:
196,140,94360,2,0,P|178:129|155:106,1,40,8|0,0:0|0:0,0:0:0:0:
155,36,94514,2,0,P|165:18|188:-4,1,40,2|0,0:0|0:0,0:0:0:0:
260,1,94668,6,0,B|277:11|296:29|296:29|336:37,1,80,2|2,0:1|0:0,0:0:0:0:
432,32,94899,1,2,0:0:0:0:
432,32,94976,2,0,L|466:-4,2,40,8|0|0,0:0|0:0|0:0,0:0:0:0:
380,112,95206,1,2,0:1:0:0:
380,112,95283,2,0,L|394:160,2,40,0|0|2,0:0|0:0|0:1,0:0:0:0:
348,228,95591,2,0,L|392:240,1,40,2|0,0:0|0:0,0:0:0:0:
420,328,95745,6,0,B|348:320|352:300|260:288,1,160,8|2,0:0|0:1,0:0:0:0:
76,104,96206,1,8,0:0:0:0:
188,152,96360,2,0,B|157:207|131:267,1,120,0|0,0:1|0:0,0:0:0:0:
112,336,96668,1,2,0:1:0:0:
232,292,96822,1,8,0:0:0:0:
56,272,96976,1,2,0:1:0:0:
188,152,97130,6,0,P|176:112|168:64,1,80,4|0,0:1|0:0,0:0:0:0:
324,232,97437,2,0,P|336:272|344:320,1,80,8|0,0:0|0:0,0:0:0:0:
340,356,97668,1,0,0:0:0:0:
296,344,97745,1,2,0:1:0:0:
276,304,97822,1,2,0:1:0:0:
292,264,97899,1,2,0:1:0:0:
436,160,98053,1,8,0:0:0:0:
456,120,98130,1,8,0:0:0:0:
440,80,98207,1,8,0:0:0:0:
316,192,98360,6,0,P|276:192|236:212,1,80,0|2,0:0|0:1,0:0:0:0:
92,80,98668,2,0,L|84:120,1,40,8|0,0:0|0:0,0:0:0:0:
24,228,98822,2,0,L|16:260,2,26.6666666666667
32,200,98976,6,0,B|112:188,1,80,4|0,0:0|0:0,0:0:0:0:
144,152,99206,1,0,0:0:0:0:
180,176,99283,1,8,0:0:0:0:
224,188,99360,1,0,0:0:0:0:
268,200,99437,1,0,0:0:0:0:
304,224,99514,1,0,0:0:0:0:
348,268,99591,6,0,L|448:252,1,95.9999970703126,2|0,0:1|0:0,0:0:0:0:
496,176,99822,2,0,P|456:160|400:168,1,95.9999970703126,8|0,0:0|0:0,0:0:0:0:
268,200,100053,2,0,L|285:155,1,47.9999985351563,2|0,0:1|0:0,0:0:0:0:
312,64,100206,2,0,P|268:62|219:89,1,95.9999970703126,8|2,0:0|0:1,0:0:0:0:
88,224,100514,5,4,0:0:0:0:
348,268,100668,1,4,0:0:0:0:
348,268,100976,2,0,P|300:276|252:288,1,95.9999970703126,2|0,0:1|0:0,0:0:0:0:
88,92,101283,2,0,P|132:112|175:136,1,95.9999970703126,2|4,0:1|0:1,0:0:0:0:
356,192,101591,2,0,L|309:202,1,47.9999985351563
200,248,101745,2,0,L|105:229,1,95.9999970703126,8|2,0:0|0:0,0:0:0:0:
272,40,102053,5,4,0:1:0:0:
332,113,102206,1,2,0:0:0:0:
332,113,102283,1,2,0:0:0:0:
332,113,102360,1,2,0:0:0:0:
337,208,102514,1,2,0:0:0:0:
337,208,102591,1,2,0:0:0:0:
337,208,102668,1,2,0:0:0:0:
405,278,102822,1,2,0:0:0:0:
432,368,102976,5,2,0:0:0:0:
416,371,103052,1,0,0:0:0:0:
400,368,103129,1,0,0:0:0:0:
386,361,103206,1,0,0:0:0:0:
375,349,103283,1,2,0:0:0:0:
368,335,103360,1,0,0:0:0:0:
367,319,103437,1,2,0:0:0:0:
371,304,103514,1,0,0:0:0:0:
380,290,103591,1,2,0:0:0:0:
392,281,103668,1,0,0:0:0:0:
407,276,103745,1,2,0:0:0:0:
424,280,103822,1,0,0:0:0:0:
460,248,103899,5,0,0:0:0:0:
474,240,103976,1,0,0:0:0:0:
392,206,104053,5,0,0:0:0:0:
400,191,104130,1,0,0:0:0:0:
314,203,104206,5,0,0:0:0:0:
313,187,104283,1,0,0:0:0:0:
244,240,104360,5,0,0:0:0:0:
235,225,104437,1,0,0:0:0:0:
217,303,104514,6,0,L|139:268,1,80,4|0,0:1|0:0,0:0:0:0:
60,228,104745,1,0,0:0:0:0:
60,228,104822,2,0,L|12:240,2,40,8|0|0,0:0|0:0|0:0,0:0:0:0:
160,156,105053,2,0,L|125:120,2,40,2|0|0,0:1|0:0|0:0,0:0:0:0:
280,152,105283,2,0,L|293:104,2,40,2|0|0,0:1|0:0|0:0,0:0:0:0:
202,307,105591,6,0,L|368:280,1,160,8|2,0:0|0:1,0:0:0:0:
456,224,106053,1,8,0:0:0:0:
272,208,106206,2,0,P|232:208|190:197,1,80,2|0,0:1|0:0,0:0:0:0:
80,180,106514,1,2,0:1:0:0:
244,104,106668,1,8,0:0:0:0:
120,288,106822,1,0,0:0:0:0:
24,104,106976,6,0,P|64:92|112:92,1,80,4|2,0:0|0:1,0:0:0:0:
288,60,107283,1,2,0:1:0:0:
138,167,107437,1,8,0:0:0:0:
307,241,107591,1,0,0:1:0:0:
240,152,107745,1,2,0:1:0:0:
262,334,107899,1,8,0:0:0:0:
410,222,108053,1,2,0:1:0:0:
284,48,108206,6,0,P|244:52|196:68,1,80,12|0,0:0|0:0,0:0:0:0:
160,184,108514,1,2,0:1:0:0:
64,32,108668,1,8,0:0:0:0:
260,140,108822,2,0,P|300:148|344:160,1,80,2|2,0:1|0:1,0:0:0:0:
380,132,109053,1,0,0:0:0:0:
388,148,109130,1,8,0:0:0:0:
396,164,109206,1,0,0:0:0:0:
404,180,109283,1,0,0:0:0:0:
412,200,109360,1,0,0:0:0:0:
360,252,109437,5,8,0:0:0:0:
359,255,109513,1,2,0:1:0:0:
358,259,109590,1,2,0:1:0:0:
357,263,109667,1,2,0:1:0:0:
356,267,109744,1,10,0:0:0:0:
355,271,109821,1,2,0:1:0:0:
354,275,109898,1,2,0:1:0:0:
353,279,109975,1,2,0:1:0:0:
352,283,110052,1,8,0:0:0:0:
351,286,110129,1,2,0:1:0:0:
350,290,110206,1,2,0:1:0:0:
349,294,110283,1,2,0:1:0:0:
348,298,110360,1,10,0:0:0:0:
347,302,110437,1,2,0:1:0:0:
346,306,110513,1,2,0:1:0:0:
345,310,110590,1,2,0:1:0:0:
344,316,110668,5,2,0:1:0:0:
192,276,110822,1,0,0:0:0:0:
372,184,110976,5,2,0:1:0:0:
164,144,111130,1,0,0:0:0:0:
412,52,111284,5,2,0:1:0:0:
124,12,111438,1,0,0:0:0:0:
296,88,111591,5,8,0:0:0:0:
300,104,111668,1,0,0:0:0:0:
304,120,111745,1,0,0:0:0:0:
276,240,111899,5,4,0:1:0:0:
208,296,112053,1,2,0:0:0:0:
124,276,112206,1,2,0:1:0:0:
92,192,112360,2,0,L|84:144,2,40,2|0|2,0:0|0:0|0:1,0:0:0:0:
216,164,112668,5,2,0:0:0:0:
302,149,112822,1,2,0:1:0:0:
365,208,112975,1,2,0:0:0:0:
351,297,113130,1,2,0:0:0:0:
284,240,113283,1,2,0:0:0:0:
284,240,113591,5,2,0:0:0:0:
196,228,113745,1,2,0:0:0:0:
144,160,113899,1,2,0:0:0:0:
160,76,114052,1,2,0:0:0:0:
236,32,114206,1,2,0:0:0:0:
252,136,114360,6,0,P|260:172|276:216,1,80,4|0,0:1|0:0,0:0:0:0:
382,67,114668,2,0,P|368:105|360:144,1,80,2|0,0:1|0:0,0:0:0:0:
196,249,114976,2,0,P|204:288|208:328,1,80,2|0,0:1|0:0,0:0:0:0:
69,244,115283,2,0,P|78:205|92:168,1,80,0|0,0:1|0:0,0:0:0:0:
116,320,115591,1,0,0:0:0:0:
168,124,115745,1,0,0:0:0:0:
168,124,116053,5,2,0:0:0:0:
64,208,116206,1,2,0:0:0:0:
97,229,116282,1,0,0:0:0:0:
134,243,116359,1,2,0:0:0:0:
174,249,116436,1,0,0:0:0:0:
214,245,116513,1,2,0:0:0:0:
252,236,116590,1,0,0:0:0:0:
291,227,116667,1,2,0:0:0:0:
331,223,116744,1,0,0:0:0:0:
368,228,116822,5,4,0:1:0:0:
436,252,116976,1,2,0:0:0:0:
496,292,117130,1,2,0:0:0:0:
480,224,117283,1,2,0:0:0:0:
422,180,117437,1,2,0:0:0:0:
368,228,117591,2,0,P|324:236|280:248,1,90.0000034332277,2|0,0:0|0:0,0:0:0:0:
244,328,117899,6,0,P|204:304|164:284,1,90.0000034332277,2|0,0:0|0:0,0:0:0:0:
124,200,118206,2,0,P|168:208|212:220,1,90.0000034332277,2|0,0:0|0:0,0:0:0:0:
311,225,118514,1,2,0:0:0:0:
205,115,118668,1,2,0:0:0:0:
344,80,118822,1,2,0:0:0:0:
300,20,118976,2,0,P|275:54|275:103,1,90.0000034332277,2|0,0:0|0:0,0:0:0:0:
308,160,119283,6,0,B|357:239|357:239|408:320|408:320|357:239|357:239|276:290|276:290|453:180,1,579.185520361991,2|0,0:0|0:0,0:0:0:0:
