osu file format v14

[General]
AudioFilename: audio.mp3
AudioLeadIn: 0
PreviewTime: 79152
Countdown: 0
SampleSet: Soft
StackLeniency: 0.5
Mode: 0
LetterboxInBreaks: 0
WidescreenStoryboard: 1

[Editor]
Bookmarks: 27498,34037,57037,79191,91498,111191
DistanceSpacing: 0.5
BeatDivisor: 4
GridSize: 32
TimelineZoom: 2.799999

[Metadata]
Title:Utsushi Gi no Shoujo Lix (Traveler Edit)
TitleUnicode:写儀の少女Lix (Traveler Edit)
Artist:Se-U-Ra
ArtistUnicode:Se-U-Ra
Creator:August
Version:Kaguya_Sama's Insane
Source:
Tags:dored kaguya_sama bellicose xen kodama seura せゆーら featured artist fa electronic instrumental mpg mappers' guild The Endless for Traveler Traveller bofu2017 THE BMS OF FIGHTERS ULTIMATE 2017 初音ミク hatsune miku criin xehn xenon-
BeatmapID:3067209
BeatmapSetID:1447575

[Difficulty]
HPDrainRate:5
CircleSize:3.8
OverallDifficulty:7.5
ApproachRate:8.8
SliderMultiplier:1.77
SliderTickRate:1

[Events]
//Background and Video events
0,0,"yeah.jpg",0,0
//Break Periods
2,67191,70575
//Storyboard Layer 0 (Background)
//Storyboard Layer 1 (Fail)
//Storyboard Layer 2 (Pass)
//Storyboard Layer 3 (Foreground)
//Storyboard Layer 4 (Overlay)
//Storyboard Sound Samples

[TimingPoints]
422,307.692307692308,4,2,2,35,1,0
422,-166.666666666667,4,2,2,35,0,0
4114,-166.666666666667,4,2,2,40,0,0
4267,-166.666666666667,4,2,2,35,0,0
4422,-166.666666666667,4,2,2,40,0,0
4575,-166.666666666667,4,2,2,35,0,0
4729,-166.666666666667,4,2,2,40,0,0
5345,-125,4,2,2,50,0,0
6575,-76.9230769230769,4,2,2,65,0,0
6959,-76.9230769230769,4,2,2,5,0,0
7037,-76.9230769230769,4,2,3,65,0,0
7345,-76.9230769230769,4,2,2,70,0,0
7421,-76.9230769230769,4,2,2,5,0,0
7498,-76.9230769230769,4,2,2,70,0,0
7574,-76.9230769230769,4,2,2,5,0,0
7652,-76.9230769230769,4,2,2,70,0,0
7728,-76.9230769230769,4,2,2,5,0,0
7806,-125,4,2,2,50,0,0
9037,-90.9090909090909,4,2,2,45,0,0
9498,-90.9090909090909,4,2,2,25,0,0
9652,-90.9090909090909,4,2,2,45,0,0
9960,-76.9230769230769,4,2,2,45,0,0
10036,-76.9230769230769,4,2,2,5,0,0
10114,-76.9230769230769,4,2,2,45,0,0
10190,-76.9230769230769,4,2,2,5,0,0
10268,-125,4,2,2,40,0,0
12037,-125,4,2,2,5,0,0
12114,-125,4,2,2,40,0,0
12345,-125,4,2,2,5,0,0
12422,-166.666666666667,4,2,2,40,0,0
12652,-166.666666666667,4,2,2,5,0,0
12729,-100,4,2,2,50,0,0
13036,-100,4,2,2,35,0,0
13191,-100,4,2,2,50,0,0
14882,-100,4,2,2,35,0,0
15191,-100,4,2,2,50,0,0
15498,-100,4,2,2,35,0,0
15652,-100,4,2,2,50,0,0
17652,-100,4,2,2,57,0,0
18268,-100,4,2,2,64,0,0
18883,-100,4,2,2,70,0,0
19498,-100,4,2,2,75,0,0
21345,-100,4,2,2,80,0,0
21960,-100,4,2,3,65,0,0
22575,-125,4,2,2,60,0,0
22806,-125,4,2,2,40,0,0
25037,-200,4,2,2,45,0,0
26191,-200,4,2,2,5,0,0
26268,-200,4,2,2,35,0,0
26575,-200,4,2,2,45,0,0
27191,-200,4,2,2,40,0,0
27498,-125,4,2,2,50,0,0
27651,-125,4,2,2,35,0,0
27806,-125,4,2,2,50,0,0
31961,-125,4,2,2,52,0,0
32037,-125,4,2,2,54,0,0
32114,-125,4,2,2,56,0,0
32191,-125,4,2,2,58,0,0
32268,-125,4,2,2,60,0,0
32422,-90.9090909090909,4,2,3,75,0,0
32652,-90.9090909090909,4,2,3,5,0,0
32729,-76.9230769230769,4,2,3,75,0,0
32960,-76.9230769230769,4,2,3,5,0,0
33037,-76.9230769230769,4,2,3,75,0,0
33191,-76.9230769230769,4,2,3,75,0,0
33268,-76.9230769230769,4,2,3,75,0,0
33422,-76.9230769230769,4,2,3,75,0,0
33499,-76.9230769230769,4,2,3,75,0,0
33652,-76.9230769230769,4,2,3,60,0,0
34345,-76.9230769230769,4,2,3,5,0,0
34422,-76.9230769230769,4,2,3,60,0,0
34575,-71.4285714285714,4,2,3,60,0,0
34805,-71.4285714285714,4,2,3,35,0,0
34883,-100,4,2,2,70,0,0
35114,-100,4,2,2,5,0,0
35191,-100,4,2,2,70,0,0
35960,-100,4,2,3,65,0,0
36268,-100,4,2,3,60,0,0
36575,-100,4,2,2,55,0,0
36883,-100,4,2,3,50,0,0
37037,-100,4,2,2,50,0,0
37113,-100,4,2,2,5,0,0
37191,-100,4,2,2,50,0,0
37267,-100,4,2,2,5,0,0
37345,-83.3333333333333,4,2,2,75,0,0
38728,-83.3333333333333,4,2,2,35,0,0
38883,-83.3333333333333,4,2,2,75,0,0
39191,-83.3333333333333,4,2,2,75,0,0
39729,-83.3333333333333,4,2,2,5,0,0
39806,-83.3333333333333,4,2,2,75,0,0
40729,-83.3333333333333,4,2,2,75,0,0
41268,-83.3333333333333,4,2,2,5,0,0
41345,-83.3333333333333,4,2,2,75,0,0
42498,-83.3333333333333,4,2,2,5,0,0
42575,-83.3333333333333,4,2,2,75,0,0
42728,-83.3333333333333,4,2,2,35,0,0
42883,-83.3333333333333,4,2,2,75,0,0
44960,-83.3333333333333,4,2,2,75,0,0
45037,-83.3333333333333,4,2,2,75,0,0
45345,-83.3333333333333,4,2,2,75,0,0
45960,-83.3333333333333,4,2,2,65,0,0
46575,-83.3333333333333,4,2,3,55,0,0
46806,-83.3333333333333,4,2,3,5,0,0
46883,-83.3333333333333,4,2,3,55,0,0
47114,-83.3333333333333,4,2,3,5,0,0
47191,-83.3333333333333,4,2,2,50,0,0
47960,-166.666666666667,4,2,2,50,0,0
48422,-166.666666666667,4,2,2,45,0,0
49652,-83.3333333333334,4,2,2,80,0,0
51114,-83.3333333333334,4,2,2,80,0,0
51191,-83.3333333333334,4,2,2,80,0,0
52114,-125,4,2,2,55,0,0
54575,-125,4,2,2,60,0,0
55191,-125,4,2,2,65,0,0
55806,-125,4,2,2,75,0,0
56422,-125,4,2,3,75,0,0
56652,-125,4,2,3,5,0,0
56729,-125,4,2,3,60,0,0
56960,-125,4,2,3,5,0,0
57037,-83.3333333333333,4,2,3,75,0,0
61345,-83.3333333333333,4,2,2,75,0,0
61575,-83.3333333333333,4,2,2,80,0,0
61960,-83.3333333333333,4,2,3,75,0,0
64114,-83.3333333333333,4,2,2,75,0,0
64575,-83.3333333333333,4,2,2,80,0,0
65113,-83.3333333333333,4,2,2,35,0,0
65191,-83.3333333333333,4,2,2,80,0,0
65498,-83.3333333333333,4,2,2,85,0,0
65959,-83.3333333333333,4,2,2,70,0,0
66114,-83.3333333333333,4,2,3,75,0,0
66421,-83.3333333333333,4,2,2,65,0,0
66883,-83.3333333333333,4,2,2,50,0,0
71806,-100,4,2,2,60,0,0
73268,-100,4,2,2,5,0,0
73345,-100,4,2,2,60,0,0
73652,-100,4,2,2,60,0,0
74268,-125,4,2,2,60,0,0
75345,-125,4,2,2,75,0,0
75498,-125,4,2,2,70,0,0
76729,-166.666666666667,4,2,2,65,0,0
77345,-166.666666666667,4,2,2,65,0,0
77960,-166.666666666667,4,2,2,40,0,0
78036,-166.666666666667,4,2,2,43,0,0
78113,-166.666666666667,4,2,2,46,0,0
78190,-166.666666666667,4,2,2,49,0,0
78267,-166.666666666667,4,2,2,52,0,0
78344,-166.666666666667,4,2,2,55,0,0
78421,-166.666666666667,4,2,2,58,0,0
78498,-166.666666666667,4,2,2,61,0,0
78575,-166.666666666667,4,2,2,64,0,0
78651,-166.666666666667,4,2,2,67,0,0
78728,-166.666666666667,4,2,2,71,0,0
79191,-166.666666666667,4,2,2,70,0,0
81037,-166.666666666667,4,2,2,60,0,0
81652,-166.666666666667,4,2,2,75,0,0
83498,-125,4,2,3,60,0,0
83806,-125,4,2,3,70,0,0
84114,-125,4,2,2,75,0,0
84422,-83.3333333333333,4,2,2,75,0,0
86268,-83.3333333333333,4,2,2,75,0,0
88882,-83.3333333333333,4,2,2,65,0,0
89037,-125,4,2,2,65,0,0
89652,-125,4,2,2,60,0,0
89960,-125,4,2,2,50,0,0
90268,-100,4,2,2,50,0,0
91114,-100,4,2,2,55,0,0
91191,-83.3333333333333,4,2,2,55,0,0
91498,-71.4285714285714,4,2,2,80,0,1
91729,-71.4285714285714,4,2,2,5,0,1
91806,-71.4285714285714,4,2,2,80,0,1
94191,-71.4285714285714,4,2,2,5,0,1
94268,-71.4285714285714,4,2,2,80,0,1
94960,-71.4285714285714,4,2,2,5,0,1
95037,-71.4285714285714,4,2,2,80,0,1
96422,-71.4285714285714,4,2,2,70,0,1
96575,-71.4285714285714,4,2,2,80,0,1
96729,-71.4285714285714,4,2,2,75,0,1
97037,-71.4285714285714,4,2,2,80,0,1
97498,-62.5,4,2,2,80,0,1
97729,-62.5,4,2,2,5,0,1
97806,-71.4285714285714,4,2,3,70,0,1
98113,-71.4285714285714,4,2,2,75,0,1
98191,-71.4285714285714,4,2,2,80,0,1
98268,-71.4285714285714,4,2,3,75,0,1
98421,-71.4285714285714,4,2,3,80,0,1
98575,-71.4285714285714,4,2,2,75,0,1
98883,-71.4285714285714,4,2,2,70,0,1
99806,-71.4285714285714,4,2,3,70,0,1
100191,-71.4285714285714,4,2,3,5,0,1
100268,-71.4285714285714,4,2,3,70,0,1
100498,-71.4285714285714,4,2,3,5,0,1
100575,-71.4285714285714,4,2,3,70,0,1
100729,-71.4285714285714,4,2,3,60,0,1
101037,-71.4285714285714,4,2,2,60,0,1
101345,-100,4,2,2,60,0,0
102806,-100,4,2,2,80,0,0
102883,-100,4,2,2,60,0,0
103191,-62.5,4,2,2,70,0,0
103806,-71.4285714285714,4,2,2,80,0,1
104037,-71.4285714285714,4,2,2,5,0,1
104114,-71.4285714285714,4,2,2,80,0,1
104806,-71.4285714285714,4,2,2,5,0,1
104883,-71.4285714285714,4,2,2,80,0,1
109960,-71.4285714285714,4,2,2,75,0,1
110191,-71.4285714285714,4,2,2,5,0,1
110268,-71.4285714285714,4,2,2,70,0,1
110498,-71.4285714285714,4,2,2,5,0,1
110575,-71.4285714285714,4,2,2,65,0,1
110883,-71.4285714285714,4,2,2,60,0,1
111191,-100,4,2,2,50,0,0
112422,-125,4,2,2,50,0,0
113652,-100,4,2,2,50,0,0
114883,-125,4,2,2,50,0,0
118575,-125,4,2,2,45,0,0
118652,-125,4,2,2,35,0,0
121960,-125,4,2,2,5,0,0

[Colours]
Combo1 : 35,243,175
Combo2 : 238,102,224
Combo3 : 48,221,252

[HitObjects]
69,181,422,6,0,P|125:174|178:169,1,106.199996759033,4|0,0:0|0:0,0:0:0:0:
77,265,1037,2,0,P|133:258|186:253,1,106.199996759033,2|0,0:0|0:0,0:0:0:0:
339,249,1652,6,0,P|299:251|255:204,1,106.199996759033,2|0,0:0|0:0,0:0:0:0:
293,130,2114,1,2,0:0:0:0:
293,130,2268,2,0,P|333:128|377:175,1,106.199996759033
339,249,2729,1,0,0:0:0:0:
400,338,2883,6,0,P|443:333|475:331,2,53.0999983795166,2|0|0,0:0|0:0|0:0,0:0:0:0:
330,384,3345,2,0,P|287:379|255:377,1,53.0999983795166
208,312,3652,5,2,0:0:0:0:
135,327,3806,1,2,0:0:0:0:
62,342,3960,1,2,0:0:0:0:
5,267,4114,6,0,P|13:222|15:201,1,53.0999983795166,2|0,0:0|0:0,0:0:0:0:
81,174,4422,2,0,P|73:129|71:108,1,53.0999983795166
26,55,4729,2,0,P|61:17|125:27,1,106.199996759033,2|0,0:0|0:0,0:0:0:0:
247,90,5345,6,0,P|298:96|344:107,2,70.8,4|0|0,1:2|0:0|0:0,0:0:0:0:
202,17,5806,1,0,0:0:0:0:
112,18,5960,2,0,P|61:24|15:35,2,70.8,2|0|0,0:0|0:0|0:0,0:0:0:0:
202,17,6421,1,0,0:0:0:0:
317,99,6575,6,0,B|353:72|353:72|334:172|334:172|298:191|298:191|274:299|274:299,1,287.624986833573,6|0,1:2|0:0,0:0:0:0:
362,247,7037,1,4,1:2:0:0:
276,288,7345,6,2,P|216:280|206:246,1,57.5249973667146,4|0,1:2|0:0,0:1:0:0:
151,317,7498,6,2,P|115:269|132:239,1,57.5249973667146,2|0,3:0|0:0,0:1:0:0:
44,251,7652,6,2,P|52:192|85:182,1,57.5249973667146,2|0,3:0|0:0,0:1:0:0:
69,121,7806,6,0,P|110:118|153:115,2,70.8,4|0|0,1:2|0:0|0:0,0:0:0:0:
8,64,8268,1,0,0:0:0:0:
65,8,8422,2,0,P|100:10|135:13,2,70.8,2|0|0,0:0|0:0|0:0,0:0:0:0:
8,64,8883,1,0,0:0:0:0:
47,196,9037,6,2,B|18:197|-3:171|8:136|43:134|43:134|54:147|54:147|69:149|69:149|80:159|80:159|92:163|92:163|103:172|103:172|114:175|114:175|121:186|121:186|134:187|134:187|142:196|142:196|156:201|156:201|163:211|163:211|176:215|176:215|182:225|182:225|193:228|193:228|199:238,1,292.050008912659,0|0,0:0|0:0,0:1:0:0:
132,283,9652,2,0,B|112:255|114:232|114:232|103:270|129:295,1,97.3500029708863,0|0,3:0|0:0,0:0:0:0:
256,179,9960,6,0,P|274:230|264:266,1,57.5249973667146,0|0,1:0|0:0,0:0:0:0:
351,241,10114,2,0,P|327:289|295:308,1,57.5249973667146
194,230,10268,5,4,1:2:0:0:
256,179,10575,1,2,0:0:0:0:
205,117,10883,1,2,0:0:0:0:
143,167,11191,1,2,0:0:0:0:
194,230,11498,6,2,B|281:224|281:224|324:247|324:247|462:240,1,247.8,0|0,0:0|0:0,0:1:0:0:
498,292,12114,2,0,B|520:244|520:244|497:192,1,106.2,2|0,0:0|0:0,0:0:0:0:
429,137,12422,6,0,P|401:141|433:148,1,79.649997569275,0|0,3:0|0:0,0:0:0:0:
473,68,12729,6,0,P|454:152|434:240,1,177,4|0,1:2|0:0,0:0:0:0:
489,307,13191,1,2,0:0:0:0:
409,377,13345,2,0,B|370:350|370:350|301:344|215:387,1,177,0|2,1:0|0:3,0:0:0:0:
299,315,13806,1,2,0:0:0:0:
169,345,13960,6,0,B|179:318|197:306|218:299|218:299|239:240|203:175,1,177,2|2,1:2|3:0,0:0:0:0:
76,162,14575,2,0,B|29:186|16:247|16:247|30:264|39:284|33:312,1,177,2|0,1:2|0:0,0:0:0:0:
126,249,15191,6,0,P|225:238|317:229,1,177,2|0,1:2|0:0,0:0:0:0:
378,176,15652,1,2,0:0:0:0:
448,298,15806,2,0,B|410:276|410:276|327:277|369:319|264:305,1,177,0|2,1:0|3:0,0:0:0:0:
302,230,16268,1,2,0:0:0:0:
231,131,16422,6,0,P|177:86|72:154,1,177,2|2,1:2|3:0,0:0:0:0:
80,242,17037,2,0,P|134:287|239:219,1,177,2|2,1:2|3:0,0:0:0:0:
156,161,17652,6,0,P|122:127|82:118,1,88.5,4|0,1:2|0:0,0:0:0:0:
103,40,17960,2,0,P|56:39|21:62,1,88.5,0|0,1:0|0:0,0:0:0:0:
8,228,18268,6,0,P|18:182|4:143,1,88.5,0|0,1:0|0:0,0:0:0:0:
84,119,18576,2,0,P|59:79|21:61,1,88.5,0|0,1:2|0:0,0:0:0:0:
247,141,18883,6,0,P|248:98|225:60,1,88.5,4|0,1:2|0:0,0:0:0:0:
126,194,19191,2,0,P|157:164|168:122,1,88.5,2|0,1:2|0:0,0:0:0:0:
328,162,19498,6,0,P|291:139|246:140,1,88.5,4|0,1:2|0:0,0:0:0:0:
314,295,19806,2,0,P|303:253|272:222,1,88.5,2|0,1:2|0:0,0:0:0:0:
139,289,20114,5,4,1:2:0:0:
161,290,20190,1,0,1:2:0:0:
183,291,20267,1,0,1:2:0:0:
205,293,20344,1,0,1:2:0:0:
227,294,20422,2,0,L|224:358,3,44.25,4|0|0|0,1:2|1:2|1:2|1:2,0:0:0:0:
188,216,20729,2,0,L|185:171,3,44.25,4|0|0|0,1:2|1:2|1:2|1:2,0:0:0:0:
139,289,21037,2,0,L|136:333,3,44.25,4|0|0|0,1:2|1:2|1:2|1:2,0:0:0:0:
66,379,21345,5,4,1:2:0:0:
0,268,21498,1,4,1:2:0:0:
31,142,21652,1,4,1:2:0:0:
66,379,21960,5,4,1:2:0:0:
97,253,22191,5,4,1:2:0:0:
31,142,22422,5,4,1:2:0:0:
90,65,22575,6,0,B|135:59|135:59|144:64|144:64|205:55,2,106.2,4|2|2,1:2|0:0|0:0,0:0:0:0:
31,142,23191,5,2,0:0:0:0:
0,224,23345,1,2,0:0:0:0:
78,249,23498,1,2,0:0:0:0:
119,164,23652,5,2,0:0:0:0:
119,164,23729,1,2,0:0:0:0:
119,164,23806,2,0,P|159:184|170:198,2,47.2,2|0|0,0:0|0:0|0:0,0:0:0:0:
229,149,24114,6,0,P|253:186|256:203,2,47.2,2|0|0,0:0|0:0|0:0,0:0:0:0:
331,191,24422,6,0,P|333:235|330:251,3,35.4,2|0|0|0,0:0|0:0|0:0|0:0,0:0:0:0:
399,278,24729,6,0,P|379:318|365:329,2,47.2,2|2|2,0:0|0:0|0:0,0:0:0:0:
316,369,25037,6,0,B|371:325|445:320|500:354|500:354|479:319|422:304|362:323,1,331.875,2|0,0:0|0:0,0:0:0:0:
377,318,26268,5,8,3:0:0:0:
300,252,26422,1,2,0:0:0:0:
198,259,26575,1,8,3:0:0:0:
131,336,26729,1,8,3:0:0:0:
131,336,27037,5,8,3:0:0:0:
45,289,27191,1,0,1:0:0:0:
47,261,27267,1,0,1:0:0:0:
49,233,27344,1,0,1:0:0:0:
52,206,27421,1,0,1:0:0:0:
54,178,27498,6,0,P|59:126|58:89,1,70.8,4|0,1:2|0:0,0:0:0:0:
136,185,27806,2,0,P|141:133|140:96,1,70.8
107,40,28114,1,2,1:2:0:0:
107,40,28422,5,2,0:2:0:0:
140,114,28575,2,0,P|185:122|225:126,1,70.8,2|0,0:2|1:0,0:0:0:0:
275,166,28883,2,0,P|295:199|232:262,1,141.6,2|0,0:2|0:0,0:0:0:0:
293,344,29345,6,0,B|362:320|353:364|440:332,1,141.6,2|0,1:2|0:0,0:0:0:0:
497,263,29806,1,2,0:0:0:0:
497,263,29883,1,2,0:0:0:0:
497,263,29960,5,2,1:2:0:0:
512,176,30114,1,0,0:0:0:0:
440,135,30268,1,0,0:0:0:0:
375,190,30422,2,0,P|324:179|278:175,1,70.8,2|0,0:0|1:0,0:0:0:0:
230,192,30729,2,0,P|210:225|268:296,1,141.6,2|0,0:2|0:0,0:0:0:0:
190,344,31191,6,0,P|130:336|25:329,1,141.6,0|2,1:0|0:0,0:0:0:0:
121,293,31652,1,2,0:0:0:0:
51,245,31806,1,0,1:0:0:0:
105,169,31961,1,2,0:0:0:0:
102,150,32037,1,2,0:0:0:0:
100,131,32114,1,2,0:0:0:0:
100,112,32191,1,2,0:0:0:0:
99,94,32268,1,2,0:0:0:0:
205,153,32422,6,0,B|187:186|187:186|178:71,1,146.025004456329,4|0,1:2|0:0,0:0:0:0:
147,1,32729,6,0,B|259:-20|203:48|319:29,1,172.574992100144,8|0,0:0|0:0,0:0:0:0:
360,102,33037,6,0,P|366:58|290:41,1,115.049994733429,4|0,1:2|0:0,0:0:0:0:
409,29,33268,2,0,P|359:47|359:101,1,115.049994733429,8|0,0:0|0:0,0:0:0:0:
390,176,33498,1,6,1:2:0:0:
364,274,33652,5,4,1:2:0:0:
352,286,34114,6,0,B|253:318|290:240|173:277,1,172.574992100144,4|0,1:2|0:0,0:0:0:0:
186,273,34422,1,4,1:2:0:0:
221,175,34575,6,0,B|245:208|245:208|226:359,1,185.849994328308,2|0,1:0|0:0,0:0:0:0:
160,380,34883,6,0,B|131:353|131:353|72:339|33:385,1,132.75,4|0,1:2|0:0,0:0:0:0:
47,359,35191,2,0,P|45:293|42:236,1,88.5,10|0,0:0|3:0,0:0:0:0:
0,191,35498,1,0,3:0:0:0:
0,191,35652,2,0,B|39:175|39:175|86:188,1,88.5,2|8,1:2|0:0,0:0:0:0:
157,132,35960,5,6,1:2:0:0:
220,300,36268,5,6,1:2:0:0:
43,270,36575,5,6,1:2:0:0:
157,132,36883,5,4,1:2:0:0:
157,132,37037,6,0,P|191:126|221:124,1,44.25,2|0,3:0|0:0,0:0:0:0:
141,53,37191,2,0,P|175:47|205:45,1,44.25,2|0,3:0|0:0,0:0:0:0:
289,17,37345,6,0,B|264:65|264:65|297:129,1,106.199996759033,4|0,1:2|0:0,0:0:0:0:
359,206,37652,2,0,P|292:194|237:188,1,106.199996759033,10|0,0:0|0:0,0:0:0:0:
183,241,37960,1,2,3:0:0:0:
233,380,38114,2,0,B|225:358|229:323|229:323|249:308|257:285,1,106.199996759033,2|10,1:3|0:0,0:0:0:0:
316,384,38422,1,0,0:0:0:0:
385,298,38575,6,0,P|452:286|507:280,1,106.199996759033,2|0,1:2|0:0,0:0:0:0:
351,218,38883,1,10,0:2:0:0:
416,136,39037,1,2,0:0:0:0:
416,136,39114,1,2,0:0:0:0:
416,136,39191,2,0,B|410:92|410:92|400:79|400:79|393:8,1,106.199996759033,2|0,3:0|1:0,0:0:0:0:
328,125,39498,2,0,B|211:136|211:136|243:109,1,159.29999513855,10|0,0:0|0:0,0:0:0:0:
243,109,39806,5,8,1:3:0:0:
150,89,39960,2,0,B|129:118|129:118|139:208,1,106.199996759033,2|8,0:0|0:0,0:0:0:0:
31,104,40268,2,0,P|24:51|14:0,1,106.199996759033,8|2,3:0|0:3,0:0:0:0:
0,201,40575,1,8,1:3:0:0:
0,201,40652,1,2,0:0:0:0:
0,201,40729,2,0,P|43:251|93:235,1,106.199996759033,8|8,0:0|3:0,0:0:0:0:
207,145,41037,6,0,B|308:134|259:201|371:188,1,159.29999513855,2|0,1:2|0:0,0:0:0:0:
353,189,41345,1,8,0:2:0:0:
341,108,41498,1,8,3:0:0:0:
227,220,41652,5,0,1:0:0:0:
239,301,41806,1,8,1:3:0:0:
251,382,41960,2,0,P|318:370|373:364,1,106.199996759033,10|0,0:2|1:2,0:0:0:0:
500,320,42268,6,0,B|443:311|443:311|413:286|413:286|314:272,1,159.29999513855,4|0,1:2|0:0,0:0:0:0:
364,279,42575,2,2,P|405:234|376:194,1,106.199996759033,10|0,0:0|0:0,0:1:0:0:
341,108,42883,1,0,0:0:0:0:
282,217,43037,2,0,P|349:205|404:199,1,106.199996759033,2|8,1:1|0:0,0:0:0:0:
487,234,43345,1,0,0:0:0:0:
443,127,43498,6,2,B|443:73|443:73|394:86|358:142|390:210,1,212.399993518067,2|8,1:3|0:0,0:1:0:0:
386,290,43960,2,2,B|354:287|324:260|324:260|262:247|198:271|144:302,1,212.399993518067,2|0,3:0|1:0,0:1:0:0:
104,326,44422,2,0,P|45:334|12:291,1,106.199996759033,8|0,0:0|0:0,0:0:0:0:
171,383,44729,6,0,P|153:314|118:221,1,159.29999513855,2|0,1:2|0:0,0:0:0:0:
112,222,45037,2,2,B|70:227|70:227|50:217|50:217|-6:222,1,106.199996759033,10|0,0:2|0:0,0:1:0:0:
97,134,45345,1,0,0:0:0:0:
184,160,45498,2,0,P|190:107|200:55,1,106.199996759033,2|8,1:1|0:0,0:0:0:0:
206,245,45806,1,0,0:0:0:0:
271,184,45960,6,2,B|311:196|353:195|353:195|394:177|394:177|439:171|479:188,1,212.399993518067,2|0,1:3|0:0,0:1:0:0:
418,258,46422,1,10,0:0:0:0:
511,354,46575,6,0,B|454:384|395:369|395:369|418:356|430:319,1,159.29999513855,4|0,1:2|0:0,0:0:0:0:
505,275,46883,2,0,P|430:300|351:303,1,159.29999513855,8|0,0:0|0:0,0:0:0:0:
350,302,47191,5,4,1:2:0:0:
393,233,47345,1,0,0:0:0:0:
373,154,47498,1,2,0:0:0:0:
303,111,47652,1,0,0:0:0:0:
223,130,47805,5,2,0:0:0:0:
180,200,47960,2,0,P|183:228|185:259,2,53.0999983795166,0|2|0,0:0|0:0|0:0,0:0:0:0:
98,181,48422,6,0,P|103:236|108:289,1,106.199996759033,2|2,0:0|0:0,0:0:0:0:
52,362,48883,1,2,0:0:0:0:
52,362,48960,1,2,0:0:0:0:
52,362,49037,2,0,P|23:356|-2:352,1,53.0999983795166,2|2,0:0|0:0,0:0:0:0:
107,286,49345,2,0,P|136:280|161:276,1,53.0999983795166,2|2,0:0|0:0,0:0:0:0:
259,190,49652,5,4,1:2:0:0:
335,219,49806,1,8,0:2:0:0:
364,144,49960,1,0,1:0:0:0:
288,115,50114,1,10,0:0:0:0:
247,195,50268,6,0,P|216:190|204:188,2,26.5499991897583,2|0|0,1:2|1:0|1:0,0:0:0:0:
339,231,50422,1,2,1:2:0:0:
375,138,50576,1,10,0:0:0:0:
283,102,50730,1,2,1:2:0:0:
234,199,50883,6,0,P|155:188|58:175,1,159.29999513855,2|0,1:2|1:0,0:0:0:0:
8,245,51191,2,0,B|-14:217|-7:188|-7:188|0:219|22:246,1,106.199996759033,10|2,0:0|1:2,0:0:0:0:
162,150,51498,1,2,1:2:0:0:
162,150,51575,1,2,1:2:0:0:
162,150,51652,1,2,1:2:0:0:
225,294,51806,2,0,B|249:261|249:261|233:198,1,106.199996759033,10|2,0:0|1:2,0:0:0:0:
329,192,52114,6,0,P|337:140|383:37,1,141.6,4|8,1:2|3:0,0:0:0:0:
463,232,52729,2,0,P|411:224|308:178,1,141.6,0|0,1:0|0:0,0:0:0:0:
503,97,53345,2,0,P|495:149|449:252,1,141.6,8|0,1:3|0:0,0:0:0:0:
369,57,53960,2,0,P|421:65|524:111,1,141.6,8|2,1:3|0:0,0:0:0:0:
328,191,54575,6,0,P|315:159|330:113,1,70.8,2|2,1:2|0:0,0:0:0:0:
369,57,54883,2,0,P|401:43|447:59,1,70.8,0|2,1:0|0:0,0:0:0:0:
503,97,55191,2,0,P|516:129|501:175,1,70.8,2|0,1:2|0:0,0:0:0:0:
462,231,55499,2,0,P|430:244|384:229,1,70.8,2|0,1:2|0:0,0:0:0:0:
328,191,55806,6,0,L|322:222,2,17.7,4|0|0,1:2|1:0|1:0,0:0:0:0:
250,231,55960,1,0,1:0:0:0:
205,162,56114,1,0,1:0:0:0:
146,215,56268,1,2,1:2:0:0:
146,215,56345,1,0,1:0:0:0:
146,215,56422,6,0,P|84:229|72:283,1,106.2,4|0,1:2|0:0,0:0:0:0:
67,287,56729,2,0,P|109:283|182:301,1,106.2,2|0,0:0|0:0,0:0:0:0:
171,311,57037,6,0,B|315:336|231:276|392:298,1,212.399993518067,4|2,1:2|0:0,0:0:0:0:
461,338,57498,2,0,B|507:350|507:350|506:361|506:361|349:385,1,212.399993518067,4|2,1:2|0:0,0:0:0:0:
271,326,57960,2,0,P|305:240|378:297,1,212.399993518067,4|2,1:2|0:0,0:0:0:0:
437,224,58422,2,0,P|329:215|211:186,1,212.399993518067,4|0,1:2|0:0,0:0:0:0:
209,103,58883,6,0,B|207:91|173:79|173:79|200:71|229:101,1,106.199996759033,4|2,1:2|0:0,0:0:0:0:
133,170,59191,2,0,B|123:164|91:179|91:179|104:154|145:155,1,106.199996759033,2|2,3:0|3:0,0:0:0:0:
133,251,59498,6,0,P|121:175|90:31,1,212.399993518067,4|2,1:2|0:0,0:0:0:0:
7,114,59960,2,0,B|33:133|72:138|72:138|139:137|227:95,1,212.399993518067,4|2,1:2|0:0,0:0:0:0:
294,53,60422,2,0,B|268:72|229:77|229:77|162:76|74:34,1,212.399993518067,4|2,1:2|0:0,0:0:0:0:
2,7,60883,2,0,P|78:56|6:113,1,212.399993518067,4|2,1:2|0:0,0:0:0:0:
120,184,61345,6,0,B|94:153|94:153|110:66|110:66|83:32,2,159.29999513855,4|8|8,1:2|0:0|0:0,0:0:0:0:
207,117,61960,6,0,B|299:123|299:123|325:144|325:144|437:147,1,212.399993518067,4|2,1:2|0:0,0:0:0:0:
505,95,62422,2,0,B|534:69|534:69|351:62,1,212.399993518067,4|2,1:2|0:0,0:0:0:0:
304,170,62883,2,0,P|314:206|406:138,1,212.399993518067,4|2,1:2|0:0,0:0:0:0:
360,62,63345,2,0,B|268:68|268:68|242:89|242:89|130:92,1,212.399993518067,4|2,1:2|0:0,0:0:0:0:
60,47,63806,2,0,B|8:37|8:37|66:70,1,106.199996759033,4|0,1:2|0:0,0:0:0:0:
81,159,64114,1,8,0:0:0:0:
155,91,64268,1,4,1:2:0:0:
68,174,64422,5,2,0:0:0:0:
98,261,64575,2,0,P|157:255|228:249,1,106.199996759033,8|4,0:0|1:2,0:0:0:0:
304,267,64883,1,2,0:0:0:0:
304,267,64960,1,2,2:0:0:0:
304,267,65037,2,0,L|295:197,1,53.0999983795166,8|0,0:0|0:0,0:0:0:0:
214,163,65191,6,0,P|184:214|215:258,1,106.199996759033,4|0,1:2|0:0,0:0:0:0:
295,195,65498,1,8,0:0:0:0:
414,260,65652,6,0,P|284:245|174:255,1,212.399993518067,4|2,1:2|0:0,0:0:0:0:
418,144,66114,2,0,P|312:148|206:134,1,212.399993518067,4|2,1:2|0:3,0:0:0:0:
295,195,66883,5,4,0:0:0:0:
126,99,71806,5,4,1:2:0:0:
126,99,71883,1,0,1:0:0:0:
126,99,71960,1,8,0:0:0:0:
95,182,72114,2,0,P|133:176|216:169,1,88.5,0|8,1:0|0:0,0:0:0:0:
304,85,72575,6,0,B|299:43|299:43|294:39|294:39|287:-29,2,88.5,2|2|10,1:2|0:0|0:0,0:0:0:0:
274,161,73037,2,0,P|294:216|372:191,1,132.75,0|0,1:0|0:0,0:0:0:0:
371,204,73345,2,0,P|409:210|492:217,1,88.5,8|0,0:0|0:0,0:0:0:0:
408,291,73652,1,2,1:2:0:0:
408,291,73729,1,0,1:0:0:0:
408,291,73806,1,0,1:0:0:0:
463,364,73960,2,0,P|418:368|375:375,1,88.5,8|0,0:0|0:0,0:0:0:0:
286,265,74268,6,0,P|291:312|200:331,1,141.6,4|0,1:2|1:0,0:0:0:0:
115,260,74883,2,0,P|110:213|201:194,1,141.6,0|0,1:0|1:0,0:0:0:0:
202,262,75345,1,10,0:0:0:0:
214,342,75498,6,0,P|269:331|308:330,1,70.8,4|0,1:2|1:0,0:0:0:0:
333,194,75806,2,0,P|278:205|239:206,1,70.8,0|0,1:0|1:0,0:0:0:0:
128,189,76114,2,0,L|138:250,3,35.4,4|0|0|0,1:2|1:0|1:0|1:0,0:0:0:0:
56,139,76422,2,0,L|66:78,3,35.4,0|0|0|0,1:0|1:0|1:0|1:0,0:0:0:0:
7,53,76729,6,0,P|18:9|84:8,1,106.199996759033,4|0,0:0|0:0,0:0:0:0:
143,111,77345,2,0,B|215:122|166:142|257:150,1,106.199996759033,0|2,0:0|0:0,0:0:0:0:
369,88,77960,6,0,P|400:82|404:82,7,26.5499991897583,0|0|0|0|0|0|0|0,1:0|1:0|1:0|1:0|1:0|1:0|1:0|1:0,0:0:0:0:
311,31,78575,2,0,P|280:25|276:25,7,26.5499991897583,0|0|0|0|0|0|0|0,1:0|1:0|1:0|1:0|1:0|1:0|1:0|1:0,0:0:0:0:
195,33,79191,6,0,L|187:93,3,53.0999983795166,4|2|2|2,1:2|0:0|0:0|0:0,0:0:0:0:
244,148,79806,6,0,L|252:208,3,53.0999983795166,2|2|2|2,1:2|0:0|0:0|0:0,0:0:0:0:
207,273,80422,6,0,L|199:333,3,53.0999983795166,2|2|2|2,1:2|0:0|0:0|0:0,0:0:0:0:
314,345,81037,6,0,P|355:340|388:334,1,53.0999983795166,2|0,1:2|0:0,0:0:0:0:
294,271,81345,2,0,P|335:266|368:260,1,53.0999983795166,2|0,0:0|0:0,0:0:0:0:
461,215,81652,6,0,L|401:207,3,53.0999983795166,2|2|2|2,1:2|0:0|0:3|0:0,0:0:0:0:
346,264,82268,6,0,L|286:272,3,53.0999983795166,2|2|2|2,1:2|0:0|0:3|0:0,0:0:0:0:
221,227,82883,6,0,L|161:219,3,53.0999983795166,2|2|2|2,1:2|0:0|0:3|0:0,0:0:0:0:
255,135,83498,6,2,P|260:94|266:61,1,70.8,4|0,1:2|0:0,0:1:0:0:
332,141,83806,2,2,P|337:100|343:67,1,70.8,4|0,1:2|0:0,0:1:0:0:
453,39,84114,5,4,1:2:0:0:
453,39,84191,1,0,0:0:0:0:
453,39,84268,1,2,3:0:0:0:
453,39,84345,1,0,0:0:0:0:
453,39,84422,2,0,P|470:90|429:136,1,106.199996759033,8|2,1:2|3:0,0:0:0:0:
479,232,84729,5,0,1:0:0:0:
479,232,84806,1,0,0:0:0:0:
479,232,84883,1,2,3:0:0:0:
479,232,84960,1,0,0:0:0:0:
479,232,85037,2,0,B|409:221|446:271|348:239,1,106.199996759033,8|2,1:2|3:0,0:0:0:0:
271,213,85345,5,0,1:0:0:0:
271,213,85422,1,0,0:0:0:0:
271,213,85498,1,2,3:0:0:0:
271,213,85575,1,0,0:0:0:0:
271,213,85652,2,0,P|277:277|283:359,1,106.199996759033,8|2,1:2|3:0,0:0:0:0:
219,384,85960,6,0,B|136:365|136:365|98:376,1,106.199996759033,2|0,1:1|0:0,0:0:0:0:
5,270,86268,2,0,B|88:289|88:289|126:278,1,106.199996759033,8|2,1:2|0:0,0:0:0:0:
108,283,86498,1,2,0:0:0:0:
108,283,86575,5,4,1:2:0:0:
83,202,86729,1,0,1:0:0:0:
58,121,86883,1,2,1:2:0:0:
33,40,87037,1,0,1:0:0:0:
52,132,87191,5,2,1:2:0:0:
133,107,87345,1,0,1:0:0:0:
214,82,87499,1,2,1:2:0:0:
295,57,87653,1,0,1:0:0:0:
295,57,87729,1,0,1:0:0:0:
295,57,87806,6,0,P|298:93|286:122,3,53.0999983795166,4|0|0|0,1:2|1:0|1:0|1:0,0:0:0:0:
361,148,88114,2,0,P|337:175|308:187,3,53.0999983795166,2|0|0|0,1:2|1:0|1:0|1:0,0:0:0:0:
326,263,88422,6,0,B|278:257|278:257|264:245|264:245|202:236,1,106.199996759033,4|0,1:2|1:0,0:0:0:0:
158,279,88652,1,0,1:0:0:0:
158,279,88729,2,0,B|193:340|193:340|234:310,1,106.199996759033,4|0,1:2|1:0,0:0:0:0:
348,373,89037,6,0,P|365:336|387:321,2,47.2,4|0|0,1:2|0:0|0:0,0:0:0:0:
326,263,89345,6,0,P|364:249|390:254,2,47.2,2|0|0,0:0|0:0|0:0,0:0:0:0:
387,171,89652,6,0,P|423:188|438:210,2,47.2,2|2|2,0:0|0:0|0:0,0:0:0:0:
495,149,89960,6,8,P|508:187|503:213,2,47.2,2|2|2,0:0|0:0|0:0,0:0:0:0:
486,288,90268,5,4,1:2:0:0:
369,249,90498,1,2,0:0:0:0:
254,212,90729,1,2,0:0:0:0:
176,255,90883,6,0,P|99:219|34:260,1,132.75,8|2,0:0|0:0,0:0:0:0:
52,247,91191,2,0,P|61:300|61:335,1,53.0999983795166,2|2,0:0|0:0,0:0:0:0:
127,184,91345,2,0,P|130:157|135:131,1,53.0999983795166,2|0,0:0|0:0,0:0:0:0:
88,66,91498,6,0,B|58:55|59:33|59:33|129:73|226:48,1,185.849994328308,4|0,1:2|0:0,0:0:0:0:
260,6,91806,2,0,P|316:-8|349:49,1,123.899996218872,10|2,0:0|0:0,0:0:0:0:
373,174,92114,2,0,P|341:169|297:169,1,61.9499981094361,2|0,3:0|0:0,0:0:0:0:
287,86,92268,2,0,P|358:95|415:94,1,123.899996218872,2|2,1:3|3:0,0:0:0:0:
488,236,92575,6,0,B|420:182|357:230|383:239|306:272|255:229,1,247.799992437744,10|0,0:0|1:0,0:0:0:0:
190,275,92960,1,0,3:0:0:0:
190,275,93037,2,0,P|177:250|180:205,3,61.9499981094361,8|0|0|0,3:2|3:0|3:0|3:0,0:0:0:0:
98,204,93345,2,8,P|106:177|140:147,3,61.9499981094361,0|0|0|0,1:0|3:0|3:0|3:0,0:0:0:0:
210,141,93652,5,8,3:2:0:0:
221,140,93728,1,0,3:0:0:0:
233,140,93805,1,0,3:0:0:0:
244,139,93882,1,0,3:0:0:0:
255,138,93960,6,2,B|307:145|331:179|336:232|336:232|254:218,1,185.849994328308,6|0,1:2|0:0,0:1:0:0:
353,316,94268,6,2,L|273:302,1,61.9499981094361,10|0,0:0|0:0,0:1:0:0:
229,355,94498,2,2,L|149:341,1,61.9499981094361,2|0,1:2|0:0,0:1:0:0:
98,380,94729,6,2,B|30:367|30:367|19:351|19:351|33:233,1,185.849994328308,2|0,1:2|0:0,0:1:0:0:
86,197,95037,6,2,B|66:175|37:172|37:172|136:159|136:159|150:172|150:172|247:193,1,247.799992437744,12|0,0:0|1:0,0:1:0:0:
354,167,95498,2,0,P|349:199|349:243,1,61.9499981094361,10|0,0:0|0:0,0:0:0:0:
266,253,95652,2,2,P|275:182|274:125,1,123.899996218872,2|0,1:2|0:0,0:1:0:0:
421,113,95960,6,0,P|475:110|503:107,1,61.9499981094361,2|2,1:2|0:0,0:0:0:0:
490,202,96114,2,0,P|436:205|408:208,1,61.9499981094361,10|0,0:0|0:0,0:0:0:0:
456,157,96268,1,2,1:2:0:0:
460,295,96422,6,0,P|381:305|326:315,1,123.899996218872,4|0,1:2|0:0,0:0:0:0:
170,367,96729,2,0,P|249:377|304:387,1,123.899996218872,10|0,0:0|0:0,0:0:0:0:
244,290,97037,1,2,1:2:0:0:
244,290,97114,1,2,1:2:0:0:
244,290,97191,1,2,1:2:0:0:
111,207,97345,1,10,0:0:0:0:
111,207,97422,1,10,0:0:0:0:
111,207,97498,6,0,B|58:186|58:186|98:126|192:124|208:195,1,212.4,10|0,0:0|0:0,0:0:0:0:
206,155,97806,2,0,L|196:228,1,61.9499981094361,4|0,1:2|0:0,0:0:0:0:
228,75,97960,2,0,B|280:90|280:90|301:83|301:83|400:103,1,123.899996218872,10|2,0:0|0:0,0:0:0:0:
432,74,98191,1,0,0:0:0:0:
432,74,98268,2,0,B|513:40|513:40|451:-12,1,123.899996218872,4|0,1:2|0:0,0:0:0:0:
505,204,98575,5,10,0:0:0:0:
507,219,98651,1,2,0:0:0:0:
509,234,98728,1,2,0:0:0:0:
511,250,98805,1,2,0:0:0:0:
512,266,98883,6,2,P|513:338|441:338,1,123.899996218872,2|0,1:3|0:0,0:1:0:0:
480,366,99114,2,0,P|449:316|392:327,1,123.899996218872,8|0,0:0|0:0,0:0:0:0:
385,341,99345,1,2,1:2:0:0:
298,379,99498,1,8,0:0:0:0:
298,379,99652,1,0,1:0:0:0:
193,272,99806,1,4,1:2:0:0:
170,282,99883,1,2,1:2:0:0:
194,303,99960,6,0,B|112:265|31:272|31:272|46:251|72:250,1,185.849994328308,4|0,1:2|0:0,0:0:0:0:
112,223,100268,2,0,P|149:182|44:137,1,185.849994328308,4|0,1:2|0:0,0:0:0:0:
59,122,100575,1,8,0:0:0:0:
174,154,100729,6,0,B|227:149|227:149|234:152|234:152|309:143,1,123.899996218872,4|2,1:2|0:0,0:0:0:0:
361,98,100960,1,2,0:0:0:0:
361,98,101037,2,0,P|411:107|428:180,1,123.899996218872,10|0,0:0|0:0,0:0:0:0:
391,242,101345,6,0,P|346:245|303:251,1,88.5,4|2,1:2|0:0,0:0:0:0:
267,330,101652,2,0,P|222:326|179:320,1,88.5,2|2,0:0|0:0,0:0:0:0:
123,251,101960,2,0,P|117:195|143:160,2,88.5,2|0|2,3:0|0:0|0:0,0:0:0:0:
179,320,102422,6,0,B|228:280|201:216|201:216|227:189|211:130,1,177,2|0,3:0|0:0,0:0:0:0:
132,169,102806,1,0,0:0:0:0:
132,169,102883,2,0,P|90:147|57:150,3,44.25,2|2|2|2,0:0|0:0|0:0|0:0,0:0:0:0:
27,188,103191,6,0,B|28:223|28:223|33:232|33:232|35:272,7,70.8,8|8|8|8|8|8|8|8,0:0|0:0|0:0|0:0|0:0|0:0|0:0|0:0,0:0:0:0:
20,284,103806,6,2,P|141:270|227:268,1,185.849994328308,4|0,1:2|0:0,0:1:0:0:
220,187,104114,6,2,B|267:180|267:180|315:197,1,61.9499981094361,10|0,0:0|0:0,0:1:0:0:
333,117,104345,2,2,B|380:110|380:110|428:127,1,61.9499981094361,2|0,1:2|0:0,0:1:0:0:
442,46,104575,6,2,B|489:39|489:39|339:14,1,185.849994328308,2|0,1:2|0:0,0:1:0:0:
273,56,104883,6,2,B|171:64|171:64|137:90|137:90|13:96,1,247.799992437744,12|0,0:0|1:0,0:1:0:0:
188,157,105345,2,0,P|183:189|183:233,1,61.9499981094361,10|0,0:0|0:0,0:0:0:0:
100,243,105499,2,2,P|109:172|108:115,1,123.899996218872,2|0,1:2|0:0,0:1:0:0:
246,103,105806,6,0,P|277:101|308:100,1,61.9499981094361,2|2,1:2|0:0,0:0:0:0:
300,7,105960,2,0,P|269:9|239:11,1,61.9499981094361,10|0,0:0|0:0,0:0:0:0:
273,56,106114,1,2,0:0:0:0:
376,155,106268,5,12,0:0:0:0:
326,240,106422,2,0,P|423:233|466:236,1,123.899996218872,0|2,1:0|1:2,0:0:0:0:
270,339,106729,5,10,0:0:0:0:
196,259,106883,2,0,P|257:260|319:253,1,123.899996218872,2|2,1:2|1:2,0:0:0:0:
132,165,107191,5,10,0:0:0:0:
52,239,107345,1,0,1:0:0:0:
141,177,107498,5,12,0:0:0:0:
214,97,107652,2,0,P|152:98|90:91,1,123.899996218872,2|0,1:2|1:0,0:0:0:0:
272,23,107960,5,10,0:0:0:0:
345,103,108114,2,0,P|283:101|221:108,1,123.899996218872,4|2,1:2|1:2,0:0:0:0:
429,178,108422,5,10,0:0:0:0:
509,104,108576,1,2,1:2:0:0:
499,13,108729,5,4,1:2:0:0:
499,13,108806,1,0,1:0:0:0:
499,13,108883,1,2,1:2:0:0:
499,13,108960,1,2,1:2:0:0:
499,13,109037,2,0,L|492:88,7,61.9499981094361,4|0|2|0|4|2|2|2,1:2|1:0|1:2|1:0|1:2|1:2|1:2|1:2,0:0:0:0:
416,93,109652,1,4,1:2:0:0:
416,93,109729,1,0,1:0:0:0:
416,93,109806,1,0,1:0:0:0:
416,93,109883,1,0,1:0:0:0:
416,93,109960,6,0,B|390:124|390:124|423:267,1,185.849994328308,4|0,1:2|0:0,0:0:0:0:
489,328,110268,2,0,B|515:297|515:297|482:154,1,185.849994328308,4|0,1:2|0:0,0:0:0:0:
386,164,110575,2,0,L|421:316,1,123.899996218872,4|0,1:2|0:0,0:0:0:0:
320,356,110883,1,10,0:0:0:0:
320,356,110960,1,2,0:0:0:0:
320,356,111037,1,2,0:0:0:0:
226,300,111191,6,0,B|111:280|195:264|48:239,1,177,4|0,1:2|1:0,0:0:0:0:
15,164,111806,2,0,B|130:144|46:128|193:103,1,177,0|0,1:0|1:0,0:0:0:0:
273,202,112422,5,2,0:0:0:0:
273,202,112575,1,2,0:0:0:0:
179,105,112883,1,2,0:0:0:0:
179,105,113037,2,0,P|187:140|193:182,1,70.8,2|2,0:0|0:0,0:0:0:0:
117,211,113345,2,0,P|111:176|103:141,1,70.8,2|0,0:0|0:0,0:0:0:0:
290,47,113652,6,0,B|366:64|366:64|382:83|382:83|468:106,1,177,4|0,1:2|1:0,0:0:0:0:
512,190,114268,2,0,B|436:207|436:207|420:226|420:226|334:249,1,177,0|0,1:0|1:0,0:0:0:0:
192,236,114883,5,2,0:0:0:0:
192,236,115036,1,2,0:0:0:0:
286,139,115344,1,2,0:0:0:0:
286,139,115498,2,0,P|278:174|272:216,1,70.8,2|2,0:0|0:0,0:0:0:0:
337,259,115729,1,2,0:0:0:0:
337,259,115806,2,0,L|340:304,3,35.4,2|2|2|2,0:0|0:0|0:0|0:0,0:0:0:0:
332,315,116114,6,0,P|274:306|165:326,1,141.6,2|2,0:0|0:0,0:0:0:0:
71,282,116729,1,2,0:0:0:0:
71,282,116883,2,0,L|81:198,1,70.8,2|0,0:0|0:0,0:0:0:0:
64,130,117191,6,0,B|167:133|107:167|217:174,2,141.6,2|2|2,0:0|0:0|0:0,0:0:0:0:
101,54,117960,2,0,P|147:63|171:78,1,70.8,2|2,0:0|0:0,0:0:0:0:
246,70,118268,1,2,0:0:0:0:
258,254,118575,5,4,0:0:0:0:
256,192,118652,12,0,121960,0:0:0:0:
