osu file format v14

[General]
AudioFilename: audio.mp3
AudioLeadIn: 0
PreviewTime: 79152
Countdown: 0
SampleSet: Soft
StackLeniency: 0.5
Mode: 0
LetterboxInBreaks: 0
WidescreenStoryboard: 1

[Editor]
Bookmarks: 27498,57037,79191,91498,111191
DistanceSpacing: 1.3
BeatDivisor: 4
GridSize: 32
TimelineZoom: 2.799999

[Metadata]
Title:Utsushi Gi no Shoujo Lix (Traveler Edit)
TitleUnicode:写儀の少女Lix (Traveler Edit)
Artist:Se-U-Ra
ArtistUnicode:Se-U-Ra
Creator:August
Version:Dored's Hard
Source:
Tags:dored kaguya_sama bellicose xen kodama seura せゆーら featured artist fa electronic instrumental mpg mappers' guild The Endless for Traveler Traveller bofu2017 THE BMS OF FIGHTERS ULTIMATE 2017 初音ミク hatsune miku criin xehn xenon-
BeatmapID:2997606
BeatmapSetID:1447575

[Difficulty]
HPDrainRate:4.5
CircleSize:3.8
OverallDifficulty:6.5
ApproachRate:8
SliderMultiplier:1.3
SliderTickRate:1

[Events]
//Background and Video events
0,0,"yeah.jpg",0,0
//Break Periods
2,22883,25037
2,66883,70575
//Storyboard Layer 0 (Background)
//Storyboard Layer 1 (Fail)
//Storyboard Layer 2 (Pass)
//Storyboard Layer 3 (Foreground)
//Storyboard Layer 4 (Overlay)
//Storyboard Sound Samples

[TimingPoints]
422,307.692307692308,4,2,2,35,1,0
422,-111.111111111111,4,2,2,35,0,0
4114,-111.111111111111,4,2,2,40,0,0
5345,-111.111111111111,4,2,2,50,0,0
6575,-111.111111111111,4,2,2,65,0,0
7037,-111.111111111111,4,2,3,65,0,0
7345,-111.111111111111,4,2,2,70,0,0
7422,-111.111111111111,4,2,2,5,0,0
7498,-111.111111111111,4,2,2,70,0,0
7575,-111.111111111111,4,2,2,5,0,0
7652,-111.111111111111,4,2,2,70,0,0
7729,-111.111111111111,4,2,2,5,0,0
7806,-111.111111111111,4,2,2,50,0,0
9037,-111.111111111111,4,2,2,45,0,0
9575,-111.111111111111,4,2,2,5,0,0
9652,-111.111111111111,4,2,2,45,0,0
10268,-111.111111111111,4,2,2,40,0,0
12037,-111.111111111111,4,2,2,5,0,0
12114,-111.111111111111,4,2,2,40,0,0
12345,-111.111111111111,4,2,2,5,0,0
12422,-111.111111111111,4,2,2,40,0,0
12729,-111.111111111111,4,2,2,50,0,0
17575,-111.111111111111,4,2,2,5,0,0
17652,-111.111111111111,4,2,2,57,0,0
18268,-111.111111111111,4,2,2,64,0,0
18883,-111.111111111111,4,2,2,70,0,0
19498,-111.111111111111,4,2,2,75,0,0
21345,-111.111111111111,4,2,2,80,0,0
21960,-111.111111111111,4,2,3,65,0,0
22575,-111.111111111111,4,2,2,60,0,0
25037,-111.111111111111,4,2,2,20,0,0
26268,-111.111111111111,4,2,2,35,0,0
26575,-111.111111111111,4,2,2,45,0,0
27191,-111.111111111111,4,2,2,40,0,0
27498,-111.111111111111,4,2,2,50,0,0
28345,-111.111111111111,4,2,2,5,0,0
28422,-111.111111111111,4,2,2,50,0,0
29575,-111.111111111111,4,2,2,5,0,0
29652,-111.111111111111,4,2,2,50,0,0
31422,-111.111111111111,4,2,2,5,0,0
31498,-111.111111111111,4,2,2,50,0,0
31960,-111.111111111111,4,2,2,52,0,0
32037,-111.111111111111,4,2,2,54,0,0
32114,-111.111111111111,4,2,2,56,0,0
32191,-111.111111111111,4,2,2,58,0,0
32268,-111.111111111111,4,2,2,60,0,0
32422,-99.9999999999999,4,2,3,75,0,0
33652,-99.9999999999999,4,2,3,60,0,0
34883,-99.9999999999999,4,2,2,70,0,0
35960,-99.9999999999999,4,2,3,65,0,0
36268,-99.9999999999999,4,2,3,60,0,0
36575,-99.9999999999999,4,2,2,55,0,0
36883,-99.9999999999999,4,2,3,50,0,0
37037,-99.9999999999999,4,2,2,50,0,0
37191,-99.9999999999999,4,2,2,50,0,0
37345,-99.9999999999999,4,2,2,75,0,0
38806,-99.9999999999999,4,2,2,5,0,0
38883,-99.9999999999999,4,2,2,75,0,0
39729,-99.9999999999999,4,2,2,5,0,0
39806,-99.9999999999999,4,2,2,75,0,0
41268,-99.9999999999999,4,2,2,5,0,0
41345,-99.9999999999999,4,2,2,75,0,0
42498,-99.9999999999999,4,2,2,5,0,0
42575,-99.9999999999999,4,2,2,75,0,0
43729,-99.9999999999999,4,2,2,5,0,0
43806,-99.9999999999999,4,2,2,75,0,0
44191,-99.9999999999999,4,2,2,5,0,0
44268,-99.9999999999999,4,2,2,75,0,0
45268,-99.9999999999999,4,2,2,5,0,0
45345,-99.9999999999999,4,2,2,75,0,0
45960,-99.9999999999999,4,2,2,65,0,0
46575,-99.9999999999999,4,2,3,55,0,0
47191,-99.9999999999999,4,2,2,50,0,0
48422,-99.9999999999999,4,2,2,45,0,0
49652,-99.9999999999999,4,2,2,80,0,0
52114,-99.9999999999999,4,2,2,55,0,0
52652,-99.9999999999999,4,2,2,5,0,0
52729,-99.9999999999999,4,2,2,55,0,0
53575,-99.9999999999999,4,2,2,5,0,0
53652,-99.9999999999999,4,2,2,55,0,0
54575,-99.9999999999999,4,2,2,60,0,0
55191,-99.9999999999999,4,2,2,65,0,0
55806,-99.9999999999999,4,2,2,75,0,0
56422,-99.9999999999999,4,2,3,75,0,0
56729,-99.9999999999999,4,2,3,60,0,0
57037,-99.9999999999999,4,2,3,75,0,0
58191,-99.9999999999999,4,2,3,5,0,0
58268,-99.9999999999999,4,2,3,75,0,0
58652,-99.9999999999999,4,2,3,5,0,0
58729,-99.9999999999999,4,2,3,75,0,0
60652,-99.9999999999999,4,2,3,5,0,0
60729,-99.9999999999999,4,2,3,75,0,0
61114,-99.9999999999999,4,2,3,5,0,0
61191,-99.9999999999999,4,2,3,75,0,0
61345,-99.9999999999999,4,2,2,75,0,0
61575,-99.9999999999999,4,2,2,80,0,0
61960,-99.9999999999999,4,2,3,75,0,0
63114,-99.9999999999999,4,2,3,5,0,0
63191,-99.9999999999999,4,2,3,75,0,0
63575,-99.9999999999999,4,2,3,5,0,0
63652,-99.9999999999999,4,2,3,75,0,0
64114,-99.9999999999999,4,2,2,75,0,0
64575,-99.9999999999999,4,2,2,80,0,0
65498,-99.9999999999999,4,2,2,85,0,0
65883,-99.9999999999999,4,2,2,5,0,0
65960,-99.9999999999999,4,2,2,70,0,0
66114,-99.9999999999999,4,2,3,75,0,0
66422,-99.9999999999999,4,2,2,65,0,0
66883,-99.9999999999999,4,2,2,50,0,0
71806,-99.9999999999999,4,2,2,60,0,0
73345,-99.9999999999999,4,2,2,60,0,0
73575,-99.9999999999999,4,2,2,5,0,0
73652,-99.9999999999999,4,2,2,60,0,0
75114,-99.9999999999999,4,2,2,5,0,0
75191,-99.9999999999999,4,2,2,60,0,0
75345,-99.9999999999999,4,2,2,75,0,0
75498,-99.9999999999999,4,2,2,70,0,0
76729,-99.9999999999999,4,2,2,65,0,0
76806,-99.9999999999999,4,2,2,60,0,0
77652,-99.9999999999999,4,2,2,50,0,0
77883,-99.9999999999999,4,2,2,5,0,0
77960,-99.9999999999999,4,2,2,40,0,0
78037,-99.9999999999999,4,2,2,43,0,0
78114,-99.9999999999999,4,2,2,46,0,0
78191,-99.9999999999999,4,2,2,49,0,0
78268,-99.9999999999999,4,2,2,52,0,0
78345,-99.9999999999999,4,2,2,55,0,0
78422,-99.9999999999999,4,2,2,58,0,0
78498,-99.9999999999999,4,2,2,61,0,0
78575,-99.9999999999999,4,2,2,64,0,0
78652,-99.9999999999999,4,2,2,67,0,0
78729,-99.9999999999999,4,2,2,71,0,0
79191,-100,4,2,2,70,0,0
81037,-100,4,2,2,60,0,0
81652,-100,4,2,2,75,0,0
83498,-100,4,2,3,60,0,0
83806,-100,4,2,3,70,0,0
84114,-90.9090909090909,4,2,2,75,0,0
86191,-90.9090909090909,4,2,2,5,0,0
86268,-90.9090909090909,4,2,2,75,0,0
88883,-90.9090909090909,4,2,2,65,0,0
89652,-90.9090909090909,4,2,2,60,0,0
89960,-90.9090909090909,4,2,2,50,0,0
91037,-90.9090909090909,4,2,2,55,0,0
91498,-90.9090909090909,4,2,2,80,0,1
92806,-90.9090909090909,4,2,2,5,0,1
92883,-90.9090909090909,4,2,2,80,0,1
95268,-90.9090909090909,4,2,2,5,0,1
95345,-90.9090909090909,4,2,2,80,0,1
95883,-90.9090909090909,4,2,2,5,0,1
95960,-90.9090909090909,4,2,2,80,0,1
96422,-90.9090909090909,4,2,2,70,0,1
96652,-90.9090909090909,4,2,2,5,0,1
96729,-90.9090909090909,4,2,2,75,0,1
97037,-90.9090909090909,4,2,2,80,0,1
97806,-90.9090909090909,4,2,3,70,0,1
98114,-90.9090909090909,4,2,2,75,0,1
98268,-90.9090909090909,4,2,3,75,0,1
98498,-90.9090909090909,4,2,3,5,0,1
98575,-90.9090909090909,4,2,2,75,0,1
98883,-90.9090909090909,4,2,2,70,0,1
99806,-90.9090909090909,4,2,3,70,0,1
100729,-90.9090909090909,4,2,3,60,0,1
101037,-90.9090909090909,4,2,2,60,0,1
101345,-90.9090909090909,4,2,2,60,0,0
103191,-90.9090909090909,4,2,2,70,0,0
103806,-90.9090909090909,4,2,2,80,0,1
105114,-90.9090909090909,4,2,2,5,0,1
105191,-90.9090909090909,4,2,2,80,0,1
105729,-90.9090909090909,4,2,2,5,0,1
105806,-90.9090909090909,4,2,2,80,0,1
109960,-90.9090909090909,4,2,2,75,0,1
110268,-90.9090909090909,4,2,2,70,0,1
110575,-90.9090909090909,4,2,2,65,0,1
110883,-90.9090909090909,4,2,2,60,0,1
111191,-111.111111111111,4,2,2,50,0,0
115268,-111.111111111111,4,2,2,5,0,0
115345,-111.111111111111,4,2,2,50,0,0
116191,-111.111111111111,4,2,2,45,0,0
118498,-111.111111111111,4,2,2,5,0,0
118575,-111.111111111111,4,2,2,50,0,0
118652,-111.111111111111,4,2,2,30,0,0
121960,-111.111111111111,4,2,2,5,0,0

[Colours]
Combo1 : 35,243,175
Combo2 : 238,102,224
Combo3 : 48,221,252

[HitObjects]
432,140,422,5,4,0:0:0:0:
360,190,729,1,2,0:0:0:0:
273,174,1037,1,2,0:0:0:0:
222,101,1345,1,2,0:0:0:0:
237,13,1652,5,2,0:0:0:0:
82,60,1960,1,2,0:0:0:0:
82,60,2114,2,0,P|95:154|96:176,1,116.999996429443,2|0,0:0|0:0,0:0:0:0:
164,226,2575,1,2,0:0:0:0:
164,226,2729,6,0,P|101:205|70:296,1,175.499994644165,2|0,0:0|0:0,0:0:0:0:
209,368,3498,1,2,0:0:0:0:
209,368,3652,2,0,L|150:360,2,58.4999982147217,2|2|2,0:0|0:0|0:0,0:0:0:0:
268,300,4114,5,2,0:0:0:0:
336,359,4422,1,0,0:0:0:0:
395,291,4729,1,2,0:0:0:0:
463,350,5037,1,0,0:0:0:0:
493,188,5345,6,0,P|487:216|482:245,2,58.4999982147217,4|0|0,1:2|0:0|0:0,0:0:0:0:
477,107,5806,1,0,0:0:0:0:
406,150,5960,2,0,P|401:178|395:207,2,58.4999982147217,2|0|0,0:0|0:0|0:0,0:0:0:0:
390,69,6422,1,0,0:0:0:0:
319,112,6575,6,0,P|290:107|261:101,1,58.4999982147217,6|0,1:2|0:0,0:0:0:0:
197,50,6883,1,0,0:0:0:0:
197,50,7037,1,4,1:2:0:0:
95,178,7345,2,2,P|66:182|37:188,2,58.4999982147217,4|2|2,1:2|3:0|3:0,0:1:0:0:
178,187,7806,6,0,P|173:158|167:129,2,58.4999982147217,4|0|0,1:2|0:0|0:0,0:0:0:0:
244,238,8268,1,0,0:0:0:0:
271,159,8422,2,0,P|265:130|260:101,2,58.4999982147217,2|0|0,0:0|0:0|0:0,0:0:0:0:
337,210,8883,1,0,0:0:0:0:
364,131,9037,6,2,P|436:110|477:188,1,175.499994644165,0|0,0:0|0:0,0:1:0:0:
415,240,9652,2,0,P|420:268|425:297,1,58.4999982147217,0|0,3:0|0:0,0:0:0:0:
449,376,9960,2,0,P|477:370|506:365,1,58.4999982147217,0|0,1:0|0:0,0:0:0:0:
365,384,10268,5,4,1:2:0:0:
286,358,10575,1,2,0:0:0:0:
248,283,10883,1,2,0:0:0:0:
274,203,11191,1,2,0:0:0:0:
171,319,11498,6,2,B|136:291|84:304|91:330|45:347|6:321,1,175.499994644165,0|0,0:0|0:0,0:1:0:0:
42,247,12114,1,2,0:0:0:0:
42,247,12729,6,0,P|60:193|33:142,1,116.999996429443,4|2,1:2|0:3,0:0:0:0:
17,55,13191,1,0,0:0:0:0:
17,55,13345,2,0,P|45:60|74:65,1,58.4999982147217,2|0,1:2|0:0,0:0:0:0:
146,115,13652,2,0,P|174:109|203:104,1,58.4999982147217,2|2,0:3|0:0,0:0:0:0:
258,32,13960,6,0,P|189:20|142:11,2,116.999996429443,2|2|2,1:2|3:0|1:2,0:0:0:0:
352,179,14883,1,2,0:3:0:0:
495,76,15191,6,0,P|437:86|379:95,1,116.999996429443,2|2,1:2|0:3,0:0:0:0:
352,179,15652,1,0,0:0:0:0:
352,179,15806,2,0,P|358:207|363:236,1,58.4999982147217,2|0,1:2|0:0,0:0:0:0:
416,306,16114,2,0,P|444:300|473:295,1,58.4999982147217,2|2,3:0|0:0,0:0:0:0:
363,236,16422,6,0,P|306:227|260:261,2,116.999996429443,2|2|2,1:2|3:0|1:2,0:0:0:0:
253,373,17345,1,2,3:0:0:0:
123,255,17652,6,0,P|95:249|66:244,1,58.4999982147217,4|0,1:2|0:0,0:0:0:0:
113,168,17960,2,0,P|119:140|124:111,1,58.4999982147217,0|2,1:0|0:0,0:0:0:0:
200,158,18268,2,0,P|228:164|257:169,1,58.4999982147217,0|0,1:0|0:0,0:0:0:0:
210,245,18575,2,0,P|204:273|199:302,1,58.4999982147217,2|0,1:2|0:0,0:0:0:0:
285,292,18883,6,0,P|313:296|342:303,1,58.4999982147217,4|0,1:2|1:0,0:0:0:0:
417,350,19191,2,0,P|421:321|428:292,1,58.4999982147217,2|0,1:2|1:0,0:0:0:0:
475,218,19498,2,0,P|446:213|417:206,1,58.4999982147217,4|0,1:2|1:0,0:0:0:0:
343,160,19806,2,0,P|338:188|331:217,1,58.4999982147217,2|0,1:2|1:0,0:0:0:0:
257,169,20114,6,0,L|228:161,3,29.2499991073609,4|0|0|0,1:2|1:0|1:0|1:0,0:0:0:0:
193,134,20422,2,0,L|164:141,3,29.2499991073609,4|0|0|0,1:2|1:0|1:0|1:0,0:0:0:0:
130,168,20729,2,0,L|101:160,3,29.2499991073609,4|0|0|0,1:2|1:0|1:0|1:0,0:0:0:0:
64,135,21037,2,0,L|56:106,3,29.2499991073609,4|0|0|0,1:2|1:0|1:0|1:0,0:0:0:0:
63,62,21345,6,0,P|89:57|120:51,1,58.4999982147217,4|4,1:2|1:2,0:0:0:0:
199,11,21652,1,4,1:2:0:0:
199,11,21960,2,0,P|210:66|214:97,2,87.7499973220826,4|4|4,1:2|1:2|1:2,0:0:0:0:
288,33,22575,5,4,1:2:0:0:
288,33,26268,6,0,L|280:91,1,58.4999982147217,8|2,3:0|0:0,0:0:0:0:
372,55,26575,2,0,L|365:114,1,58.4999982147217,8|8,3:0|3:0,0:0:0:0:
196,166,27037,1,8,3:0:0:0:
267,217,27191,2,0,L|295:211,3,29.2499991073609,0|0|0|0,1:0|1:0|1:0|1:0,0:0:0:0:
337,197,27498,6,0,P|383:230|439:221,1,116.999996429443,4|0,1:2|0:0,0:0:0:0:
498,155,27960,1,0,0:0:0:0:
439,221,28114,2,0,P|444:249|450:278,1,58.4999982147217,2|0,1:2|0:0,0:0:0:0:
498,155,28422,2,0,P|492:126|486:97,1,58.4999982147217,2|2,0:2|0:2,0:0:0:0:
452,16,28729,5,0,1:0:0:0:
372,55,28883,2,0,P|314:65|256:74,1,116.999996429443,2|0,0:2|0:0,0:0:0:0:
192,134,29345,2,0,P|162:126|135:118,1,58.4999982147217,2|0,1:2|0:0,0:0:0:0:
71,58,29652,1,0,0:0:0:0:
18,128,29806,1,2,0:0:0:0:
18,128,29883,1,2,0:0:0:0:
18,128,29960,6,0,P|24:157|29:185,1,58.4999982147217,2|0,1:2|0:0,0:0:0:0:
108,224,30268,2,0,P|102:253|97:281,1,58.4999982147217,0|2,0:0|0:0,0:0:0:0:
15,315,30575,1,0,1:0:0:0:
84,368,30729,2,0,P|142:358|200:349,1,116.999996429443,2|0,0:2|0:0,0:0:0:0:
256,281,31191,5,0,1:0:0:0:
146,144,31498,1,2,0:0:0:0:
230,172,31652,2,0,P|258:166|287:160,1,58.4999982147217,2|0,0:0|1:0,0:0:0:0:
326,81,31960,2,0,L|320:53,4,29.2499991073609,2|2|2|2|2,0:0|0:0|0:0|0:0|0:0,0:0:0:0:
396,140,32422,6,0,P|423:148|458:156,1,65,4|0,1:2|0:0,0:0:0:0:
511,232,32729,2,0,P|479:239|448:248,1,65,8|0,0:0|0:0,0:0:0:0:
362,280,33037,2,0,P|388:320|384:368,2,97.5,4|8|6,1:2|0:0|1:2,0:0:0:0:
288,226,33652,6,0,P|235:262|172:256,1,130,4|0,1:2|0:0,0:0:0:0:
128,176,34114,2,0,P|137:144|144:113,1,65,4|0,1:2|0:0,0:0:0:0:
37,175,34422,1,4,1:2:0:0:
81,255,34575,2,0,P|89:282|97:317,1,65,2|0,1:0|0:0,0:0:0:0:
171,374,34883,6,0,P|202:364|233:358,1,65,4|0,1:2|0:0,0:0:0:0:
297,289,35191,2,0,P|233:273|171:255,1,130,10|0,0:0|3:0,0:0:0:0:
128,176,35652,1,2,1:2:0:0:
37,175,35806,1,8,0:0:0:0:
37,175,35960,6,0,L|20:112,1,65,6|0,1:2|0:0,0:0:0:0:
108,85,36268,2,0,L|91:22,1,65,6|0,1:2|0:0,0:0:0:0:
199,81,36575,2,0,L|215:143,1,65,6|0,1:2|0:0,0:0:0:0:
270,23,36883,1,4,1:2:0:0:
340,80,37037,2,0,L|370:88,3,32.5,2|0|2|0,3:0|0:0|3:0|0:0,0:0:0:0:
416,96,37345,6,0,P|411:131|408:160,1,65,4|0,1:2|0:0,0:0:0:0:
482,212,37652,2,0,P|418:206|365:241,1,130,10|2,0:0|3:0,0:0:0:0:
354,332,38114,1,2,1:3:0:0:
279,279,38268,2,0,P|275:246|271:214,1,65,10|0,0:0|0:0,0:0:0:0:
215,143,38575,6,0,P|179:147|150:150,1,65,2|0,1:2|0:0,0:0:0:0:
237,53,38883,2,0,P|172:61|108:68,1,130,10|2,0:2|3:0,0:0:0:0:
150,150,39345,1,0,1:0:0:0:
59,155,39498,2,0,P|63:187|66:219,1,65,10|0,0:0|0:0,0:0:0:0:
89,308,39806,6,0,P|56:303|24:300,2,65,8|2|8,1:3|0:0|0:0,0:0:0:0:
158,248,40268,2,0,P|190:244|222:240,1,65,8|0,3:0|0:0,0:0:0:0:
213,330,40575,1,8,1:3:0:0:
296,292,40729,2,0,P|328:287|360:284,1,65,8|8,0:0|3:0,0:0:0:0:
441,326,41037,6,0,P|446:262|411:209,1,130,2|8,1:2|0:2,0:0:0:0:
320,202,41498,1,8,3:0:0:0:
371,126,41652,2,0,P|403:122|435:118,1,65,0|8,1:0|1:3,0:0:0:0:
320,202,41960,2,0,P|287:205|255:209,1,65,10|0,0:2|1:0,0:0:0:0:
179,158,42268,5,4,1:2:0:0:
179,158,42575,2,2,P|170:93|163:28,1,130,10|0,0:0|0:0,0:1:0:0:
79,67,43037,1,2,1:3:0:0:
163,28,43191,2,0,P|195:32|227:35,1,65,8|0,0:0|0:0,0:0:0:0:
297,93,43498,6,2,P|349:57|413:63,1,130,2|8,1:3|0:0,0:1:0:0:
488,114,43960,2,2,P|435:149|371:143,1,130,2|0,3:0|1:0,0:1:0:0:
288,182,44422,2,0,P|283:214|280:246,1,65,8|0,0:0|0:0,0:0:0:0:
295,336,44729,5,2,1:2:0:0:
295,336,45037,2,2,P|230:327|165:320,1,130,10|0,0:2|0:0,0:1:0:0:
96,379,45498,1,2,1:3:0:0:
38,308,45652,2,0,P|42:276|45:244,1,65,8|0,0:0|0:0,0:0:0:0:
20,155,45960,6,2,P|83:161|135:124,1,130,2|0,1:3|0:0,0:1:0:0:
166,38,46422,1,10,0:0:0:0:
230,101,46575,2,0,P|234:133|237:165,1,65,4|0,1:2|0:0,0:0:0:0:
321,107,46883,2,0,P|325:74|327:42,1,65,8|0,0:0|0:0,0:0:0:0:
409,83,47191,5,4,1:2:0:0:
447,165,47345,2,0,L|511:153,2,65,2|0|0,0:0|0:0|0:0,0:0:0:0:
379,225,47806,2,0,L|314:213,2,65,2|0|0,0:0|0:0|0:0,0:0:0:0:
417,307,48268,2,0,L|481:295,1,65,2|2,0:0|0:0,0:0:0:0:
349,367,48575,5,2,0:0:0:0:
261,342,48729,2,0,L|249:277,2,65,2|0|2,0:0|0:0|0:0,0:0:0:0:
174,372,49191,1,0,0:0:0:0:
110,307,49345,2,0,P|77:301|45:295,1,65,2|2,0:0|0:0,0:0:0:0:
8,212,49652,5,4,1:2:0:0:
99,213,49806,2,0,P|136:161|130:97,1,130,8|10,0:0|0:0,0:0:0:0:
102,62,50191,1,2,0:0:0:0:
102,62,50268,1,2,1:2:0:0:
176,8,50422,2,0,P|207:14|240:19,1,65,2|10,1:2|0:0,0:0:0:0:
221,108,50729,1,2,1:2:0:0:
309,85,50883,6,0,P|317:132|325:181,1,97.5,2|0,1:2|1:0,0:0:0:0:
324,227,51191,1,10,0:0:0:0:
233,213,51345,1,2,1:2:0:0:
217,302,51498,2,0,L|185:307,2,32.5,2|2|2,1:2|1:2|1:2,1:2:0:0:
269,379,51806,2,0,P|300:372|333:367,1,65,10|2,0:0|1:2,0:0:0:0:
388,294,52114,6,0,P|419:300|452:305,2,65,4|0|8,1:2|0:0|3:0,0:0:0:0:
486,140,52729,1,0,1:0:0:0:
436,216,52883,2,0,P|398:164|404:100,1,130,8|0,3:0|0:0,0:0:0:0:
444,18,53345,5,8,1:3:0:0:
444,18,53960,2,0,P|412:24|379:29,1,65,8|0,1:3|0:0,0:0:0:0:
309,85,54268,2,0,P|277:78|244:73,1,65,2|2,0:0|0:0,0:0:0:0:
169,22,54575,6,0,P|105:16|53:53,1,130,0|0,1:0|1:0,0:0:0:0:
129,104,55037,1,0,0:0:0:0:
63,166,55191,2,0,P|31:172|-1:177,1,65,2|0,1:2|0:0,0:0:0:0:
138,216,55498,2,0,P|170:221|202:227,1,65,0|2,1:0|0:0,0:0:0:0:
288,196,55806,6,0,L|293:227,2,32.5,4|0|0,1:2|1:0|1:0,0:0:0:0:
374,165,56114,1,0,1:0:0:0:
354,76,56268,1,2,1:2:0:0:
354,76,56345,1,0,1:0:0:0:
354,76,56422,2,0,P|413:92|479:109,1,130,4|2,1:2|0:0,0:0:0:0:
479,109,57037,6,0,P|463:168|446:234,1,130,4|2,1:2|0:0,0:0:0:0:
485,316,57498,2,0,P|432:279|369:285,1,130,4|2,1:2|0:0,0:0:0:0:
318,209,57960,2,0,P|265:245|202:239,1,130,4|2,1:2|0:0,0:0:0:0:
169,324,58422,2,0,P|231:340|294:357,1,130,4|0,1:2|0:0,0:0:0:0:
385,348,58883,6,0,P|377:316|368:285,1,65,4|2,1:2|0:0,0:0:0:0:
318,209,59191,2,0,P|327:177|334:146,1,65,2|2,3:0|3:0,0:0:0:0:
411,98,59498,6,0,P|347:104|295:67,1,130,4|2,1:2|0:0,0:0:0:0:
240,144,59960,2,0,P|203:91|209:28,1,130,4|2,1:2|0:0,0:0:0:0:
295,67,60422,2,0,P|233:84|169:100,1,130,4|2,1:2|0:0,0:0:0:0:
93,150,60883,2,0,P|78:92|59:24,1,130,4|2,1:2|0:0,0:0:0:0:
169,100,61345,6,0,P|210:112|263:125,2,97.5,4|8|8,1:2|0:0|0:0,0:0:0:0:
93,150,61960,6,0,P|56:202|62:265,1,130,4|2,1:2|0:0,0:0:0:0:
77,356,62422,2,0,P|137:338|202:322,1,130,4|2,1:2|0:0,0:0:0:0:
269,258,62883,2,0,P|204:242|143:224,1,130,4|2,1:2|0:0,0:0:0:0:
93,150,63345,2,0,P|155:139|196:90,1,130,4|2,1:2|0:0,0:0:0:0:
285,110,63806,6,0,P|294:141|301:172,1,65,4|0,1:2|0:0,0:0:0:0:
269,258,64114,1,8,0:0:0:0:
301,172,64268,6,0,P|354:135|417:141,1,130,4|8,1:2|0:0,0:0:0:0:
509,144,64729,2,0,P|499:112|492:81,1,65,4|2,1:2|0:0,0:0:0:0:
458,58,64960,1,2,2:0:0:0:
458,58,65037,1,8,0:0:0:0:
416,140,65191,2,0,P|425:171|432:202,2,65,4|0|8,1:2|0:0|0:0,0:0:0:0:
325,150,65652,6,0,P|343:212|358:275,1,130,4|2,1:2|0:0,0:0:0:0:
433,324,66114,2,0,P|381:361|318:357,1,130,4|2,1:2|0:3,0:0:0:0:
317,356,71806,6,0,L|286:364,2,32.5,4|0|8,1:2|1:0|0:0,0:0:0:0:
358,275,72114,1,0,1:0:0:0:
319,193,72268,2,0,P|382:188|434:225,2,130,8|2|10,0:0|1:2|0:0,0:0:0:0:
255,258,73037,5,0,1:0:0:0:
164,246,73191,1,0,3:0:0:0:
164,246,73268,1,0,3:0:0:0:
164,246,73345,2,0,P|168:278|172:310,1,65,8|0,0:0|0:0,0:0:0:0:
98,181,73652,2,0,L|67:185,2,32.5,2|0|0,1:2|1:0|1:0,0:0:0:0:
159,112,73960,2,0,P|156:79|151:47,1,65,8|0,0:0|0:0,0:0:0:0:
229,171,74268,6,0,P|261:167|293:162,1,65,4|0,1:2|3:0,0:0:0:0:
375,122,74575,2,0,P|378:154|383:186,1,65,0|0,1:0|3:0,0:0:0:0:
317,250,74883,2,0,P|322:282|325:314,2,65,0|0|0,1:0|0:0|1:0,0:0:0:0:
293,162,75345,1,10,0:0:0:0:
383,186,75498,5,4,1:2:0:0:
383,186,75652,1,0,1:0:0:0:
462,139,75806,1,0,1:0:0:0:
462,139,75960,1,0,1:0:0:0:
509,218,76114,2,0,L|505:249,3,32.5,4|0|0|0,1:2|1:0|1:0|1:0,0:0:0:0:
468,278,76422,2,0,L|471:309,3,32.5,0|0|0|0,1:0|1:0|1:0|1:0,0:0:0:0:
498,348,76729,5,4,0:0:0:0:
498,348,79191,6,0,P|466:338|435:331,1,65,4|2,1:2|0:0,0:0:0:0:
387,253,79498,1,2,0:0:0:0:
387,253,79652,1,2,0:0:0:0:
306,295,79806,2,0,P|298:263|289:232,1,65,2|2,1:2|0:0,0:0:0:0:
224,167,80114,1,2,0:0:0:0:
224,167,80268,1,2,0:0:0:0:
287,101,80421,6,0,P|318:93|349:84,1,65,2|2,1:2|0:0,0:0:0:0:
432,124,80729,1,2,0:0:0:0:
432,124,80883,1,2,0:0:0:0:
501,66,81037,2,0,P|491:34|484:3,1,65,2|0,1:2|0:0,0:0:0:0:
432,124,81345,2,0,P|441:155|448:186,1,65,2|0,0:0|0:0,0:0:0:0:
349,83,81652,6,0,P|318:75|287:66,1,65,2|2,1:2|0:0,0:0:0:0:
208,114,81960,1,2,0:3:0:0:
208,114,82114,1,2,0:0:0:0:
176,28,82268,2,0,P|144:37|113:45,1,65,2|2,1:2|0:0,0:0:0:0:
25,17,82575,1,2,0:3:0:0:
25,17,82729,1,2,0:0:0:0:
17,107,82883,6,0,P|26:138|33:169,1,65,2|2,1:2|0:0,0:0:0:0:
118,203,83191,1,2,0:3:0:0:
118,203,83345,1,2,0:0:0:0:
75,283,83498,2,2,P|106:290|137:299,1,65,4|0,1:2|0:0,0:1:0:0:
192,372,83806,2,2,P|223:362|254:355,1,65,4|0,1:2|0:0,0:1:0:0:
307,268,84114,6,0,L|272:258,3,35.7500010910034,4|0|2|0,1:2|0:0|3:0|0:0,0:0:0:0:
242,222,84422,2,0,P|251:190|260:152,1,71.5000021820069,8|2,1:2|3:0,0:0:0:0:
326,87,84729,2,0,L|360:96,3,35.7500010910034,0|0|2|0,1:0|0:0|3:0|0:0,0:0:0:0:
403,77,85037,2,0,P|412:42|421:7,1,71.5000021820069,8|2,1:2|3:0,0:0:0:0:
504,51,85345,6,0,L|494:85,3,35.7500010910034,0|0|2|0,1:0|0:0|3:0|0:0,0:0:0:0:
466,122,85652,2,0,P|476:158|484:191,1,71.5000021820069,8|2,1:2|3:0,0:0:0:0:
510,281,85960,2,0,P|441:270|387:313,1,143.000004364014,2|8,1:1|1:2,0:0:0:0:
307,268,86422,1,2,0:0:0:0:
255,344,86575,6,0,P|220:352|185:362,1,71.5000021820069,4|0,1:2|1:0,0:0:0:0:
128,288,86883,2,0,P|93:297|58:306,1,71.5000021820069,2|0,1:2|1:0,0:0:0:0:
0,233,87191,1,2,1:2:0:0:
0,233,87345,1,0,1:0:0:0:
57,159,87498,2,0,P|48:124|38:89,1,71.5000021820069,2|0,1:2|1:0,0:0:0:0:
95,15,87806,6,0,L|129:24,3,35.7500010910034,4|0|0|0,1:2|1:0|1:0|1:0,0:0:0:0:
160,59,88114,2,0,L|194:49,3,35.7500010910034,2|0|0|0,1:2|1:0|1:0|1:0,0:0:0:0:
236,28,88422,2,0,P|245:62|254:97,1,71.5000021820069,4|0,1:2|1:0,0:0:0:0:
202,174,88729,2,0,P|236:182|271:192,1,71.5000021820069,4|0,1:2|1:0,0:0:0:0:
341,130,89037,6,0,P|364:124|387:117,2,47.6666681213379,4|2|2,1:2|0:0|0:0,0:0:0:0:
427,135,89345,2,0,P|443:152|460:168,2,47.6666681213379,2|2|2,0:0|0:0|0:0,0:0:0:0:
466,211,89652,2,0,P|459:233|453:257,2,47.6666681213379,2|2|2,0:0|0:0|0:0,0:0:0:0:
420,283,89960,2,0,P|396:288|373:295,2,47.6666681213379,2|2|2,0:0|0:0|0:0,0:0:0:0:
339,256,90268,6,0,P|353:307|367:359,2,107.25000327301,4|2|2,1:2|0:0|0:0,0:0:0:0:
271,192,90883,1,8,0:0:0:0:
249,282,91037,2,0,P|258:316|267:351,2,71.5000021820069,2|2|2,0:0|0:0|0:0,0:0:0:0:
181,218,91498,6,0,P|126:261|57:250,1,143.000004364014,4|10,1:2|0:0,0:0:0:0:
16,334,91960,1,2,0:0:0:0:
106,359,92114,2,0,P|140:349|175:340,1,71.5000021820069,2|2,3:0|1:3,0:0:0:0:
249,282,92422,1,2,3:0:0:0:
328,328,92575,6,2,P|396:339|451:295,1,143.000004364014,10|0,0:0|1:0,0:1:0:0:
443,248,92960,1,0,3:0:0:0:
443,248,93037,2,0,P|477:239|512:229,1,71.5000021820069,8|0,3:2|3:0,0:0:0:0:
406,161,93345,2,0,L|440:151,3,35.7500010910034,0|0|0|0,1:0|3:0|3:0|3:0,0:0:0:0:
360,172,93652,2,0,P|325:162|290:153,1,71.5000021820069,8|0,3:2|3:0,0:0:0:0:
198,166,93960,6,2,P|207:131|216:97,1,71.5000021820069,6|0,1:2|0:1,0:1:0:0:
287,35,94268,2,0,P|235:21|183:6,2,107.25000327301,10|2|2,0:0|1:2|1:2,0:1:0:0:
359,93,94883,1,0,0:0:0:0:
359,93,94960,1,0,0:0:0:0:
359,93,95037,6,2,P|415:51|485:62,1,143.000004364014,12|0,0:0|1:0,0:1:0:0:
437,142,95498,1,10,0:0:0:0:
366,202,95652,2,2,P|385:270|403:340,1,143.000004364014,2|2,1:2|1:2,0:1:0:0:
496,349,96114,2,0,P|487:314|478:280,1,71.5000021820069,10|2,0:0|1:2,0:0:0:0:
403,340,96422,6,0,P|347:298|277:309,1,143.000004364014,4|10,1:2|0:0,0:0:0:0:
207,368,96883,1,0,0:0:0:0:
147,297,97037,2,0,L|112:306,2,35.7500010910034,2|2|2,1:2|1:2|1:2,0:0:0:0:
218,237,97345,2,0,L|252:227,2,35.7500010910034,10|10|10,0:0|0:0|0:0,0:0:0:0:
131,206,97652,6,0,P|96:216|62:225,2,71.5000021820069,2|4|10,0:0|1:2|0:0,0:0:0:0:
218,237,98114,1,2,0:0:0:0:
235,145,98268,2,0,P|269:155|303:164,1,71.5000021820069,4|0,1:2|0:0,0:0:0:0:
386,207,98575,2,0,L|396:173,3,35.7500010910034,10|2|2|2,0:0|0:0|0:0|0:0,0:0:0:0:
407,127,98883,6,0,P|450:156|503:152,2,107.25000327301,2|8|2,1:3|0:0|1:2,0:0:0:0:
410,39,99498,2,0,P|376:49|342:59,1,71.5000021820069,8|0,0:0|1:0,0:0:0:0:
248,52,99806,1,4,1:2:0:0:
248,52,99883,1,2,1:2:0:0:
248,52,99960,2,0,L|238:17,1,35.7500010910034,4|0,1:2|0:0,0:0:0:0:
203,233,100268,6,0,P|185:163|165:94,1,143.000004364014,4|8,1:2|0:0,0:0:0:0:
79,60,100729,1,4,1:2:0:0:
91,153,100883,1,2,0:0:0:0:
91,153,100960,1,2,0:0:0:0:
91,153,101037,2,0,P|56:163|22:172,1,71.5000021820069,10|0,0:0|0:0,0:0:0:0:
165,95,101345,6,0,P|233:84|289:126,1,143.000004364014,4|0,1:2|0:0,0:0:0:0:
312,216,101806,1,2,0:0:0:0:
392,170,101960,2,0,P|401:135|410:101,2,71.5000021820069,2|0|2,3:0|0:0|0:0,0:0:0:0:
312,216,102422,6,0,P|331:284|349:353,1,143.000004364014,2|0,3:0|0:0,0:0:0:0:
430,307,102883,2,0,P|464:317|498:327,1,71.5000021820069,2|2,0:0|0:0,0:0:0:0:
349,353,103191,2,0,L|314:343,3,35.7500010910034,8|8|8|8,0:0|0:0|0:0|0:0,0:0:0:0:
275,317,103498,2,0,L|240:326,3,35.7500010910034,8|8|8|8,0:0|0:0|0:0|0:0,0:0:0:0:
202,353,103806,6,2,P|194:321|183:284,1,71.5000021820069,4|0,1:2|0:0,0:1:0:0:
153,254,104037,1,0,0:0:0:0:
153,254,104114,2,0,P|100:249|56:278,2,107.25000327301,10|2|2,0:0|1:2|1:2,0:0:0:0:
224,193,104729,1,0,0:0:0:0:
224,193,104806,1,0,0:0:0:0:
224,193,104883,6,2,P|279:235|348:224,1,143.000004364014,12|0,0:0|1:0,0:1:0:0:
395,143,105345,1,10,0:0:0:0:
300,143,105498,2,2,P|309:73|268:16,1,143.000004364014,2|2,1:2|1:2,0:1:0:0:
219,97,105960,2,0,P|184:87|149:79,1,71.5000021820069,10|2,0:0|0:0,0:0:0:0:
77,19,106268,6,0,P|42:28|7:36,2,71.5000021820069,12|0|2,0:0|1:0|1:2,0:0:0:0:
149,79,106729,1,10,0:0:0:0:
111,164,106883,2,0,P|145:172|180:181,2,71.5000021820069,2|2|10,1:2|1:2|0:0,0:0:0:0:
24,127,107345,1,0,1:0:0:0:
34,218,107498,5,12,0:0:0:0:
111,164,107652,2,0,P|120:198|128:233,1,71.5000021820069,2|0,1:2|1:0,0:0:0:0:
207,283,107960,2,0,P|215:248|224:213,1,71.5000021820069,10|4,0:0|1:2,0:0:0:0:
308,174,108268,1,2,1:2:0:0:
308,174,108345,1,2,0:0:0:0:
308,174,108422,2,0,P|342:164|377:156,1,71.5000021820069,10|2,0:0|1:2,0:0:0:0:
404,118,108652,1,2,0:0:0:0:
404,118,108729,6,0,P|438:127|473:135,1,71.5000021820069,4|2,1:2|1:2,0:0:0:0:
512,162,108960,1,2,1:2:0:0:
512,162,109037,1,4,1:2:0:0:
442,223,109191,2,0,L|452:258,2,35.7500010910034,2|2|4,1:2|1:2|1:2,0:0:0:0:
377,155,109498,1,2,1:2:0:0:
350,244,109652,2,0,L|360:279,3,35.7500010910034,4|2|2|2,1:2|1:2|1:2|1:2,0:0:0:0:
353,325,109960,6,0,P|318:332|283:343,1,71.5000021820069,4|0,1:2|0:0,0:0:0:0:
224,270,110268,2,0,P|189:262|154:251,1,71.5000021820069,4|0,1:2|0:0,0:0:0:0:
133,342,110575,2,0,P|98:349|63:360,1,71.5000021820069,4|0,1:2|0:0,0:0:0:0:
21,276,110883,2,0,L|12:241,2,35.7500010910034,10|2|2,0:0|0:0|0:0,0:0:0:0:
89,203,111191,6,0,P|135:170|191:179,1,116.999996429443,4|0,1:2|1:0,0:0:0:0:
249,248,111652,1,0,0:0:0:0:
249,248,111806,2,0,P|277:242|306:237,1,58.4999982147217,0|0,1:0|0:0,0:0:0:0:
361,167,112114,2,0,P|389:173|418:178,1,58.4999982147217,0|0,1:0|0:0,0:0:0:0:
486,238,112422,5,2,0:0:0:0:
486,238,112575,1,2,0:0:0:0:
398,85,112883,2,0,P|426:91|455:96,2,58.4999982147217,2|2|2,0:0|0:0|0:0,0:0:0:0:
310,96,113345,2,0,P|305:67|298:38,1,58.4999982147217,2|0,0:0|0:0,0:0:0:0:
361,167,113652,6,0,P|351:225|342:283,1,116.999996429443,4|0,1:2|1:0,0:0:0:0:
272,337,114114,2,0,P|243:330|214:325,1,58.4999982147217,0|0,0:0|1:0,0:0:0:0:
169,249,114422,2,0,P|197:244|226:237,2,58.4999982147217,0|0|0,0:0|1:0|0:0,0:0:0:0:
111,315,114883,5,2,0:0:0:0:
111,315,115037,1,2,0:0:0:0:
9,171,115345,2,0,P|37:165|66:158,1,58.4999982147217,2|2,0:0|0:0,0:0:0:0:
121,91,115652,2,0,P|167:124|223:114,1,116.999996429443,2|2,0:0|0:0,0:0:0:0:
310,96,116114,6,0,P|305:67|298:38,2,58.4999982147217,2|0|0,0:0|0:0|0:0,0:0:0:0:
396,80,116575,1,2,0:0:0:0:
389,168,116729,1,2,0:0:0:0:
389,168,116883,2,0,P|332:182|276:196,2,116.999996429443,2|2|2,0:0|0:0|0:0,0:0:0:0:
223,113,117806,6,0,P|251:105|280:96,2,58.4999982147217,2|0|0,0:0|0:0|0:0,0:0:0:0:
159,174,118268,2,0,P|105:158|74:151,1,87.7499973220826,2|0,0:0|0:0,0:0:0:0:
31,143,118575,1,6,0:0:0:0:
256,192,118652,12,0,121960,0:0:0:0:
