osu file format v14

[General]
AudioFilename: audio.mp3
AudioLeadIn: 0
PreviewTime: 79152
Countdown: 0
SampleSet: Soft
StackLeniency: 0.7
Mode: 0
LetterboxInBreaks: 0
WidescreenStoryboard: 1

[Editor]
Bookmarks: 27498,57037,79191,91498,111191
DistanceSpacing: 1.06
BeatDivisor: 4
GridSize: 32
TimelineZoom: 2.799999

[Metadata]
Title:Utsushi Gi no Shoujo Lix (Traveler Edit)
TitleUnicode:写儀の少女Lix (Traveler Edit)
Artist:Se-U-Ra
ArtistUnicode:Se-U-Ra
Creator:August
Version:Bellicose's Another
Source:
Tags:dored kaguya_sama bellicose xen kodama seura せゆーら featured artist fa electronic instrumental mpg mappers' guild The Endless for Traveler Traveller bofu2017 THE BMS OF FIGHTERS ULTIMATE 2017 初音ミク hatsune miku criin xehn xenon-
BeatmapID:2999280
BeatmapSetID:1447575

[Difficulty]
HPDrainRate:5
CircleSize:4
OverallDifficulty:7.8
ApproachRate:9
SliderMultiplier:1.9
SliderTickRate:1

[Events]
//Background and Video events
0,0,"yeah.jpg",0,0
//Break Periods
2,67652,70575
//Storyboard Layer 0 (Background)
//Storyboard Layer 1 (Fail)
//Storyboard Layer 2 (Pass)
//Storyboard Layer 3 (Foreground)
//Storyboard Layer 4 (Overlay)
//Storyboard Sound Samples

[TimingPoints]
422,307.692307692308,4,2,2,35,1,0
422,-125,4,2,2,35,0,0
1652,-125,4,2,2,35,0,0
2883,-125,4,2,2,35,0,0
4114,-125,4,2,2,40,0,0
5345,-111.111111111111,4,2,2,50,0,0
6575,-66.6666666666667,4,2,2,65,0,0
7037,-66.6666666666667,4,2,3,65,0,0
7345,-66.6666666666667,4,2,2,70,0,0
7422,-66.6666666666667,4,2,2,5,0,0
7498,-66.6666666666667,4,2,2,70,0,0
7575,-66.6666666666667,4,2,2,5,0,0
7652,-66.6666666666667,4,2,2,70,0,0
7729,-66.6666666666667,4,2,2,5,0,0
7806,-111.111111111111,4,2,2,50,0,0
9037,-66.6666666666667,4,2,2,45,0,0
9575,-100,4,2,2,5,0,0
9652,-66.6666666666667,4,2,2,45,0,0
10268,-100,4,2,2,40,0,0
11498,-83.3333333333333,4,2,2,40,0,0
12037,-100,4,2,2,5,0,0
12114,-83.3333333333333,4,2,2,40,0,0
12345,-100,4,2,2,5,0,0
12422,-100,4,2,2,40,0,0
12652,-100,4,2,2,5,0,0
12729,-100,4,2,2,50,0,0
17037,-100,4,2,2,50,0,0
17345,-100,4,2,2,50,0,0
17575,-100,4,2,2,5,0,0
17652,-100,4,2,2,57,0,0
18268,-100,4,2,2,64,0,0
18883,-100,4,2,2,70,0,0
19498,-100,4,2,2,75,0,0
20114,-100,4,2,2,75,0,0
21345,-100,4,2,2,80,0,0
21960,-100,4,2,3,65,0,0
22575,-125,4,2,2,60,0,0
22652,-125,4,2,2,50,0,0
25037,-125,4,2,2,45,0,0
25114,-125,4,2,2,30,0,0
26268,-125,4,2,2,35,0,0
26575,-125,4,2,2,45,0,0
27191,-100,4,2,2,40,0,0
27498,-125,4,2,2,50,0,0
28345,-125,4,2,2,5,0,0
28422,-125,4,2,2,50,0,0
29575,-125,4,2,2,5,0,0
29652,-125,4,2,2,50,0,0
31422,-125,4,2,2,5,0,0
31498,-125,4,2,2,50,0,0
31960,-125,4,2,2,52,0,0
32037,-125,4,2,2,54,0,0
32114,-125,4,2,2,56,0,0
32191,-125,4,2,2,58,0,0
32268,-125,4,2,2,60,0,0
32422,-66.6666666666667,4,2,3,75,0,0
32652,-66.6666666666667,4,2,3,5,0,0
32729,-66.6666666666667,4,2,3,75,0,0
32960,-66.6666666666667,4,2,3,5,0,0
33037,-66.6666666666667,4,2,3,75,0,0
33652,-76.9230769230769,4,2,3,60,0,0
34575,-66.6666666666667,4,2,3,60,0,0
34883,-76.9230769230769,4,2,2,70,0,0
35575,-76.9230769230769,4,2,2,5,0,0
35652,-76.9230769230769,4,2,2,70,0,0
35960,-66.6666666666667,4,2,3,65,0,0
36268,-62.5,4,2,3,60,0,0
36575,-58.8235294117647,4,2,2,55,0,0
36883,-83.3333333333333,4,2,3,50,0,0
37037,-100,4,2,2,50,0,0
37114,-100,4,2,2,5,0,0
37191,-100,4,2,2,50,0,0
37268,-100,4,2,2,5,0,0
37345,-83.3333333333333,4,2,2,75,0,0
38806,-83.3333333333333,4,2,2,5,0,0
38883,-83.3333333333333,4,2,2,75,0,0
39729,-83.3333333333333,4,2,2,5,0,0
39806,-83.3333333333333,4,2,2,75,0,0
41268,-83.3333333333333,4,2,2,5,0,0
41345,-83.3333333333333,4,2,2,75,0,0
42498,-83.3333333333333,4,2,2,5,0,0
42575,-83.3333333333333,4,2,2,75,0,0
43729,-83.3333333333333,4,2,2,5,0,0
43806,-83.3333333333333,4,2,2,75,0,0
44191,-83.3333333333333,4,2,2,5,0,0
44268,-83.3333333333333,4,2,2,75,0,0
44960,-83.3333333333333,4,2,2,5,0,0
45037,-83.3333333333333,4,2,2,75,0,0
45268,-83.3333333333333,4,2,2,5,0,0
45345,-83.3333333333333,4,2,2,75,0,0
45960,-83.3333333333333,4,2,2,65,0,0
46575,-83.3333333333333,4,2,3,55,0,0
47191,-100,4,2,2,50,0,0
48422,-125,4,2,2,45,0,0
49345,-125,4,2,2,45,0,0
49652,-83.3333333333333,4,2,2,80,0,0
52114,-100,4,2,2,55,0,0
52652,-100,4,2,2,5,0,0
52729,-100,4,2,2,55,0,0
53575,-100,4,2,2,5,0,0
53652,-100,4,2,2,55,0,0
54575,-100,4,2,2,60,0,0
55191,-100,4,2,2,65,0,0
55806,-83.3333333333333,4,2,2,75,0,0
56422,-83.3333333333333,4,2,3,75,0,0
56729,-83.3333333333333,4,2,3,60,0,0
57037,-90.9090909090909,4,2,3,75,0,0
58191,-90.9090909090909,4,2,3,5,0,0
58268,-90.9090909090909,4,2,3,75,0,0
58652,-90.9090909090909,4,2,3,5,0,0
58729,-90.9090909090909,4,2,3,75,0,0
60652,-90.9090909090909,4,2,3,5,0,0
60729,-90.9090909090909,4,2,3,75,0,0
61114,-90.9090909090909,4,2,3,5,0,0
61191,-90.9090909090909,4,2,3,75,0,0
61345,-83.3333333333333,4,2,2,75,0,0
61575,-83.3333333333333,4,2,2,80,0,0
61960,-90.9090909090909,4,2,3,75,0,0
63114,-90.9090909090909,4,2,3,5,0,0
63191,-90.9090909090909,4,2,3,75,0,0
63575,-90.9090909090909,4,2,3,5,0,0
63652,-90.9090909090909,4,2,3,75,0,0
64114,-90.9090909090909,4,2,2,75,0,0
64575,-76.9230769230769,4,2,2,80,0,0
65037,-71.4285714285714,4,2,2,80,0,0
65498,-66.6666666666667,4,2,2,85,0,0
65883,-66.6666666666667,4,2,2,5,0,0
65960,-66.6666666666667,4,2,2,70,0,0
66114,-66.6666666666667,4,2,3,75,0,0
66422,-100,4,2,2,65,0,0
66883,-100,4,2,2,50,0,0
71806,-100,4,2,2,60,0,0
73268,-100,4,2,2,5,0,0
73345,-100,4,2,2,60,0,0
73575,-100,4,2,2,5,0,0
73652,-100,4,2,2,60,0,0
74191,-100,4,2,2,5,0,0
74268,-100,4,2,2,60,0,0
74575,-100,4,2,2,60,0,0
74883,-100,4,2,2,60,0,0
75114,-100,4,2,2,5,0,0
75191,-100,4,2,2,60,0,0
75345,-100,4,2,2,75,0,0
75498,-100,4,2,2,70,0,0
76729,-125,4,2,2,65,0,0
76806,-100,4,2,2,60,0,0
77652,-100,4,2,2,50,0,0
77883,-100,4,2,2,5,0,0
77960,-111.111111111111,4,2,2,40,0,0
78037,-111.111111111111,4,2,2,43,0,0
78114,-111.111111111111,4,2,2,46,0,0
78191,-111.111111111111,4,2,2,49,0,0
78268,-111.111111111111,4,2,2,52,0,0
78345,-111.111111111111,4,2,2,55,0,0
78422,-111.111111111111,4,2,2,58,0,0
78498,-111.111111111111,4,2,2,61,0,0
78575,-83.3333333333333,4,2,2,64,0,0
78652,-83.3333333333333,4,2,2,67,0,0
78729,-83.3333333333333,4,2,2,71,0,0
79037,-100,4,2,2,71,0,0
79191,-100,4,2,2,70,0,0
81037,-100,4,2,2,60,0,0
81652,-100,4,2,2,75,0,0
83498,-90.9090909090909,4,2,3,60,0,0
83806,-90.9090909090909,4,2,3,70,0,0
84114,-76.9230769230769,4,2,2,75,0,0
85960,-76.9230769230769,4,2,2,75,0,0
86191,-76.9230769230769,4,2,2,5,0,0
86268,-76.9230769230769,4,2,2,75,0,0
86422,-76.9230769230769,4,2,2,75,0,0
88883,-100,4,2,2,65,0,0
89652,-100,4,2,2,60,0,0
89960,-100,4,2,2,50,0,0
90268,-83.3333333333333,4,2,2,50,0,0
90960,-83.3333333333333,4,2,2,5,0,0
91037,-100,4,2,2,55,0,0
91498,-71.4285714285714,4,2,2,80,0,1
91729,-71.4285714285714,4,2,2,5,0,1
91806,-71.4285714285714,4,2,2,80,0,1
92268,-71.4285714285714,4,2,2,80,0,1
92575,-71.4285714285714,4,2,2,80,0,1
92806,-71.4285714285714,4,2,2,5,0,1
92883,-71.4285714285714,4,2,2,80,0,1
93960,-71.4285714285714,4,2,2,80,0,1
94729,-71.4285714285714,4,2,2,80,0,1
94883,-71.4285714285714,4,2,2,80,0,1
95268,-71.4285714285714,4,2,2,5,0,1
95345,-71.4285714285714,4,2,2,80,0,1
95883,-71.4285714285714,4,2,2,5,0,1
95960,-71.4285714285714,4,2,2,80,0,1
96422,-71.4285714285714,4,2,2,70,0,1
96652,-71.4285714285714,4,2,2,5,0,1
96729,-71.4285714285714,4,2,2,75,0,1
96883,-71.4285714285714,4,2,2,75,0,1
97037,-71.4285714285714,4,2,2,80,0,1
97806,-71.4285714285714,4,2,3,70,0,1
98114,-71.4285714285714,4,2,2,75,0,1
98268,-71.4285714285714,4,2,3,75,0,1
98575,-71.4285714285714,4,2,2,75,0,1
98883,-71.4285714285714,4,2,2,70,0,1
99114,-71.4285714285714,4,2,2,70,0,1
99806,-71.4285714285714,4,2,3,70,0,1
100191,-71.4285714285714,4,2,3,5,0,1
100268,-71.4285714285714,4,2,3,70,0,1
100498,-71.4285714285714,4,2,3,5,0,1
100575,-71.4285714285714,4,2,3,70,0,1
100729,-71.4285714285714,4,2,3,60,0,1
101037,-71.4285714285714,4,2,2,60,0,1
101345,-83.3333333333333,4,2,2,60,0,0
102883,-71.4285714285714,4,2,2,60,0,0
103191,-71.4285714285714,4,2,2,70,0,0
103806,-71.4285714285714,4,2,2,80,0,1
104575,-71.4285714285714,4,2,2,80,0,1
104883,-71.4285714285714,4,2,2,80,0,1
105114,-71.4285714285714,4,2,2,5,0,1
105191,-71.4285714285714,4,2,2,80,0,1
105729,-71.4285714285714,4,2,2,5,0,1
105806,-71.4285714285714,4,2,2,80,0,1
107883,-71.4285714285714,4,2,2,5,0,1
107960,-71.4285714285714,4,2,2,80,0,1
108883,-71.4285714285714,4,2,2,80,0,1
109960,-71.4285714285714,4,2,2,75,0,1
110191,-71.4285714285714,4,2,2,5,0,1
110268,-71.4285714285714,4,2,2,70,0,1
110498,-71.4285714285714,4,2,2,5,0,1
110575,-71.4285714285714,4,2,2,65,0,1
110806,-71.4285714285714,4,2,2,5,0,1
110883,-71.4285714285714,4,2,2,60,0,1
111191,-100,4,2,2,50,0,0
115268,-100,4,2,2,5,0,0
115345,-100,4,2,2,50,0,0
116114,-125,4,2,2,50,0,0
116191,-125,4,2,2,45,0,0
118575,-125,4,2,2,50,0,0
119575,-125,4,2,2,30,0,0
121960,-125,4,2,2,5,0,0

[Colours]
Combo1 : 35,243,175
Combo2 : 238,102,224
Combo3 : 48,221,252

[HitObjects]
185,46,422,6,0,P|126:98|41:82,2,152,4|2|2,0:0|0:0|0:0,0:0:0:0:
45,228,1345,2,0,P|140:204|224:198,1,152,2|0,0:0|0:0,0:0:0:0:
372,93,1960,5,2,0:0:0:0:
358,8,2114,1,2,0:0:0:0:
358,8,2575,5,2,0:0:0:0:
344,93,2729,1,2,0:0:0:0:
330,178,2883,2,0,P|341:249|350:353,2,152,2|0|0,0:0|0:0|0:0,0:0:0:0:
415,192,3652,1,2,0:0:0:0:
487,137,3806,2,0,P|478:96|475:45,1,76,2|0,0:0|0:0,0:0:0:0:
415,192,4114,2,0,P|424:233|427:284,1,76,2|0,0:0|0:0,0:0:0:0:
189,110,4575,1,0,0:0:0:0:
189,110,4729,2,0,P|237:165|208:264,1,152,2|0,0:0|0:0,0:0:0:0:
18,155,5345,6,0,P|77:164|124:177,3,85.4999973907472,4|0|0|0,1:2|0:0|0:0|0:0,0:0:0:0:
189,110,5960,2,0,P|179:68|173:25,3,85.4999973907472,2|0|0|0,0:0|0:0|0:0|0:0,0:0:0:0:
23,1,6575,6,2,B|54:59|54:59|5:93|5:93|-12:139|-12:139|38:164|38:164|53:217,1,285.000010871888,4|2,1:2|0:0,0:1:0:0:
187,364,7037,2,0,B|157:346|157:346|112:365,1,71.2500027179719,4|0,1:2|0:0,0:0:0:0:
93,368,7345,6,2,P|104:318|148:296,1,71.2500027179719,4|0,1:2|0:0,0:1:0:0:
178,235,7498,2,2,B|202:220|202:220|236:215|285:225,1,71.2500027179719,2|0,3:0|0:0,0:1:0:0:
345,189,7652,2,2,B|338:178|338:178|416:199,1,71.2500027179719,2|0,3:0|0:0,0:1:0:0:
494,258,7806,6,0,P|503:207|515:165,3,85.4999973907472,4|0|0|0,1:2|0:0|0:0|0:0,0:0:0:0:
428,334,8422,2,0,P|377:343|335:355,3,85.4999973907472,2|0|0|0,0:0|0:0|0:0|0:0,0:0:0:0:
221,384,9037,6,2,B|205:343|205:343|227:328|227:328|195:250|195:250|221:246|221:246|182:154|182:154|210:161|210:161|168:52|168:52|200:63|200:63|292:29,1,498.750019025803,2|2,0:0|0:0,0:1:0:0:
333,0,9652,6,2,B|449:14|449:14|421:33,1,142.500005435944,0|0,3:0|0:0,0:1:0:0:
235,49,9960,2,2,B|213:63|213:63|329:77,1,142.500005435944,0|0,1:0|0:0,0:1:0:0:
512,174,10268,5,4,1:2:0:0:
397,190,10575,1,2,0:0:0:0:
282,206,10883,1,2,0:0:0:0:
167,222,11191,1,2,0:0:0:0:
52,238,11498,2,2,B|125:176|125:176|65:377|65:377|135:295,1,398.999987823487,0|0,0:1|0:1,0:1:0:0:
206,257,12114,6,0,B|235:282|235:282|263:266|263:266|405:282,1,170.999994781494,2|0,0:0|0:0,0:0:0:0:
439,338,12422,2,0,B|527:317|527:317|443:313,1,142.5,0|0,3:0|0:0,0:0:0:0:
348,374,12729,5,4,1:2:0:0:
193,2,13191,1,2,0:0:0:0:
128,65,13652,1,2,0:3:0:0:
168,147,13806,1,2,0:0:0:0:
258,135,13960,1,2,1:2:0:0:
273,45,14268,1,2,3:0:0:0:
193,2,14575,2,0,P|298:16|385:31,1,190,2|2,1:2|0:3,0:0:0:0:
500,196,15191,5,2,1:2:0:0:
16,260,15652,1,2,0:0:0:0:
82,322,16114,1,2,3:0:0:0:
169,296,16268,1,2,0:0:0:0:
189,208,16422,1,2,1:2:0:0:
16,260,16729,1,2,3:0:0:0:
148,384,17037,2,0,P|145:269|140:186,1,190,2|2,1:2|3:0,0:0:0:0:
325,20,17652,6,0,B|260:55|260:55|203:47|144:13,1,190,4|0,1:2|1:0,0:0:0:0:
245,181,18114,2,0,P|284:250|252:382,1,190,2|0,0:0|0:0,0:0:0:0:
422,134,18575,2,0,B|406:192|395:251|395:251|414:295|422:341,1,190,2|4,1:2|1:2,0:0:0:0:
478,13,19191,6,0,P|419:48|382:22,1,95,2|0,1:2|1:0,0:0:0:0:
294,120,19498,2,0,B|248:115|248:115|211:155,1,95,4|0,1:2|1:0,0:0:0:0:
127,240,19806,2,0,B|103:262|103:262|65:267|23:233,1,95,2|0,1:2|1:0,0:0:0:0:
106,63,20114,5,4,1:2:0:0:
101,87,20191,1,0,1:0:0:0:
97,111,20268,1,0,1:0:0:0:
93,135,20345,1,0,1:0:0:0:
68,131,20422,1,4,1:2:0:0:
44,127,20499,1,0,1:0:0:0:
19,123,20576,1,0,1:0:0:0:
24,99,20652,1,0,1:0:0:0:
27,74,20729,1,4,1:2:0:0:
32,50,20806,1,0,1:0:0:0:
56,54,20883,1,0,1:0:0:0:
81,58,20960,1,0,1:0:0:0:
106,63,21037,2,0,L|155:73,3,47.5,4|0|0|0,1:2|1:0|1:0|1:0,0:0:0:0:
232,42,21345,5,4,1:2:0:0:
256,192,21498,1,4,1:2:0:0:
280,342,21652,1,4,1:2:0:0:
484,155,21960,5,4,1:2:0:0:
256,192,22191,1,4,1:2:0:0:
30,227,22422,1,4,1:2:0:0:
74,144,22575,6,0,P|123:155|185:117,2,114,4|2|2,1:2|0:0|0:0,0:0:0:0:
30,227,23191,2,0,P|40:294|43:328,1,76,2|0,0:0|0:0,0:0:0:0:
112,363,23498,1,2,0:0:0:0:
173,260,23652,1,2,0:0:0:0:
173,260,23729,1,2,0:0:0:0:
173,260,23806,6,0,P|153:248|91:256,2,50.6666666666667,2|2|2,0:0|0:0|0:0,0:0:0:0:
257,232,24114,6,0,P|257:208|219:158,2,50.6666666666667,2|2|2,0:0|0:0|0:0,0:0:0:0:
335,274,24422,6,0,P|355:262|376:221,3,38,2|2|2|2,0:0|0:0|0:0|0:0,0:0:0:0:
334,363,24729,6,0,P|353:375|416:367,2,50.6666666666667,2|2|2,0:0|0:0|0:0,0:0:0:0:
255,319,25037,5,2,0:0:0:0:
256,192,25114,12,0,26191,0:0:0:0:
256,156,26268,5,8,0:3:0:0:
256,64,26422,1,2,0:0:0:0:
179,110,26575,1,8,3:0:0:0:
333,110,26729,1,8,3:0:0:0:
256,156,27037,1,8,3:0:0:0:
179,18,27191,1,0,1:0:0:0:
151,23,27268,1,0,1:0:0:0:
123,29,27345,1,0,1:0:0:0:
95,35,27422,1,0,1:0:0:0:
67,41,27498,6,0,P|52:103|48:131,1,76,4|0,1:2|0:0,0:0:0:0:
151,112,27806,2,0,P|136:174|132:202,1,76,2|0,0:0|0:0,0:0:0:0:
64,253,28114,1,2,1:2:0:0:
64,253,28422,1,2,0:2:0:0:
134,186,28575,2,0,P|170:176|208:169,1,76,2|0,0:2|1:0,0:0:0:0:
300,192,28883,2,0,P|324:232|306:269,1,76,2|0,0:2|0:0,0:0:0:0:
265,345,29191,1,2,0:0:0:0:
265,345,29498,1,0,0:0:0:0:
154,384,29652,2,0,P|163:347|170:309,1,76,2|2,0:0|0:0,0:0:0:0:
167,281,29883,1,2,0:0:0:0:
167,281,29960,6,0,P|253:264|342:257,1,152,2|0,1:2|0:0,0:0:0:0:
388,323,30422,1,2,0:0:0:0:
512,122,30729,1,2,0:2:0:0:
512,122,31037,2,0,P|441:137|368:22,1,228,2|2,0:0|0:0,0:0:0:0:
458,43,31652,1,2,0:0:0:0:
458,43,31960,1,2,0:0:0:0:
451,64,32037,1,2,0:0:0:0:
444,85,32114,1,2,0:0:0:0:
465,92,32191,1,2,0:0:0:0:
486,99,32268,1,2,0:0:0:0:
368,21,32422,6,0,B|381:63|421:84|421:84|257:117,1,213.750008153916,4|0,1:2|0:0,0:0:0:0:
238,171,32729,2,0,B|285:127|250:75|250:75|136:98,1,213.750008153916,8|0,0:0|0:0,0:0:0:0:
81,43,33037,2,0,B|0:60|0:60|59:18,1,142.500005435944,4|0,1:2|0:0,0:0:0:0:
145,96,33268,2,0,B|134:154|134:154|147:176|147:176|130:249,1,142.500005435944,8|0,0:0|0:0,0:0:0:0:
100,308,33498,1,6,1:2:0:0:
0,233,33652,5,4,1:2:0:0:
432,298,34114,2,0,P|327:313|293:322,1,123.499994346619,4|0,1:2|0:0,0:0:0:0:
409,216,34422,1,4,1:2:0:0:
374,384,34575,2,0,B|372:367|372:367|379:361|379:361|374:336|374:336|381:333|381:333|377:309|377:309|383:306|383:306|380:282|380:282|386:278|386:278|383:254|383:254|390:250|390:250|385:231|385:231|390:226|390:226|386:206|386:206|392:202|392:202|388:184|388:184|396:180|396:180|391:155|391:155|398:153|398:153|403:134,1,285.000010871888,2|6,1:0|1:2,0:0:0:0:
310,53,35037,5,0,0:0:0:0:
230,143,35191,2,0,B|184:62|272:2|272:2|333:51|333:51|427:23|427:23,1,308.749985866547,10|0,0:0|0:0,0:0:0:0:
477,11,35652,2,0,P|494:74|507:143,1,123.499994346619,2|8,1:2|0:0,0:0:0:0:
478,266,35960,6,0,P|458:241|398:238,1,71.2500027179719,6|0,1:2|0:0,0:0:0:0:
290,108,36268,6,0,P|258:112|226:168,1,76,6|0,1:2|0:0,0:0:0:0:
33,200,36575,6,0,P|21:229|49:283,1,80.750001540184,6|0,1:2|0:0,0:0:0:0:
37,273,36883,2,0,P|48:212|65:155,1,113.999996520996,4|2,1:2|3:0,0:0:0:0:
123,73,37191,1,2,3:0:0:0:
47,4,37345,6,0,P|2:28|5:94,1,113.999996520996,4|0,1:2|0:0,0:0:0:0:
123,73,37652,2,0,P|184:84|239:98,1,113.999996520996,10|0,0:0|0:0,0:0:0:0:
302,19,37960,1,2,3:0:0:0:
383,85,38114,2,0,B|367:122|367:122|372:155|372:155|296:196,1,113.999996520996,2|10,1:3|0:0,0:0:0:0:
156,220,38422,2,0,B|130:245|130:245|231:217,2,113.999996520996,2|2|0,0:0|1:2|0:0,0:0:0:0:
391,338,38883,5,10,0:2:0:0:
290,269,39037,1,2,0:0:0:0:
290,269,39114,1,2,0:0:0:0:
290,269,39191,2,0,P|273:340|265:392,1,113.999996520996,2|0,3:0|1:0,0:0:0:0:
473,357,39498,2,0,P|410:313|474:191,1,227.999993041992,10|8,0:0|1:3,0:0:0:0:
503,118,39960,5,2,0:0:0:0:
473,37,40114,1,8,0:0:0:0:
388,22,40268,1,8,3:0:0:0:
388,22,40575,1,8,1:3:0:0:
336,90,40729,1,8,0:0:0:0:
251,78,40883,1,8,3:0:0:0:
199,146,41037,1,2,1:2:0:0:
199,146,41345,2,0,P|113:130|66:127,1,113.999996520996,8|8,0:2|3:0,0:0:0:0:
242,217,41652,1,0,1:0:0:0:
158,55,41806,1,8,1:3:0:0:
13,176,41960,2,0,B|-20:225|-20:225|8:282,1,113.999996520996,10|0,0:2|1:0,0:0:0:0:
153,311,42268,6,0,B|38:298|125:384|-48:360,1,170.999994781494,4|0,1:2|0:0,0:0:0:0:
4,274,42575,2,2,B|26:144|30:102|30:102|8:74|1:32,1,227.999993041992,10|0,0:0|0:0,0:1:0:0:
189,0,43037,2,2,B|167:130|163:172|163:172|185:200|192:242,1,227.999993041992,2|0,1:3|0:0,0:1:0:0:
327,380,43498,2,2,B|349:250|353:208|353:208|331:180|324:138,1,227.999993041992,2|8,1:3|0:0,0:1:0:0:
512,106,43960,2,2,B|490:236|486:278|486:278|508:306|515:348,1,227.999993041992,2|0,3:0|1:0,0:1:0:0:
376,245,44422,1,8,0:0:0:0:
122,341,44729,6,0,B|77:333|37:372|37:372|66:320|134:323,1,170.999994781494,2|0,1:2|0:0,0:0:0:0:
204,345,45037,2,2,B|334:367|376:371|376:371|404:349|446:342,1,227.999993041992,10|0,0:2|0:0,0:1:0:0:
274,244,45498,2,2,B|144:222|102:218|102:218|74:240|32:247,1,227.999993041992,2|0,1:3|0:0,0:1:0:0:
231,126,45960,2,2,B|361:148|403:152|403:152|431:130|473:123,1,227.999993041992,2|0,1:3|0:0,0:1:0:0:
301,25,46421,2,2,B|171:3|129:-1|129:-1|101:21|59:28,1,227.999993041992,10|0,0:0|0:0,0:1:0:0:
0,183,46883,1,8,0:0:0:0:
0,183,47191,5,4,1:2:0:0:
65,135,47345,1,0,0:0:0:0:
143,150,47498,1,2,0:0:0:0:
183,220,47652,1,0,0:0:0:0:
256,252,47806,1,2,0:0:0:0:
329,220,47960,1,0,0:0:0:0:
369,150,48114,1,2,0:0:0:0:
447,135,48267,1,0,0:0:0:0:
512,183,48422,2,0,P|501:256|501:291,2,76,2|0|0,0:0|0:0|0:0,0:0:0:0:
421,223,48883,2,0,P|410:312|399:374,1,152,2|2,0:0|0:0,0:0:0:0:
328,299,49345,2,0,P|290:302|252:310,1,76,2|2,0:0|0:0,0:0:0:0:
125,362,49652,5,4,1:2:0:0:
205,233,49806,1,8,0:0:0:0:
252,309,49960,5,0,1:0:0:0:
83,286,50114,1,10,0:0:0:0:
8,224,50268,6,0,L|13:191,2,28.4999991302491,2|0|0,1:2|1:0|1:0,0:0:0:0:
7,223,50422,2,0,P|68:208|154:201,1,113.999996520996,2|10,1:2|0:0,0:0:0:0:
215,121,50729,1,2,1:2:0:0:
148,38,50883,1,2,1:2:0:0:
350,212,51114,1,0,1:0:0:0:
350,212,51191,2,0,B|319:162|319:162|355:108,1,113.999996520996,10|2,0:0|1:2,0:0:0:0:
236,244,51498,1,2,1:2:0:0:
236,244,51575,1,2,1:2:0:0:
236,244,51652,1,2,1:2:0:0:
349,336,51806,2,0,P|296:326|250:389,1,113.999996520996,10|2,0:0|1:2,0:0:0:0:
442,371,52114,6,0,B|456:342|456:342|439:319|439:319|454:288,3,95,4|0|8|0,1:2|0:0|3:0|0:0,0:0:0:0:
512,226,52729,2,0,B|501:196|501:196|473:192|473:192|462:160,3,95,0|8|0|0,1:0|3:0|0:0|0:0,0:0:0:0:
460,72,53345,2,0,B|431:59|431:59|408:76|408:76|377:61,3,95,8|0|0|2,1:3|0:0|0:0|0:0,0:0:0:0:
311,0,53960,2,0,B|281:10|281:10|277:38|277:38|245:50,3,95,8|0|2|2,1:3|0:0|0:0|0:0,0:0:0:0:
147,138,54575,6,0,P|65:147|20:157,1,95,0|2,1:0|0:0,0:0:0:0:
140,50,54883,2,0,P|58:59|13:69,1,95,0|0,1:0|0:0,0:0:0:0:
147,138,55191,6,0,P|139:184|135:232,1,95,2|0,1:2|0:0,0:0:0:0:
235,145,55498,2,0,P|227:191|223:239,1,95,0|2,1:0|0:0,0:0:0:0:
119,340,55806,6,0,P|37:349|12:354,2,56.9999982604981,4|0|0,1:2|1:0|1:0,0:0:0:0:
222,239,56114,1,0,1:0:0:0:
42,134,56268,1,2,1:2:0:0:
42,134,56345,1,0,1:0:0:0:
42,134,56422,2,0,B|42:171|22:195|22:195|83:229|159:186|145:107,1,227.999993041992,4|2,1:2|0:0,0:0:0:0:
311,28,57037,6,0,P|259:89|295:15,1,209.000006378174,4|2,1:2|0:0,0:0:0:0:
407,110,57498,2,0,P|365:171|205:163,1,209.000006378174,4|2,1:2|0:0,0:0:0:0:
94,359,57960,2,0,B|51:312|92:263|92:263|198:287,1,209.000006378174,4|2,1:2|0:0,0:0:0:0:
346,383,58422,2,0,B|332:346|293:342|293:342|282:289|329:253,1,156.750004783631,4|0,1:2|0:0,0:0:0:0:
339,237,58729,1,2,0:0:0:0:
441,345,58883,2,0,P|452:263|463:218,1,104.500003189087,4|2,1:2|0:0,0:0:0:0:
339,237,59191,2,0,P|328:155|317:110,1,104.500003189087,2|2,3:0|3:0,0:0:0:0:
437,7,59498,6,0,P|414:67|528:142,1,209.000006378174,4|2,1:2|0:0,0:0:0:0:
323,133,59960,2,0,B|270:172|270:172|190:179|120:129,1,209.000006378174,4|2,1:2|0:0,0:0:0:0:
0,253,60422,2,0,P|24:119|35:18,1,209.000006378174,4|2,1:2|0:0,0:0:0:0:
241,75,60883,2,0,B|201:78|169:34|169:34|85:89|156:171,1,209.000006378174,4|2,1:2|0:0,0:0:0:0:
176,353,61345,2,2,B|175:279|213:237|213:237|204:177,1,170.999994781494,4|8,1:2|0:0,0:1:0:0:
98,265,61652,2,2,B|228:215|181:333|327:281,1,227.999993041992,2|4,0:0|1:2,0:1:0:0:
312,285,62422,6,0,B|365:258|428:248|428:248|413:313|475:329,1,209.000006378174,4|2,1:2|0:0,0:0:0:0:
275,379,62883,2,0,P|297:232|317:131,1,209.000006378174,4|2,1:2|0:0,0:0:0:0:
441,23,63345,2,0,B|388:73|388:73|331:42|331:42|254:65,1,209.000006378174,4|2,1:2|0:0,0:0:0:0:
431,229,63806,2,0,B|407:180|407:180|453:135,2,104.500003189087,4|0|8,1:2|0:0|0:0,0:0:0:0:
300,268,64268,6,0,P|232:256|182:251,1,104.500003189087,4|0,1:2|0:0,0:0:0:0:
106,130,64575,1,8,0:0:0:0:
235,166,64729,1,4,1:2:0:0:
80,265,64883,1,2,0:0:0:0:
80,265,64960,1,2,2:0:0:0:
80,265,65037,2,0,P|68:323|66:352,1,66.4999979705811,8|0,0:0|0:0,0:0:0:0:
106,130,65191,6,2,B|77:81|77:81|103:44|103:44|90:-6,1,132.999995941162,4|0,1:2|0:0,0:1:0:0:
214,137,65498,1,8,0:0:0:0:
0,247,65652,2,2,B|17:271|17:271|113:236|113:236|116:215|116:215|209:183|209:183|235:205,1,285.000010871888,4|2,1:2|0:0,0:1:0:0:
345,384,66114,2,2,B|308:264|308:264|432:299|432:299|400:323,1,285.000010871888,4|2,1:2|0:3,0:1:0:0:
489,120,66883,5,4,0:0:0:0:
175,43,71806,5,4,1:2:0:0:
175,43,71883,1,0,1:0:0:0:
175,43,71960,1,8,0:0:0:0:
119,107,72114,1,0,1:0:0:0:
207,123,72268,1,8,0:0:0:0:
84,25,72575,5,2,1:2:0:0:
149,190,72728,1,2,0:0:0:0:
263,57,72882,1,10,0:0:0:0:
263,57,73037,2,0,B|223:97|223:97|62:113,2,190,0|8|2,1:0|0:0|1:2,0:0:0:0:
334,11,73729,2,0,L|398:23,1,47.5,0|0,1:0|1:0,0:0:0:0:
481,151,73960,2,0,B|497:58|497:58|459:98,1,142.5,8|0,0:0|0:0,0:0:0:0:
379,109,74268,6,0,B|311:152|311:152|302:83|251:48,1,190,4|0,1:2|1:0,0:0:0:0:
402,222,74883,2,0,B|422:278|422:278|379:321|379:321|427:386,1,190,0|0,1:0|1:0,0:0:0:0:
507,292,75345,1,10,0:0:0:0:
319,253,75498,6,0,P|255:263|204:274,1,95,4|0,1:2|1:0,0:0:0:0:
126,382,75806,2,0,P|172:372|219:365,1,95,0|0,1:0|1:0,0:0:0:0:
319,253,76114,1,4,1:2:0:0:
326,225,76191,1,0,1:0:0:0:
320,197,76268,1,0,1:0:0:0:
299,176,76345,1,0,1:0:0:0:
270,170,76422,1,0,1:0:0:0:
244,158,76498,1,0,1:0:0:0:
230,132,76575,1,0,1:0:0:0:
230,103,76652,1,0,1:0:0:0:
241,80,76729,6,0,B|273:51|324:72|324:72|368:56|356:9,3,152,4|0|0|2,0:0|0:0|0:0|0:0,0:0:0:0:
148,25,77960,6,0,L|136:78,7,42.7499986953736,0|0|0|0|0|0|0|0,1:0|1:0|1:0|1:0|1:0|1:0|1:0|1:0,0:0:0:0:
76,122,78575,2,0,L|92:181,7,56.9999982604981,0|0|0|0|0|0|0|0,1:0|1:0|1:0|1:0|1:0|1:0|1:0|1:0,0:0:0:0:
26,238,79191,5,4,1:2:0:0:
104,272,79345,1,2,0:0:0:0:
182,238,79498,1,2,0:0:0:0:
260,272,79652,1,2,0:0:0:0:
334,376,79806,5,2,1:2:0:0:
368,298,79960,1,2,0:0:0:0:
334,220,80113,1,2,0:0:0:0:
368,142,80267,1,2,0:0:0:0:
406,30,80422,5,2,1:2:0:0:
328,64,80576,1,2,0:0:0:0:
250,30,80729,1,2,0:0:0:0:
172,64,80883,1,2,0:0:0:0:
44,131,81037,6,0,P|57:53|63:3,1,95,2|0,1:2|0:0,0:0:0:0:
131,145,81345,2,0,P|144:67|150:17,1,95,2|0,0:0|0:0,0:0:0:0:
307,19,81652,5,2,1:2:0:0:
341,97,81806,1,2,0:0:0:0:
307,175,81959,1,2,0:3:0:0:
341,253,82113,1,2,0:0:0:0:
387,365,82268,5,2,1:2:0:0:
302,354,82422,1,2,0:0:0:0:
251,286,82575,1,2,0:3:0:0:
167,276,82729,1,2,0:0:0:0:
49,262,82883,5,2,1:2:0:0:
101,193,83037,1,2,0:0:0:0:
185,183,83190,1,2,0:3:0:0:
236,115,83344,1,2,0:0:0:0:
366,34,83498,6,0,B|416:16|416:16|468:56,1,104.500003189087,4|0,1:2|0:0,0:0:0:0:
351,125,83806,2,0,B|401:107|401:107|453:147,1,104.500003189087,4|0,1:2|0:0,0:0:0:0:
512,296,84114,5,4,1:2:0:0:
491,319,84191,1,0,0:0:0:0:
462,331,84268,1,2,3:0:0:0:
431,331,84345,1,0,0:0:0:0:
401,321,84422,2,0,B|395:288|395:288|414:263|414:263|375:196,1,123.499994346619,8|2,1:2|3:0,0:0:0:0:
291,261,84729,5,0,1:0:0:0:
261,251,84806,1,0,0:0:0:0:
230,251,84883,1,2,3:0:0:0:
201,263,84960,1,0,0:0:0:0:
180,286,85037,2,0,B|189:319|163:337|163:337|159:380|226:388,1,123.499994346619,8|2,1:2|3:0,0:0:0:0:
20,372,85345,5,0,1:0:0:0:
43,351,85421,1,0,0:0:0:0:
55,322,85498,1,2,3:0:0:0:
55,291,85575,1,0,0:0:0:0:
45,261,85652,2,0,B|19:247|19:222|19:222|14:217|14:217|43:171|72:167,1,123.499994346619,8|2,1:2|3:0,0:0:0:0:
180,286,85960,6,0,P|199:166|208:130,1,123.499994346619,2|0,1:1|0:0,0:0:0:0:
292,81,86268,1,8,1:2:0:0:
206,7,86422,1,2,0:0:0:0:
206,7,86498,1,2,0:0:0:0:
206,7,86575,6,0,B|152:41|152:41|76:18,1,123.499994346619,4|0,1:2|1:0,0:0:0:0:
292,81,86883,2,0,P|366:48|430:88,1,123.499994346619,2|0,1:2|1:0,0:0:0:0:
502,169,87191,5,2,1:2:0:0:
386,251,87345,1,0,1:0:0:0:
494,268,87498,5,2,1:2:0:0:
394,156,87652,1,0,1:0:0:0:
394,156,87729,1,0,1:0:0:0:
394,156,87806,2,0,P|361:161|327:170,3,61.7499971733095,4|0|0|0,1:2|1:0|1:0|1:0,0:0:0:0:
276,231,88114,2,0,P|268:260|264:291,3,61.7499971733095,2|0|0|0,1:2|1:0|1:0|1:0,0:0:0:0:
296,358,88422,2,0,P|240:317|171:346,1,123.499994346619,4|0,1:2|1:0,0:0:0:0:
128,384,88652,1,0,1:0:0:0:
128,384,88729,2,0,P|145:303|153:235,1,123.499994346619,4|0,1:2|1:0,0:0:0:0:
151,177,88960,1,0,1:0:0:0:
151,177,89037,6,0,P|115:180|94:201,2,63.3333333333333,4|2|2,1:2|0:0|0:0,0:0:0:0:
180,91,89345,5,2,0:0:0:0:
157,53,89447,5,2,0:0:0:0:
114,39,89550,5,2,0:0:0:0:
73,55,89652,5,2,0:0:0:0:
114,71,89755,5,2,0:0:0:0:
157,62,89857,5,2,0:0:0:0:
192,35,89960,5,2,0:0:0:0:
230,13,90063,5,2,0:0:0:0:
273,19,90165,5,2,0:0:0:0:
306,48,90268,6,2,P|387:32|438:28,1,113.999996520996,4|0,1:2|0:0,0:1:0:0:
505,15,90498,2,2,P|491:89|429:101,1,113.999996520996,2|0,0:0|0:0,0:1:0:0:
361,122,90729,2,2,B|332:150|300:167|300:167|359:229|370:298,1,170.999994781494,2|0,0:0|0:0,0:1:0:0:
429,300,91037,6,0,L|481:286,1,47.5,2|2,0:0|0:0,0:0:0:0:
500,263,91191,2,0,L|513:210,1,47.5,2|2,0:0|0:0,0:0:0:0:
509,182,91345,2,0,L|463:194,1,47.5,2|0,0:0|0:0,0:0:0:0:
354,245,91498,6,0,B|298:259|298:259|254:306|254:306|131:257,1,199.499993911743,4|0,1:2|0:0,0:0:0:0:
118,205,91806,2,0,P|78:280|114:334,1,132.999995941162,10|2,0:0|0:0,0:0:0:0:
234,194,92114,2,2,P|252:88|263:41,1,132.999995941162,2|2,3:0|1:3,0:1:0:0:
339,157,92422,1,2,3:0:0:0:
395,2,92575,2,2,B|312:22|312:22|308:18|308:18|162:49|162:49|145:20,1,265.999991882324,10|0,0:0|1:0,0:1:0:0:
57,12,92960,1,0,3:0:0:0:
57,12,93037,2,0,B|37:40|37:40|49:82,3,66.4999979705811,8|0|0|0,3:2|3:0|3:0|3:0,0:0:0:0:
149,27,93345,2,0,B|157:57|157:57|137:85,3,66.4999979705811,0|0|0|0,1:0|3:0|3:0|3:0,0:0:0:0:
61,191,93652,1,8,3:2:0:0:
61,191,93729,1,0,3:0:0:0:
61,191,93806,1,0,3:0:0:0:
61,191,93883,1,0,3:0:0:0:
61,191,93960,6,2,B|6:194|6:194|89:145,1,132.999995941162,6|0,1:2|0:1,0:1:0:0:
131,251,94191,1,0,0:0:0:0:
131,251,94268,2,2,P|171:262|200:251,1,66.4999979705811,10|0,0:0|0:0,0:1:0:0:
263,193,94422,1,0,0:0:0:0:
263,193,94498,2,2,B|291:183|291:183|317:194|340:217,1,66.4999979705811,2|0,1:2|0:0,0:1:0:0:
371,281,94652,1,0,0:0:0:0:
371,281,94729,2,2,B|387:295|387:295|434:287,1,66.4999979705811,2|0,1:2|0:0,0:1:0:0:
502,242,94883,1,0,0:0:0:0:
502,242,94960,1,0,0:0:0:0:
502,242,95037,6,2,B|528:77|528:77|503:53|503:53|505:28|505:28|477:0,1,265.999991882324,12|0,0:0|1:0,0:1:0:0:
344,82,95498,2,2,P|386:72|418:69,1,66.4999979705811,10|0,0:0|0:0,0:1:0:0:
276,143,95652,2,2,B|250:308|250:308|275:332|275:332|273:357|273:357|301:385,1,265.999991882324,2|2,1:2|1:2,0:1:0:0:
384,368,96037,1,2,0:0:0:0:
384,368,96114,2,0,P|426:368|453:342,1,66.4999979705811,10|0,0:0|0:0,0:0:0:0:
512,261,96268,2,0,P|403:279|372:289,1,132.999995941162,2|4,1:2|1:2,0:0:0:0:
218,131,96575,5,0,0:0:0:0:
210,228,96729,2,0,B|251:202|251:202|262:149|199:121,1,132.999995941162,10|0,0:0|0:0,0:0:0:0:
85,250,97037,1,2,1:2:0:0:
85,250,97114,1,2,1:2:0:0:
85,250,97191,1,2,1:2:0:0:
153,83,97345,1,10,0:0:0:0:
153,83,97422,1,10,0:0:0:0:
153,83,97498,6,0,B|188:89|206:99|206:99|257:71|310:20,1,132.999995941162,10|2,0:0|0:0,0:0:0:0:
80,0,97806,2,0,P|62:85|51:156,1,132.999995941162,4|10,1:2|0:0,0:0:0:0:
197,7,98114,1,2,0:0:0:0:
197,7,98191,1,0,0:0:0:0:
197,7,98268,2,0,P|179:92|168:163,1,132.999995941162,4|0,1:2|0:0,0:0:0:0:
217,211,98498,1,0,0:0:0:0:
217,211,98575,2,0,P|179:226|132:205,1,66.4999979705811,10|2,0:0|0:0,0:0:0:0:
82,264,98729,2,0,P|66:301|87:348,1,66.4999979705811,2|2,0:0|0:0,0:0:0:0:
142,384,98883,6,2,B|233:370|233:370|239:378|239:378|277:373,1,132.999995941162,2|0,1:3|0:0,0:1:0:0:
345,325,99114,2,0,B|298:373|298:373|317:242,1,199.499993911743,8|2,0:0|1:2,0:0:0:0:
434,300,99498,1,8,0:0:0:0:
367,141,99652,1,0,1:0:0:0:
217,211,99806,1,4,1:2:0:0:
217,211,99883,1,2,1:2:0:0:
217,211,99960,6,2,B|144:225|144:225|107:272|107:272|34:283,1,199.499993911743,4|0,1:2|0:0,0:1:0:0:
8,195,100268,2,2,B|-25:80|-25:80|23:54|42:11,1,199.499993911743,4|0,1:2|0:0,0:1:0:0:
123,4,100575,2,0,P|169:57|246:19,1,132.999995941162,8|4,0:0|1:2,0:0:0:0:
126,162,100883,1,2,0:0:0:0:
126,162,100960,1,2,0:0:0:0:
126,162,101037,2,0,B|148:249|148:249|111:303,1,132.999995941162,10|0,0:0|0:0,0:0:0:0:
277,384,101345,6,0,B|274:354|249:342|249:342|232:311|281:259,1,113.999996520996,4|2,1:2|0:0,0:0:0:0:
280,254,101575,1,0,0:0:0:0:
280,254,101652,2,0,P|340:239|409:233,1,113.999996520996,2|2,0:0|0:0,0:0:0:0:
488,379,101960,2,0,P|516:328|477:255,1,113.999996520996,2|0,3:0|0:0,0:0:0:0:
486,249,102191,1,0,0:0:0:0:
486,249,102268,1,2,0:0:0:0:
370,350,102422,2,0,P|380:247|404:102,1,227.999993041992,2|0,3:0|0:0,0:0:0:0:
426,97,102806,1,0,0:0:0:0:
426,97,102883,2,0,P|478:85|507:81,3,66.4999979705811,2|2|2|2,0:0|0:0|0:0|0:0,0:0:0:0:
452,7,103191,5,8,0:0:0:0:
412,15,103268,1,8,0:0:0:0:
373,23,103345,1,8,0:0:0:0:
334,32,103422,1,8,0:0:0:0:
319,68,103498,1,8,0:0:0:0:
279,76,103575,1,8,0:0:0:0:
240,84,103652,1,8,0:0:0:0:
201,93,103729,1,8,0:0:0:0:
186,129,103806,6,2,B|165:108|122:109|122:109|172:97|199:45,1,132.999995941162,4|0,1:2|0:0,0:1:0:0:
267,165,104037,1,0,0:0:0:0:
267,165,104114,2,2,P|278:208|258:244,1,66.4999979705811,10|0,0:0|0:0,0:1:0:0:
248,323,104268,1,0,0:0:0:0:
248,323,104345,2,2,B|227:350|227:350|175:354,1,66.4999979705811,2|0,1:2|0:0,0:1:0:0:
105,365,104498,1,0,0:0:0:0:
105,365,104575,2,2,B|79:363|79:363|55:354|41:326,1,66.4999979705811,2|0,1:2|0:0,0:1:0:0:
0,269,104729,1,0,0:0:0:0:
0,269,104806,1,0,0:0:0:0:
0,269,104883,6,2,B|5:188|105:188|105:188|123:274|243:243,1,265.999991882324,12|0,0:0|1:0,0:1:0:0:
353,185,105345,2,2,P|307:191|263:204,1,66.4999979705811,10|0,0:0|0:0,0:1:0:0:
189,251,105498,2,2,B|270:246|270:146|270:146|184:128|215:8,1,265.999991882324,2|2,1:2|1:2,0:1:0:0:
284,17,105883,1,2,0:0:0:0:
284,17,105960,2,0,P|316:9|349:6,2,66.4999979705811,10|0|2,0:0|0:0|0:0,0:0:0:0:
476,175,106268,6,0,B|461:154|439:144|439:144|435:93|482:70,1,132.999995941162,12|0,0:0|1:0,0:0:0:0:
353,185,106575,1,2,1:2:0:0:
489,290,106729,2,0,P|420:277|347:270,1,132.999995941162,10|2,0:0|1:2,0:0:0:0:
274,361,107037,1,2,1:2:0:0:
149,260,107191,2,0,B|182:314|182:314|127:381,1,132.999995941162,10|0,0:0|1:0,0:0:0:0:
271,229,107498,5,12,0:0:0:0:
137,367,107652,2,2,B|93:250|225:310|167:156,1,199.499993911743,2|0,1:2|0:0,0:1:0:0:
109,124,107960,2,2,B|131:87|168:87|168:87|185:109|222:108,1,132.999995941162,10|4,0:0|1:2,0:1:0:0:
84,221,108268,1,2,1:2:0:0:
84,221,108345,1,2,0:0:0:0:
84,221,108422,2,0,P|41:224|16:231,3,66.4999979705811,10|2|2|2,0:0|0:0|1:2|0:0,0:0:0:0:
19,138,108729,5,4,1:2:0:0:
1,109,108806,1,0,1:0:0:0:
1,75,108883,1,2,1:2:0:0:
20,48,108960,1,2,1:2:0:0:
50,34,109037,2,0,P|82:25|115:23,3,66.4999979705811,4|0|2|2,1:2|1:0|1:2|1:2,0:0:0:0:
217,10,109345,5,4,1:2:0:0:
212,42,109422,1,0,1:0:0:0:
207,74,109498,1,2,1:2:0:0:
202,106,109575,1,0,1:0:0:0:
197,138,109652,2,0,P|230:136|262:127,3,66.4999979705811,4|2|2|2,1:2|1:2|1:2|1:2,0:0:0:0:
349,108,109960,6,2,P|395:190|292:253,1,199.499993911743,4|0,1:2|0:0,0:1:0:0:
247,226,110268,2,2,B|198:247|196:292|196:292|265:304|271:383,1,199.499993911743,4|0,1:2|0:0,0:1:0:0:
361,375,110575,2,2,B|421:327|496:340|496:340|459:322|447:272,1,199.499993911743,4|0,1:2|0:0,0:1:0:0:
439,218,110883,2,0,P|488:218|509:236,2,66.4999979705811,10|2|2,0:0|0:0|0:0,0:0:0:0:
349,108,111191,6,0,P|360:27|370:-17,1,95,4|0,1:2|0:0,0:0:0:0:
438,121,111498,2,0,P|449:40|459:-4,1,95,0|0,1:0|0:0,0:0:0:0:
169,257,112114,6,0,P|158:176|148:132,1,95,0|0,1:0|0:0,0:0:0:0:
80,270,112421,2,0,P|69:189|59:145,1,95,2|2,0:0|0:0,0:0:0:0:
256,14,112883,5,2,0:0:0:0:
228,85,113037,1,2,0:0:0:0:
280,140,113191,1,2,0:0:0:0:
252,211,113345,2,0,P|260:257|265:304,1,95,2|0,0:0|0:0,0:0:0:0:
100,363,113652,6,0,P|125:306|107:263,1,95,4|0,1:2|0:0,0:0:0:0:
4,346,113960,2,0,P|-2:299|20:259,1,95,0|2,1:0|0:0,0:0:0:0:
163,80,114422,5,0,0:0:0:0:
163,80,114575,2,0,P|186:120|179:166,1,95,0|0,1:0|0:0,0:0:0:0:
67,97,114883,2,0,P|60:143|83:183,1,95,2|2,0:0|0:0,0:0:0:0:
83,183,115345,2,0,P|60:143|67:97,1,95,2|2,0:0|0:0,0:0:0:0:
105,13,115652,1,2,0:0:0:0:
105,13,115729,1,2,0:0:0:0:
105,13,115806,2,0,P|138:3|178:1,3,47.5,2|2|2|2,0:0|0:0|0:0|0:0,0:0:0:0:
237,20,116114,6,0,P|223:97|213:187,1,152,2|2,0:0|0:0,0:0:0:0:
237,268,116575,1,2,0:0:0:0:
358,349,116883,2,0,B|284:319|292:401|196:356,2,152,2|2|2,0:0|0:0|0:0,0:0:0:0:
493,221,117806,1,2,0:0:0:0:
446,160,117960,1,2,0:0:0:0:
370,149,118114,1,2,0:0:0:0:
306,190,118268,1,2,0:0:0:0:
245,279,118575,6,0,B|299:34|299:34|237:44|195:102|195:102|165:51|112:59,1,456,6|0,0:0|0:0,0:0:0:0:
256,192,119575,12,0,121960,0:0:0:0:
