osu file format v14

[General]
AudioFilename: audio.mp3
AudioLeadIn: 0
PreviewTime: 86984
Countdown: 0
SampleSet: Soft
StackLeniency: 0.7
Mode: 3
LetterboxInBreaks: 0
SpecialStyle: 0
WidescreenStoryboard: 1

[Editor]
DistanceSpacing: 0.8
BeatDivisor: 3
GridSize: 32
TimelineZoom: 2.2

[Metadata]
Title:Tsui no Maihime
TitleUnicode:終の舞姫
Artist:Se-U-Ra
ArtistUnicode:Se-U-Ra
Creator:DarkistDeci
Version:Normal
Source:Dynamix
Tags:featured artist dubstek せゆーら Tree Called Elif ethnic hardcore seura seyura instrumental famoss video game ost rhythm game electronic edm artcore Ragnarok VII fa featured artist
BeatmapID:2410034
BeatmapSetID:1154776

[Difficulty]
HPDrainRate:7
CircleSize:4
OverallDifficulty:7
ApproachRate:5
SliderMultiplier:1.4
SliderTickRate:1

[Events]
//Background and Video events
0,0,"80195226_p0_master1200.jpg",0,0
//Break Periods
//Storyboard Layer 0 (Background)
//Storyboard Layer 1 (Fail)
//Storyboard Layer 2 (Pass)
//Storyboard Layer 3 (Foreground)
//Storyboard Layer 4 (Overlay)
//Storyboard Sound Samples

[TimingPoints]
252,297.029702970297,4,2,1,50,1,0
9756,-100,4,2,1,60,0,0
10945,-100,4,2,1,70,0,0
59806,-100,4,2,1,50,0,0
72727,-100,4,2,1,60,0,0
90549,-100,4,2,1,70,0,1
114311,-100,4,2,1,70,0,0
114459,-100,4,2,1,50,0,0

[HitObjects]
192,192,252,5,0,0:0:0:0:
320,192,450,1,0,0:0:0:0:
448,192,648,1,0,0:0:0:0:
64,192,846,1,0,0:0:0:0:
320,192,1044,1,0,0:0:0:0:
192,192,1242,1,0,0:0:0:0:
448,192,1638,1,0,0:0:0:0:
320,192,1836,1,0,0:0:0:0:
192,192,2034,1,0,0:0:0:0:
448,192,2232,1,0,0:0:0:0:
320,192,2331,1,0,0:0:0:0:
64,192,2430,1,0,0:0:0:0:
192,192,2628,1,0,0:0:0:0:
320,192,2826,1,0,0:0:0:0:
64,192,3024,1,0,0:0:0:0:
448,192,3222,1,0,0:0:0:0:
320,192,3420,1,0,0:0:0:0:
192,192,3618,1,0,0:0:0:0:
448,192,3816,1,0,0:0:0:0:
64,192,4014,1,0,0:0:0:0:
320,192,4212,1,0,0:0:0:0:
192,192,4311,1,0,0:0:0:0:
64,192,4410,1,0,0:0:0:0:
320,192,4608,1,0,0:0:0:0:
448,192,4707,1,0,0:0:0:0:
64,192,4806,1,0,0:0:0:0:
192,192,4905,1,0,0:0:0:0:
320,192,5004,1,0,0:0:0:0:
64,192,5004,1,0,0:0:0:0:
448,192,5202,1,0,0:0:0:0:
448,192,5400,1,0,0:0:0:0:
320,192,5598,1,0,0:0:0:0:
64,192,5994,1,0,0:0:0:0:
448,192,6192,1,0,0:0:0:0:
448,192,6390,1,0,0:0:0:0:
320,192,6588,1,0,0:0:0:0:
64,192,6786,1,0,0:0:0:0:
320,192,7182,1,0,0:0:0:0:
64,192,7380,1,0,0:0:0:0:
192,192,7380,1,0,0:0:0:0:
448,192,7578,1,0,0:0:0:0:
320,192,7776,1,0,0:0:0:0:
64,192,7974,1,0,0:0:0:0:
192,192,8172,1,0,0:0:0:0:
320,192,8271,1,0,0:0:0:0:
448,192,8370,1,0,0:0:0:0:
64,192,8568,1,0,0:0:0:0:
320,192,8766,1,0,0:0:0:0:
192,192,8865,1,0,0:0:0:0:
64,192,8964,1,0,0:0:0:0:
192,192,9162,1,0,0:0:0:0:
448,192,9360,1,0,0:0:0:0:
320,192,9558,1,0,0:0:0:0:
192,192,9756,1,2,0:0:0:0:
64,192,9756,1,0,0:0:0:0:
448,192,10053,1,0,0:0:0:0:
64,192,10351,1,0,0:0:0:0:
192,192,10549,1,0,0:0:0:0:
448,192,10648,1,0,0:0:0:0:
320,192,10747,1,0,0:0:0:0:
192,192,10945,1,2,0:0:0:0:
64,192,10945,1,4,0:0:0:0:
320,192,11143,1,2,0:0:0:0:
448,192,11143,1,0,0:0:0:0:
192,192,11242,1,2,0:0:0:0:
64,192,11242,1,0,0:0:0:0:
320,192,11440,1,2,0:0:0:0:
448,192,11440,1,0,0:0:0:0:
64,192,11836,1,2,0:0:0:0:
192,192,11836,1,0,0:0:0:0:
64,192,12133,1,4,0:0:0:0:
448,192,12133,1,2,0:0:0:0:
320,192,12331,1,2,0:0:0:50:cymbal.wav
192,192,12331,1,2,0:0:0:0:
64,192,12430,1,2,0:0:0:50:cymbal.wav
448,192,12430,1,2,0:0:0:0:
320,192,12628,1,2,0:0:0:50:cymbal.wav
192,192,12628,1,2,0:0:0:0:
448,192,13024,1,2,0:0:0:0:
64,192,13024,1,0,0:0:0:0:
448,192,13321,1,2,0:0:0:0:
192,192,13321,128,4,14509:0:0:0:0:
448,192,14509,1,2,0:0:0:0:
64,192,14509,1,4,0:0:0:0:
192,192,15004,1,0,0:0:0:0:
320,192,15301,1,0,0:0:0:0:
192,192,15697,1,2,0:0:0:0:
64,192,15697,1,4,0:0:0:0:
448,192,15895,1,2,0:0:0:0:
64,192,16093,1,2,0:0:0:0:
320,192,16291,1,2,0:0:0:0:
448,192,16291,1,4,0:0:0:0:
192,192,16489,1,2,0:0:0:0:
320,192,16687,1,2,0:0:0:0:
448,192,16885,128,6,18964:0:0:0:70:LR_Long Bass.wav
64,192,16885,1,0,0:0:0:0:
320,192,18073,128,0,18964:0:0:0:0:
192,192,18964,1,2,0:0:0:50:cymbal.wav
64,192,18964,1,2,0:0:0:0:
64,192,19261,1,2,0:0:0:0:
320,192,19261,128,4,19558:0:0:0:0:
192,192,19558,1,2,0:0:0:0:
448,192,19558,1,0,0:0:0:0:
192,192,19855,128,2,20152:0:0:0:0:
448,192,19855,1,0,0:0:0:0:
320,192,20152,1,2,0:0:0:0:
64,192,20152,1,0,0:0:0:0:
448,192,20450,128,2,20747:0:0:0:0:
320,192,20450,1,0,0:0:0:0:
192,192,20747,1,2,0:0:0:0:
64,192,20747,128,0,21044:0:0:0:0:
448,192,21044,1,2,0:0:0:0:
192,192,21044,1,0,0:0:0:0:
320,192,21341,1,2,0:0:0:0:
64,192,21341,1,0,0:0:0:0:
448,192,21638,1,2,0:0:0:0:
64,192,21638,128,0,21935:0:0:0:0:
320,192,21935,1,2,0:0:0:0:
192,192,21935,1,0,0:0:0:0:
64,192,22232,1,2,0:0:0:0:
448,192,22232,128,0,22529:0:0:0:0:
320,192,22529,1,2,0:0:0:0:
192,192,22529,1,0,0:0:0:0:
64,192,22826,128,2,23123:0:0:0:0:
192,192,22826,1,0,0:0:0:0:
320,192,23123,128,2,23420:0:0:0:0:
448,192,23123,1,0,0:0:0:0:
448,192,23420,128,2,23717:0:0:0:0:
192,192,23420,1,0,0:0:0:0:
192,192,23717,128,2,24014:0:0:0:0:
64,192,23717,1,0,0:0:0:0:
448,192,24014,128,2,24311:0:0:0:0:
320,192,24014,1,4,0:0:0:0:
192,192,24311,1,2,0:0:0:0:
64,192,24311,1,8,0:0:0:0:
64,192,24608,128,2,24905:0:0:0:0:
192,192,24608,1,0,0:0:0:0:
320,192,24905,1,2,0:0:0:0:
448,192,24905,1,8,0:0:0:0:
448,192,25202,128,2,25499:0:0:0:0:
320,192,25202,1,0,0:0:0:0:
64,192,25499,128,2,25796:0:0:0:0:
192,192,25499,1,8,0:0:0:0:
320,192,25796,128,2,26093:0:0:0:0:
448,192,25796,1,0,0:0:0:0:
192,192,26093,1,2,0:0:0:0:
64,192,26093,1,8,0:0:0:0:
192,192,26390,128,2,26687:0:0:0:0:
320,192,26390,1,0,0:0:0:0:
448,192,26687,1,2,0:0:0:0:
64,192,26687,1,8,0:0:0:0:
320,192,26984,128,2,27281:0:0:0:0:
192,192,26984,1,0,0:0:0:0:
448,192,27281,1,2,0:0:0:0:
64,192,27281,1,8,0:0:0:0:
64,192,27578,1,2,0:0:0:0:
192,192,27578,128,4,27875:0:0:0:0:
320,192,27875,128,8,28172:0:0:0:0:
448,192,28172,128,0,28469:0:0:0:0:
64,192,28469,128,8,28766:0:0:0:0:
192,192,28766,1,2,0:0:0:0:
320,192,28766,128,4,29063:0:0:0:0:
448,192,29063,1,2,0:0:0:0:
192,192,29063,1,8,0:0:0:0:
192,192,29360,128,2,29657:0:0:0:0:
320,192,29360,1,0,0:0:0:0:
64,192,29657,1,2,0:0:0:0:
320,192,29657,1,8,0:0:0:0:
320,192,29954,128,2,30252:0:0:0:0:
192,192,29954,1,0,0:0:0:0:
192,192,30252,128,2,30549:0:0:0:0:
448,192,30252,1,8,0:0:0:0:
320,192,30549,128,2,30846:0:0:0:0:
64,192,30549,1,0,0:0:0:0:
192,192,30846,1,2,0:0:0:0:
448,192,30846,1,8,0:0:0:0:
64,192,31143,128,2,31440:0:0:0:0:
320,192,31143,1,0,0:0:0:0:
448,192,31440,1,2,0:0:0:0:
192,192,31440,1,8,0:0:0:0:
448,192,31737,128,2,32034:0:0:0:0:
192,192,31737,1,0,0:0:0:0:
320,192,32034,1,2,0:0:0:0:
64,192,32034,1,8,0:0:0:0:
64,192,32331,128,2,32628:0:0:0:0:
320,192,32331,1,0,0:0:0:0:
448,192,32628,128,2,32925:0:0:0:0:
192,192,32628,1,8,0:0:0:0:
192,192,32925,128,2,33222:0:0:0:0:
64,192,32925,1,0,0:0:0:0:
320,192,33222,1,2,0:0:0:0:
448,192,33222,1,8,0:0:0:0:
192,192,33420,1,2,0:0:0:0:
64,192,33519,128,4,33816:0:0:0:0:
320,192,33519,1,2,0:0:0:0:
448,192,33816,1,0,0:0:0:0:
192,192,33816,1,0,0:0:0:0:
192,192,34113,128,0,34410:0:0:0:0:
320,192,34113,1,0,0:0:0:0:
448,192,34410,1,0,0:0:0:0:
64,192,34410,1,0,0:0:0:0:
64,192,34707,128,0,35004:0:0:0:0:
320,192,34707,1,0,0:0:0:0:
192,192,35004,128,0,35301:0:0:0:0:
448,192,35004,1,0,0:0:0:0:
448,192,35301,128,0,35598:0:0:0:0:
320,192,35301,1,0,0:0:0:0:
64,192,35598,1,2,0:0:0:0:
192,192,35598,1,0,0:0:0:0:
448,192,35895,1,2,0:0:0:0:
320,192,35895,128,4,36489:0:0:0:0:
192,192,36192,1,8,0:0:0:0:
64,192,36489,128,2,37083:0:0:0:0:
192,192,36786,1,8,0:0:0:0:
448,192,37083,128,2,37380:0:0:0:0:
320,192,37083,1,0,0:0:0:0:
192,192,37380,128,8,37677:0:0:0:0:
64,192,37380,1,2,0:0:0:0:
320,192,37677,128,2,37974:0:0:0:0:
448,192,37677,1,0,0:0:0:0:
64,192,37974,128,8,38271:0:0:0:0:
192,192,37974,1,2,0:0:0:0:
448,192,38271,1,6,0:0:0:0:
64,192,38717,1,2,0:0:0:0:
320,192,39162,128,0,39459:0:0:0:0:
192,192,39459,1,2,0:0:0:0:
320,192,39905,1,2,0:0:0:0:
192,192,40351,1,2,0:0:0:0:
64,192,40648,1,4,0:0:0:0:
448,192,40648,1,2,0:0:0:0:
320,192,40945,1,2,0:0:0:0:
64,192,40945,1,8,0:0:0:0:
448,192,41242,1,2,0:0:0:0:
192,192,41242,1,0,0:0:0:0:
448,192,41539,1,2,0:0:0:0:
64,192,41539,1,8,0:0:0:0:
192,192,41737,1,2,0:0:0:0:
64,192,41836,1,2,0:0:0:0:
320,192,41836,1,0,0:0:0:0:
192,192,42133,1,2,0:0:0:0:
320,192,42133,1,8,0:0:0:0:
64,192,42430,1,2,0:0:0:0:
192,192,42430,1,0,0:0:0:0:
320,192,42727,1,2,0:0:0:0:
64,192,42727,1,8,0:0:0:0:
192,192,42925,1,2,0:0:0:0:
448,192,43024,1,2,0:0:0:0:
320,192,43024,1,0,0:0:0:0:
320,192,43321,1,2,0:0:0:0:
64,192,43321,1,8,0:0:0:0:
448,192,43618,1,2,0:0:0:0:
64,192,43618,1,0,0:0:0:0:
192,192,43915,1,2,0:0:0:0:
64,192,43915,1,8,0:0:0:0:
448,192,44113,1,2,0:0:0:0:
192,192,44212,1,6,0:0:0:70:LR_Long Bass.wav
64,192,44212,1,4,0:0:0:0:
320,192,44707,1,0,0:0:0:0:
448,192,44707,1,0,0:0:0:0:
192,192,45103,1,0,0:0:0:0:
64,192,45103,1,0,0:0:0:0:
64,192,45400,1,4,0:0:0:0:
448,192,45400,1,2,0:0:0:0:
448,192,45697,1,2,0:0:0:0:
192,192,45697,1,8,0:0:0:0:
64,192,45994,1,2,0:0:0:0:
320,192,45994,1,0,0:0:0:0:
192,192,46192,1,0,0:0:0:0:
192,192,46489,1,2,0:0:0:0:
64,192,46588,1,2,0:0:0:0:
448,192,46588,1,4,0:0:0:0:
192,192,46885,1,2,0:0:0:0:
64,192,46885,1,8,0:0:0:0:
192,192,47182,1,2,0:0:0:0:
448,192,47182,1,0,0:0:0:0:
448,192,47479,1,2,0:0:0:0:
64,192,47479,1,8,0:0:0:0:
192,192,47677,1,2,0:0:0:0:
448,192,47776,1,2,0:0:0:0:
320,192,47776,1,0,0:0:0:0:
192,192,48073,1,2,0:0:0:0:
64,192,48073,1,8,0:0:0:0:
320,192,48370,1,2,0:0:0:0:
448,192,48370,1,0,0:0:0:0:
192,192,48667,1,2,0:0:0:0:
64,192,48667,1,8,0:0:0:0:
320,192,48865,1,2,0:0:0:0:
448,192,48964,1,2,0:0:0:0:
192,192,48964,1,4,0:0:0:0:
320,192,49261,1,0,0:0:0:70:VEC3 Snares 012.wav
64,192,49459,1,0,0:0:0:0:
320,192,49707,1,0,0:0:0:0:
192,192,49855,1,0,0:0:0:70:VEC3 Snares 012.wav
448,192,49855,1,0,0:0:0:0:
448,192,50152,1,4,0:0:0:0:
64,192,50152,1,2,0:0:0:0:
64,192,50450,1,2,0:0:0:0:
192,192,50450,1,8,0:0:0:0:
448,192,50747,1,2,0:0:0:0:
320,192,50747,1,0,0:0:0:0:
448,192,51044,1,2,0:0:0:0:
64,192,51044,1,8,0:0:0:0:
320,192,51242,1,2,0:0:0:0:
192,192,51341,1,2,0:0:0:0:
448,192,51341,1,0,0:0:0:0:
192,192,51638,1,8,0:0:0:0:
64,192,51638,1,2,0:0:0:0:
448,192,51935,1,2,0:0:0:0:
192,192,51935,1,0,0:0:0:0:
192,192,52232,1,8,0:0:0:0:
320,192,52232,1,2,0:0:0:0:
448,192,52430,1,2,0:0:0:0:
64,192,52529,1,2,0:0:0:0:
320,192,52529,1,0,0:0:0:0:
320,192,52826,1,2,0:0:0:0:
192,192,52826,1,8,0:0:0:0:
448,192,53123,1,2,0:0:0:0:
64,192,53123,1,0,0:0:0:0:
448,192,53420,1,2,0:0:0:0:
192,192,53420,1,8,0:0:0:0:
64,192,53618,1,2,0:0:0:0:
320,192,53717,1,2,0:0:0:0:
448,192,53717,1,4,0:0:0:0:
64,192,54014,1,0,0:0:0:70:VEC3 Snares 012.wav
320,192,54212,1,0,0:0:0:0:
448,192,54509,1,2,0:0:0:0:
192,192,54608,1,0,0:0:0:70:VEC3 Snares 012.wav
64,192,54905,1,6,0:0:0:0:
448,192,54905,1,0,0:0:0:0:
192,192,55202,1,0,0:0:0:0:
320,192,55648,1,0,0:0:0:0:
448,192,56093,128,0,56588:0:0:0:0:
192,192,56588,128,0,56984:0:0:0:0:
64,192,56984,1,2,0:0:0:0:
448,192,56984,1,8,0:0:0:0:
320,192,57182,1,2,0:0:0:0:
64,192,57281,128,6,57578:0:0:0:0:
448,192,57281,1,0,0:0:0:0:
192,192,57578,128,0,58073:0:0:0:0:
448,192,58073,128,0,58469:0:0:0:0:
192,192,58469,128,0,58964:0:0:0:0:
320,192,58964,128,0,59360:0:0:0:0:
192,192,59360,1,4,0:0:0:0:
64,192,59360,1,10,0:0:0:0:
64,192,59657,1,4,0:0:0:70:LR_Long Bass.wav
320,192,59657,1,0,0:0:0:0:
192,192,59954,1,0,0:0:0:0:
320,192,60252,1,0,0:0:0:0:
448,192,60549,1,0,0:0:0:0:
64,192,60846,1,0,0:0:0:0:
192,192,61143,1,0,0:0:0:0:
448,192,61440,1,0,0:0:0:0:
320,192,61737,1,0,0:0:0:0:
64,192,62034,128,0,62331:0:0:0:0:
320,192,62331,1,0,0:0:0:0:
448,192,62628,128,0,62925:0:0:0:0:
192,192,62925,1,0,0:0:0:0:
320,192,63222,128,0,63519:0:0:0:0:
192,192,63519,128,0,63816:0:0:0:0:
64,192,63816,128,0,64113:0:0:0:0:
448,192,64113,1,0,0:0:0:0:
320,192,64410,1,0,0:0:0:0:
64,192,64707,1,0,0:0:0:0:
192,192,65004,1,0,0:0:0:0:
448,192,65301,1,0,0:0:0:0:
64,192,65598,1,0,0:0:0:0:
192,192,65895,1,0,0:0:0:0:
448,192,66192,1,0,0:0:0:0:
320,192,66489,1,0,0:0:0:0:
192,192,66786,128,0,67083:0:0:0:0:
320,192,67083,1,0,0:0:0:0:
320,192,67380,128,0,67677:0:0:0:0:
192,192,67677,1,0,0:0:0:0:
64,192,67974,1,0,0:0:0:0:
192,192,68271,1,0,0:0:0:0:
448,192,68568,1,0,0:0:0:0:
320,192,68865,1,0,0:0:0:0:
64,192,69162,1,0,0:0:0:0:
192,192,69459,1,0,0:0:0:0:
448,192,69756,1,0,0:0:0:0:
320,192,70053,1,0,0:0:0:0:
192,192,70351,1,0,0:0:0:70:LR_Long Bass.wav
64,192,70648,1,0,0:0:0:0:
192,192,70846,1,0,0:0:0:0:
320,192,71242,1,0,0:0:0:0:
448,192,71539,1,4,0:0:0:0:
64,192,71539,1,0,0:0:0:0:
192,192,71836,1,0,0:0:0:0:
64,192,72133,1,0,0:0:0:0:
320,192,72430,1,0,0:0:0:0:
448,192,72727,128,6,74806:0:0:0:70:LR_Long Bass.wav
192,192,72727,1,0,0:0:0:0:
64,192,73024,1,0,0:0:0:0:
320,192,73321,1,0,0:0:0:0:
64,192,73618,1,0,0:0:0:0:
320,192,73915,1,0,0:0:0:0:
64,192,75103,128,0,77182:0:0:0:0:
448,192,75400,1,0,0:0:0:0:
192,192,75697,1,0,0:0:0:0:
320,192,75994,1,0,0:0:0:0:
448,192,76291,1,0,0:0:0:0:
192,192,76588,1,0,0:0:0:0:
448,192,76885,1,0,0:0:0:0:
192,192,77182,1,0,0:0:0:0:
448,192,77479,128,0,79558:0:0:0:0:
64,192,77776,1,0,0:0:0:0:
320,192,78073,1,0,0:0:0:0:
64,192,78370,1,0,0:0:0:0:
320,192,78667,1,0,0:0:0:0:
64,192,79855,128,0,82232:0:0:0:0:
448,192,80152,1,0,0:0:0:0:
192,192,80450,1,0,0:0:0:0:
448,192,80747,1,0,0:0:0:0:
192,192,81044,1,0,0:0:0:0:
320,192,81341,1,0,0:0:0:0:
448,192,81638,1,0,0:0:0:0:
320,192,81935,1,0,0:0:0:0:
192,192,82232,1,0,0:0:0:0:
320,192,84608,1,0,0:0:0:0:
64,192,85796,128,0,86984:0:0:0:0:
448,192,86984,1,0,0:0:0:0:
320,192,87281,1,0,0:0:0:0:
192,192,87578,1,0,0:0:0:0:
64,192,87875,1,0,0:0:0:0:
448,192,88172,1,0,0:0:0:0:
320,192,88469,1,0,0:0:0:0:
192,192,88766,1,0,0:0:0:0:
64,192,89063,1,2,0:0:0:50:cymbal.wav
320,192,89063,1,2,0:0:0:0:
448,192,89360,1,6,0:0:0:70:LR_Long Bass.wav
192,192,89360,1,6,0:0:0:0:
320,192,89657,1,0,0:0:0:0:
192,192,89954,1,0,0:0:0:0:
192,192,90252,1,2,0:0:0:0:
448,192,90252,1,4,0:0:0:0:
64,192,90351,1,6,0:0:0:0:
320,192,90450,1,6,0:0:0:0:
448,192,90549,128,2,90846:0:0:0:0:
192,192,90549,1,4,0:0:0:0:
64,192,90846,1,2,0:0:0:0:
320,192,90846,1,8,0:0:0:0:
64,192,91143,128,2,91440:0:0:0:0:
320,192,91143,1,0,0:0:0:0:
192,192,91440,1,2,0:0:0:0:
448,192,91440,1,8,0:0:0:0:
448,192,91737,128,2,92034:0:0:0:0:
192,192,91737,1,0,0:0:0:0:
320,192,92034,1,2,0:0:0:0:
64,192,92034,128,8,92331:0:0:0:0:
448,192,92331,1,2,0:0:0:0:
320,192,92331,128,0,92628:0:0:0:0:
64,192,92628,1,2,0:0:0:0:
448,192,92628,1,8,0:0:0:0:
192,192,92925,1,2,0:0:0:0:
448,192,93123,1,2,0:0:0:0:
64,192,93222,1,10,0:0:0:0:
192,192,93222,1,4,0:0:0:0:
320,192,93519,1,2,0:0:0:0:
448,192,93618,1,2,0:0:0:0:
192,192,93717,1,2,0:0:0:0:
64,192,93816,1,10,0:0:0:0:
448,192,93816,1,4,0:0:0:0:
320,192,94113,1,6,0:0:0:0:
448,192,94410,1,10,0:0:0:0:
64,192,94707,1,6,0:0:0:0:
192,192,94806,1,6,0:0:0:0:
320,192,94905,1,6,0:0:0:0:
64,192,95004,1,10,0:0:0:0:
448,192,95004,1,4,0:0:0:0:
64,192,95301,128,2,95598:0:0:0:0:
192,192,95301,1,4,0:0:0:0:
320,192,95598,128,2,95895:0:0:0:0:
448,192,95598,1,8,0:0:0:0:
192,192,95895,128,2,96192:0:0:0:0:
64,192,95895,1,0,0:0:0:0:
448,192,96192,128,2,96489:0:0:0:0:
320,192,96192,1,8,0:0:0:0:
64,192,96489,128,2,96786:0:0:0:0:
192,192,96489,1,0,0:0:0:0:
448,192,96786,128,2,97083:0:0:0:0:
320,192,96786,1,8,0:0:0:0:
64,192,97083,128,2,97380:0:0:0:0:
192,192,97083,1,0,0:0:0:0:
320,192,97380,1,2,0:0:0:0:
448,192,97380,128,8,97677:0:0:0:0:
64,192,97677,1,2,0:0:0:0:
192,192,97875,1,2,0:0:0:0:
448,192,97974,1,10,0:0:0:0:
320,192,98271,1,2,0:0:0:0:
64,192,98370,1,2,0:0:0:0:
448,192,98469,1,2,0:0:0:0:
320,192,98568,1,10,0:0:0:0:
192,192,98568,1,4,0:0:0:0:
448,192,98865,1,6,0:0:0:0:
64,192,99162,1,8,0:0:0:0:
192,192,99459,1,2,0:0:0:0:
320,192,99459,1,4,0:0:0:0:
64,192,99756,1,10,0:0:0:0:
448,192,99756,1,4,0:0:0:0:
320,192,100053,128,6,100945:0:0:0:70:LR_Long Bass.wav
192,192,100053,1,6,0:0:0:0:
64,192,100945,1,2,0:0:0:0:
448,192,100945,1,4,0:0:0:0:
192,192,101044,1,6,0:0:0:0:
320,192,101143,1,6,0:0:0:0:
192,192,101242,128,2,101539:0:0:0:0:
448,192,101242,1,4,0:0:0:0:
448,192,101539,1,2,0:0:0:0:
64,192,101539,1,8,0:0:0:0:
64,192,101836,1,2,0:0:0:0:
320,192,101836,128,0,102133:0:0:0:0:
64,192,102133,1,2,0:0:0:0:
448,192,102133,1,8,0:0:0:0:
448,192,102430,128,2,102727:0:0:0:0:
320,192,102430,1,0,0:0:0:0:
192,192,102727,1,2,0:0:0:0:
64,192,102727,1,8,0:0:0:0:
64,192,103024,128,2,103321:0:0:0:0:
192,192,103024,1,0,0:0:0:0:
320,192,103321,1,2,0:0:0:0:
448,192,103321,1,8,0:0:0:0:
320,192,103618,128,2,103915:0:0:0:0:
64,192,103618,1,0,0:0:0:0:
192,192,103915,1,2,0:0:0:0:
448,192,103915,1,8,0:0:0:0:
192,192,104212,128,2,104509:0:0:0:0:
448,192,104212,1,0,0:0:0:0:
64,192,104509,1,2,0:0:0:0:
320,192,104509,1,8,0:0:0:0:
448,192,104806,1,2,0:0:0:0:
64,192,105103,1,10,0:0:0:0:
320,192,105400,1,2,0:0:0:0:
192,192,105499,1,2,0:0:0:0:
320,192,105598,1,2,0:0:0:0:
192,192,105697,1,10,0:0:0:0:
64,192,105994,1,2,0:0:0:0:
448,192,105994,128,4,106291:0:0:0:0:
320,192,106291,1,8,0:0:0:0:
192,192,106291,1,0,0:0:0:0:
64,192,106588,128,2,106885:0:0:0:0:
448,192,106588,1,0,0:0:0:0:
320,192,106885,1,8,0:0:0:0:
192,192,106885,1,0,0:0:0:0:
320,192,107182,128,2,107479:0:0:0:0:
192,192,107182,1,4,0:0:0:0:
64,192,107479,1,2,0:0:0:0:
448,192,107479,1,8,0:0:0:0:
192,192,107776,128,2,108073:0:0:0:0:
320,192,107776,1,4,0:0:0:0:
64,192,108073,1,2,0:0:0:0:
448,192,108073,1,8,0:0:0:0:
64,192,108370,1,6,0:0:0:0:
192,192,108469,1,2,0:0:0:0:
320,192,108568,1,2,0:0:0:0:
448,192,108667,1,10,0:0:0:0:
64,192,108667,1,4,0:0:0:0:
192,192,108964,1,2,0:0:0:0:
64,192,109063,1,2,0:0:0:0:
448,192,109162,1,2,0:0:0:0:
192,192,109261,1,10,0:0:0:0:
320,192,109261,1,4,0:0:0:0:
64,192,109558,128,2,109855:0:0:0:0:
448,192,109558,1,4,0:0:0:0:
320,192,109855,128,2,110152:0:0:0:0:
192,192,109855,1,8,0:0:0:0:
448,192,110152,128,2,110450:0:0:0:0:
192,192,110152,1,0,0:0:0:0:
192,192,110450,128,2,110747:0:0:0:0:
64,192,110450,1,4,0:0:0:0:
320,192,110747,128,2,111044:0:0:0:0:
448,192,110747,1,4,0:0:0:0:
64,192,111044,128,2,111341:0:0:0:0:
192,192,111044,1,0,0:0:0:0:
192,192,111341,128,2,111638:0:0:0:0:
320,192,111341,1,4,0:0:0:0:
448,192,111638,128,2,111935:0:0:0:0:
64,192,111638,1,4,0:0:0:0:
320,192,111935,1,2,0:0:0:0:
64,192,111935,128,4,112826:0:0:0:0:
448,192,112826,1,2,0:0:0:0:
320,192,112925,1,2,0:0:0:0:
192,192,113024,1,2,0:0:0:0:
448,192,113123,128,4,113420:0:0:0:0:
64,192,113123,1,2,0:0:0:0:
320,192,113420,128,2,113717:0:0:0:0:
192,192,113420,1,4,0:0:0:0:
64,192,113717,128,2,114014:0:0:0:0:
448,192,113717,1,4,0:0:0:0:
192,192,114014,128,2,114311:0:0:0:0:
320,192,114014,1,4,0:0:0:0:
448,192,114311,1,6,0:0:0:70:LR_Long Bass.wav
64,192,114311,1,4,0:0:0:0:
320,192,116687,1,0,0:0:0:70:LR_Long Bass.wav
448,192,116885,1,0,0:0:0:0:
448,192,117083,1,0,0:0:0:0:
448,192,117281,1,0,0:0:0:0:
192,192,117677,1,0,0:0:0:0:
320,192,117875,1,0,0:0:0:0:
448,192,118073,1,0,0:0:0:0:
448,192,118271,1,0,0:0:0:0:
448,192,118469,1,0,0:0:0:0:
192,192,118865,1,0,0:0:0:0:
64,192,119063,1,0,0:0:0:0:
320,192,119063,1,0,0:0:0:0:
448,192,119261,1,0,0:0:0:0:
192,192,119459,1,0,0:0:0:0:
64,192,119657,1,0,0:0:0:0:
320,192,119855,1,0,0:0:0:0:
448,192,120053,1,0,0:0:0:0:
192,192,120252,1,0,0:0:0:0:
64,192,120252,1,0,0:0:0:0:
448,192,120450,1,0,0:0:0:0:
320,192,120648,1,0,0:0:0:0:
192,192,120747,1,0,0:0:0:0:
64,192,120846,1,0,0:0:0:0:
320,192,121044,1,0,0:0:0:0:
64,192,121143,1,0,0:0:0:0:
192,192,121242,1,0,0:0:0:0:
320,192,121341,1,0,0:0:0:0:
448,192,121440,1,0,0:0:0:0:
320,192,121638,1,0,0:0:0:0:
192,192,121836,1,0,0:0:0:0:
64,192,122034,1,0,0:0:0:0:
320,192,122628,128,0,125004:0:0:0:0:
