osu file format v14

[General]
AudioFilename: audio.mp3
AudioLeadIn: 0
PreviewTime: 86984
Countdown: 0
SampleSet: Soft
StackLeniency: 0.7
Mode: 3
LetterboxInBreaks: 0
SpecialStyle: 0
WidescreenStoryboard: 1

[Editor]
Bookmarks: 41664,51168,60673,72555
DistanceSpacing: 0.8
BeatDivisor: 12
GridSize: 32
TimelineZoom: 2.2

[Metadata]
Title:Tsui no Maihime
TitleUnicode:終の舞姫
Artist:Se-U-Ra
ArtistUnicode:Se-U-Ra
Creator:DarkistDeci
Version:Giga
Source:Dynamix
Tags:featured artist dubstek せゆーら Tree Called Elif ethnic hardcore seura seyura instrumental famoss video game ost rhythm game electronic edm artcore Ragnarok VII fa featured artist
BeatmapID:2591988
BeatmapSetID:1154776

[Difficulty]
HPDrainRate:8.5
CircleSize:4
OverallDifficulty:8.2
ApproachRate:5
SliderMultiplier:1.4
SliderTickRate:1

[Events]
//Background and Video events
0,0,"80195226_p0_master1200.jpg",0,0
//Break Periods
//Storyboard Layer 0 (Background)
//Storyboard Layer 1 (Fail)
//Storyboard Layer 2 (Pass)
//Storyboard Layer 3 (Foreground)
//Storyboard Layer 4 (Overlay)
//Storyboard Sound Samples

[TimingPoints]
252,297.029702970297,4,2,1,50,1,0
9756,-100,4,2,1,60,0,0
10945,-100,4,2,1,70,0,0
59806,-100,4,2,1,50,0,0
72727,-100,4,2,1,60,0,0
90549,-100,4,2,1,70,0,1
114311,-100,4,2,1,70,0,0
114459,-100,4,2,1,50,0,0

[HitObjects]
64,192,252,5,0,0:0:0:0:
448,192,252,1,0,0:0:0:0:
192,192,450,1,0,0:0:0:0:
320,192,648,1,0,0:0:0:0:
64,192,846,1,0,0:0:0:0:
192,192,846,1,0,0:0:0:0:
320,192,1044,1,0,0:0:0:0:
448,192,1242,1,0,0:0:0:0:
64,192,1440,1,0,0:0:0:0:
192,192,1638,1,0,0:0:0:0:
320,192,1836,1,0,0:0:0:0:
448,192,2034,1,0,0:0:0:0:
64,192,2034,1,0,0:0:0:0:
192,192,2232,1,0,0:0:0:0:
448,192,2331,1,0,0:0:0:0:
192,192,2430,1,0,0:0:0:0:
448,192,2628,1,0,0:0:0:0:
320,192,2628,1,0,0:0:0:0:
64,192,2826,1,0,0:0:0:0:
448,192,3024,1,0,0:0:0:0:
64,192,3222,1,0,0:0:0:0:
192,192,3222,1,0,0:0:0:0:
320,192,3420,1,0,0:0:0:0:
448,192,3618,1,0,0:0:0:0:
192,192,3816,1,0,0:0:0:0:
64,192,4014,1,0,0:0:0:0:
448,192,4212,1,0,0:0:0:0:
320,192,4311,1,0,0:0:0:0:
192,192,4410,1,0,0:0:0:0:
64,192,4410,1,0,0:0:0:0:
448,192,4608,1,0,0:0:0:0:
320,192,4707,1,0,0:0:0:0:
192,192,4806,1,0,0:0:0:0:
64,192,4905,1,0,0:0:0:0:
320,192,5004,1,0,0:0:0:0:
448,192,5004,128,0,5400:0:0:0:0:
192,192,5202,1,0,0:0:0:0:
64,192,5202,1,0,0:0:0:0:
64,192,5400,1,0,0:0:0:0:
320,192,5400,1,0,0:0:0:0:
64,192,5598,1,0,0:0:0:0:
448,192,5598,1,0,0:0:0:0:
192,192,5994,1,0,0:0:0:0:
320,192,5994,1,0,0:0:0:0:
320,192,6192,1,0,0:0:0:0:
448,192,6192,128,0,6390:0:0:0:0:
64,192,6390,1,0,0:0:0:0:
192,192,6390,1,0,0:0:0:0:
64,192,6588,1,0,0:0:0:0:
320,192,6588,1,0,0:0:0:0:
64,192,6786,1,0,0:0:0:0:
448,192,6786,1,0,0:0:0:0:
320,192,7182,1,0,0:0:0:0:
192,192,7182,1,0,0:0:0:0:
448,192,7380,128,0,8568:0:0:0:0:
64,192,7380,1,0,0:0:0:0:
320,192,7578,1,0,0:0:0:0:
192,192,7776,1,0,0:0:0:0:
320,192,7974,1,0,0:0:0:0:
192,192,8172,1,0,0:0:0:0:
320,192,8271,1,0,0:0:0:0:
64,192,8370,1,0,0:0:0:0:
64,192,8568,128,0,9756:0:0:0:0:
192,192,8568,1,0,0:0:0:0:
320,192,8766,1,0,0:0:0:0:
448,192,8865,1,0,0:0:0:0:
192,192,8964,1,0,0:0:0:0:
448,192,9162,1,0,0:0:0:0:
320,192,9360,1,0,0:0:0:0:
192,192,9558,1,0,0:0:0:0:
448,192,9756,128,2,10549:0:0:0:0:
320,192,9756,128,0,10351:0:0:0:0:
192,192,9756,1,0,0:0:0:0:
192,192,10053,1,0,0:0:0:0:
64,192,10351,1,0,0:0:0:0:
320,192,10549,1,0,0:0:0:0:
192,192,10648,1,0,0:0:0:0:
64,192,10747,1,0,0:0:0:0:
192,192,10945,1,2,0:0:0:0:
64,192,10945,1,4,0:0:0:0:
448,192,10945,1,0,0:0:0:0:
320,192,11044,1,0,0:0:0:0:
448,192,11143,1,2,0:0:0:0:
64,192,11143,1,0,0:0:0:0:
448,192,11242,1,2,0:0:0:0:
64,192,11242,1,0,0:0:0:0:
192,192,11242,1,0,0:0:0:0:
320,192,11341,1,0,0:0:0:0:
192,192,11440,1,2,0:0:0:0:
448,192,11440,1,0,0:0:0:0:
64,192,11440,1,0,0:0:0:0:
448,192,11638,1,0,0:0:0:0:
320,192,11737,1,0,0:0:0:0:
448,192,11836,1,2,0:0:0:0:
192,192,11836,1,0,0:0:0:0:
64,192,11836,1,0,0:0:0:0:
320,192,11935,1,0,0:0:0:0:
448,192,12133,1,4,0:0:0:0:
320,192,12133,1,2,0:0:0:0:
64,192,12133,1,0,0:0:0:0:
192,192,12232,1,0,0:0:0:0:
64,192,12331,1,2,0:0:0:50:cymbal.wav
448,192,12331,1,2,0:0:0:0:
448,192,12430,1,2,0:0:0:50:cymbal.wav
64,192,12430,1,2,0:0:0:0:
320,192,12430,1,0,0:0:0:0:
192,192,12529,1,0,0:0:0:0:
320,192,12628,1,2,0:0:0:50:cymbal.wav
64,192,12628,1,2,0:0:0:0:
448,192,12628,1,0,0:0:0:0:
64,192,12826,1,0,0:0:0:0:
192,192,12925,1,0,0:0:0:0:
64,192,13024,1,2,0:0:0:0:
448,192,13024,1,0,0:0:0:0:
192,192,13123,1,0,0:0:0:0:
320,192,13222,1,0,0:0:0:0:
192,192,13321,1,2,0:0:0:0:
448,192,13321,1,4,0:0:0:0:
64,192,13321,1,0,0:0:0:0:
320,192,13420,1,0,0:0:0:0:
192,192,13519,1,0,0:0:0:0:
448,192,13618,1,0,0:0:0:0:
320,192,13717,1,0,0:0:0:0:
64,192,13816,1,0,0:0:0:0:
448,192,13915,1,0,0:0:0:0:
320,192,14014,1,0,0:0:0:0:
192,192,14113,1,0,0:0:0:0:
320,192,14212,1,0,0:0:0:0:
192,192,14311,1,0,0:0:0:0:
64,192,14410,1,0,0:0:0:0:
192,192,14509,1,2,0:0:0:0:
448,192,14509,128,4,14657:0:0:0:0:
320,192,14707,1,0,0:0:0:0:
320,192,14954,1,0,0:0:0:0:
64,192,14954,128,0,15103:0:0:0:0:
192,192,15004,1,0,0:0:0:0:
448,192,15301,1,0,0:0:0:0:
192,192,15301,128,0,15450:0:0:0:0:
320,192,15697,1,2,0:0:0:0:
448,192,15697,1,4,0:0:0:0:
64,192,15697,1,0,0:0:0:0:
320,192,15796,1,0,0:0:0:0:
64,192,15895,1,2,0:0:0:0:
448,192,15895,1,0,0:0:0:0:
320,192,16093,1,2,0:0:0:0:
64,192,16093,1,0,0:0:0:0:
192,192,16291,1,2,0:0:0:0:
448,192,16291,1,4,0:0:0:0:
64,192,16291,1,0,0:0:0:0:
192,192,16390,1,0,0:0:0:0:
64,192,16489,1,2,0:0:0:0:
448,192,16489,1,0,0:0:0:0:
192,192,16687,1,2,0:0:0:0:
448,192,16687,1,0,0:0:0:0:
64,192,16885,128,0,17479:0:0:0:70:LR_Long Bass.wav
448,192,16885,1,6,0:0:0:0:
64,192,18073,128,0,18964:0:0:0:0:
192,192,18073,1,0,0:0:0:0:
320,192,18172,1,0,0:0:0:0:
448,192,18271,1,0,0:0:0:0:
192,192,18370,1,0,0:0:0:0:
320,192,18469,1,0,0:0:0:0:
448,192,18568,1,0,0:0:0:0:
192,192,18667,1,0,0:0:0:0:
448,192,18766,1,0,0:0:0:0:
320,192,18865,1,0,0:0:0:0:
448,192,18964,1,2,0:0:0:50:cymbal.wav
192,192,18964,1,0,0:0:0:0:
320,192,19063,1,0,0:0:0:0:
448,192,19261,1,2,0:0:0:0:
192,192,19261,1,4,0:0:0:0:
64,192,19261,1,0,0:0:0:0:
448,192,19360,1,0,0:0:0:0:
64,192,19459,1,0,0:0:0:0:
448,192,19558,1,2,0:0:0:0:
192,192,19558,1,0,0:0:0:0:
320,192,19558,128,0,19756:0:0:0:0:
192,192,19756,1,0,0:0:0:0:
64,192,19855,1,2,0:0:0:0:
448,192,19855,1,0,0:0:0:0:
320,192,19855,1,0,0:0:0:0:
64,192,19954,1,0,0:0:0:0:
448,192,20053,1,0,0:0:0:0:
192,192,20152,1,2,0:0:0:0:
320,192,20152,1,0,0:0:0:0:
64,192,20152,1,0,0:0:0:0:
320,192,20351,1,0,0:0:0:0:
192,192,20450,1,2,0:0:0:0:
64,192,20450,1,0,0:0:0:0:
448,192,20450,1,0,0:0:0:0:
448,192,20549,1,0,0:0:0:0:
192,192,20648,1,0,0:0:0:0:
320,192,20747,1,2,0:0:0:0:
448,192,20747,1,0,0:0:0:0:
64,192,20747,128,0,20945:0:0:0:0:
320,192,20945,1,0,0:0:0:0:
448,192,21044,1,2,0:0:0:0:
192,192,21044,1,0,0:0:0:0:
64,192,21044,1,0,0:0:0:0:
192,192,21143,1,0,0:0:0:0:
320,192,21242,1,0,0:0:0:0:
192,192,21341,1,2,0:0:0:0:
448,192,21341,1,0,0:0:0:0:
64,192,21341,1,0,0:0:0:0:
64,192,21539,1,0,0:0:0:0:
192,192,21638,1,2,0:0:0:0:
320,192,21638,1,0,0:0:0:0:
448,192,21638,1,0,0:0:0:0:
192,192,21737,1,0,0:0:0:0:
448,192,21836,1,0,0:0:0:0:
320,192,21935,1,2,0:0:0:0:
64,192,21935,1,0,0:0:0:0:
192,192,21935,128,0,22133:0:0:0:0:
448,192,22133,1,0,0:0:0:0:
320,192,22232,1,2,0:0:0:0:
192,192,22232,1,0,0:0:0:0:
64,192,22232,1,0,0:0:0:0:
320,192,22331,1,0,0:0:0:0:
64,192,22430,1,0,0:0:0:0:
192,192,22529,1,2,0:0:0:0:
320,192,22529,1,0,0:0:0:0:
448,192,22529,1,0,0:0:0:0:
320,192,22727,1,0,0:0:0:0:
448,192,22826,128,2,22925:0:0:0:0:
192,192,22826,1,0,0:0:0:0:
64,192,22826,1,0,0:0:0:0:
320,192,22925,128,0,23024:0:0:0:0:
448,192,23024,128,0,23123:0:0:0:0:
320,192,23123,128,2,23222:0:0:0:0:
64,192,23123,1,0,0:0:0:0:
192,192,23123,1,0,0:0:0:0:
64,192,23222,128,0,23321:0:0:0:0:
192,192,23321,128,0,23420:0:0:0:0:
64,192,23420,128,2,23519:0:0:0:0:
320,192,23420,1,0,0:0:0:0:
448,192,23420,1,0,0:0:0:0:
192,192,23519,128,0,23618:0:0:0:0:
320,192,23618,128,0,23717:0:0:0:0:
448,192,23717,128,2,23915:0:0:0:0:
64,192,23717,1,0,0:0:0:0:
192,192,23717,1,0,0:0:0:0:
320,192,23915,1,2,0:0:0:0:
448,192,24014,1,2,0:0:0:0:
192,192,24014,1,4,0:0:0:0:
64,192,24014,1,0,0:0:0:0:
320,192,24113,1,0,0:0:0:0:
192,192,24113,1,0,0:0:0:0:
64,192,24212,1,0,0:0:0:0:
192,192,24311,1,2,0:0:0:0:
320,192,24311,1,8,0:0:0:0:
448,192,24311,1,0,0:0:0:0:
192,192,24509,1,0,0:0:0:0:
64,192,24608,1,2,0:0:0:0:
320,192,24608,1,0,0:0:0:0:
448,192,24608,1,0,0:0:0:0:
320,192,24707,1,0,0:0:0:0:
192,192,24707,1,0,0:0:0:0:
448,192,24806,1,0,0:0:0:0:
64,192,24905,1,2,0:0:0:0:
192,192,24905,1,8,0:0:0:0:
320,192,24905,1,0,0:0:0:0:
320,192,25103,1,0,0:0:0:0:
64,192,25202,1,2,0:0:0:0:
192,192,25202,1,0,0:0:0:0:
448,192,25202,1,0,0:0:0:0:
320,192,25301,1,0,0:0:0:0:
192,192,25301,1,0,0:0:0:0:
64,192,25400,1,0,0:0:0:0:
192,192,25499,1,2,0:0:0:0:
320,192,25499,1,8,0:0:0:0:
448,192,25499,1,0,0:0:0:0:
64,192,25598,1,0,0:0:0:0:
192,192,25598,1,0,0:0:0:0:
320,192,25697,1,0,0:0:0:0:
448,192,25796,1,2,0:0:0:0:
64,192,25796,1,0,0:0:0:0:
192,192,25796,1,0,0:0:0:0:
320,192,25895,1,0,0:0:0:0:
448,192,25895,1,0,0:0:0:0:
64,192,25994,1,0,0:0:0:0:
192,192,26093,1,2,0:0:0:0:
320,192,26093,1,8,0:0:0:0:
448,192,26093,1,0,0:0:0:0:
64,192,26291,1,0,0:0:0:0:
448,192,26390,1,2,0:0:0:0:
320,192,26390,1,0,0:0:0:0:
192,192,26390,1,0,0:0:0:0:
64,192,26489,1,0,0:0:0:0:
448,192,26489,1,0,0:0:0:0:
320,192,26588,1,0,0:0:0:0:
448,192,26687,1,2,0:0:0:0:
64,192,26687,1,8,0:0:0:0:
192,192,26687,1,0,0:0:0:0:
448,192,26885,1,0,0:0:0:0:
192,192,26984,1,2,0:0:0:0:
64,192,26984,1,0,0:0:0:0:
320,192,26984,1,0,0:0:0:0:
448,192,27083,1,0,0:0:0:0:
64,192,27083,1,0,0:0:0:0:
192,192,27182,1,0,0:0:0:0:
448,192,27281,1,2,0:0:0:0:
320,192,27281,1,8,0:0:0:0:
64,192,27281,1,0,0:0:0:0:
320,192,27479,1,0,0:0:0:0:
64,192,27578,128,2,27628:0:0:0:0:
192,192,27578,1,4,0:0:0:0:
448,192,27578,1,0,0:0:0:0:
448,192,27677,128,0,27727:0:0:0:0:
64,192,27776,128,0,27826:0:0:0:0:
448,192,27875,128,8,27925:0:0:0:0:
64,192,27974,128,0,28024:0:0:0:0:
192,192,28024,128,0,28073:0:0:0:0:
320,192,28073,128,0,28123:0:0:0:0:
64,192,28172,128,0,28222:0:0:0:0:
320,192,28271,128,0,28321:0:0:0:0:
192,192,28321,128,0,28370:0:0:0:0:
64,192,28370,128,0,28420:0:0:0:0:
448,192,28469,128,8,28519:0:0:0:0:
192,192,28568,128,0,28618:0:0:0:0:
64,192,28667,128,0,28717:0:0:0:0:
448,192,28766,1,2,0:0:0:0:
320,192,28766,1,4,0:0:0:0:
192,192,28766,1,0,0:0:0:0:
64,192,28865,1,0,0:0:0:0:
320,192,28865,1,0,0:0:0:0:
192,192,28964,1,0,0:0:0:0:
448,192,29063,1,2,0:0:0:0:
320,192,29063,1,8,0:0:0:0:
64,192,29063,1,0,0:0:0:0:
448,192,29261,1,0,0:0:0:0:
64,192,29360,1,2,0:0:0:0:
320,192,29360,1,0,0:0:0:0:
192,192,29360,1,0,0:0:0:0:
192,192,29459,1,0,0:0:0:0:
448,192,29459,1,0,0:0:0:0:
320,192,29558,1,0,0:0:0:0:
64,192,29657,1,2,0:0:0:0:
448,192,29657,1,8,0:0:0:0:
192,192,29657,1,0,0:0:0:0:
64,192,29855,1,0,0:0:0:0:
192,192,29954,1,2,0:0:0:0:
320,192,29954,1,0,0:0:0:0:
448,192,29954,1,0,0:0:0:0:
64,192,30053,1,0,0:0:0:0:
320,192,30053,1,0,0:0:0:0:
192,192,30152,1,0,0:0:0:0:
320,192,30252,1,2,0:0:0:0:
448,192,30252,1,8,0:0:0:0:
64,192,30252,1,0,0:0:0:0:
64,192,30351,1,0,0:0:0:0:
192,192,30351,1,0,0:0:0:0:
448,192,30450,1,0,0:0:0:0:
320,192,30549,1,2,0:0:0:0:
192,192,30549,1,0,0:0:0:0:
64,192,30549,1,0,0:0:0:0:
192,192,30648,1,0,0:0:0:0:
448,192,30648,1,0,0:0:0:0:
320,192,30747,1,0,0:0:0:0:
192,192,30846,1,2,0:0:0:0:
64,192,30846,1,8,0:0:0:0:
448,192,30846,1,0,0:0:0:0:
320,192,31044,1,0,0:0:0:0:
448,192,31143,1,2,0:0:0:0:
192,192,31143,1,0,0:0:0:0:
64,192,31143,1,0,0:0:0:0:
448,192,31242,1,0,0:0:0:0:
320,192,31242,1,0,0:0:0:0:
64,192,31341,1,0,0:0:0:0:
448,192,31440,1,2,0:0:0:0:
192,192,31440,1,8,0:0:0:0:
320,192,31440,1,0,0:0:0:0:
192,192,31638,1,0,0:0:0:0:
64,192,31737,1,2,0:0:0:0:
448,192,31737,1,0,0:0:0:0:
320,192,31737,1,0,0:0:0:0:
64,192,31836,1,0,0:0:0:0:
192,192,31836,1,0,0:0:0:0:
448,192,31935,1,0,0:0:0:0:
64,192,32034,1,2,0:0:0:0:
320,192,32034,1,8,0:0:0:0:
192,192,32034,1,0,0:0:0:0:
320,192,32232,1,0,0:0:0:0:
64,192,32331,1,2,0:0:0:0:
192,192,32331,1,0,0:0:0:0:
448,192,32331,1,0,0:0:0:0:
320,192,32430,1,0,0:0:0:0:
448,192,32430,1,0,0:0:0:0:
64,192,32529,1,0,0:0:0:0:
192,192,32628,1,2,0:0:0:0:
320,192,32628,1,8,0:0:0:0:
448,192,32628,1,0,0:0:0:0:
64,192,32727,1,0,0:0:0:0:
320,192,32727,1,0,0:0:0:0:
192,192,32826,1,0,0:0:0:0:
320,192,32925,1,2,0:0:0:0:
448,192,32925,1,0,0:0:0:0:
64,192,32925,1,0,0:0:0:0:
64,192,33024,1,0,0:0:0:0:
192,192,33024,1,0,0:0:0:0:
448,192,33123,1,0,0:0:0:0:
320,192,33222,1,2,0:0:0:0:
192,192,33222,1,8,0:0:0:0:
64,192,33222,1,0,0:0:0:0:
448,192,33420,1,2,0:0:0:0:
64,192,33420,1,0,0:0:0:0:
320,192,33420,1,0,0:0:0:0:
192,192,33519,1,4,0:0:0:0:
320,192,33519,1,2,0:0:0:0:
64,192,33519,1,0,0:0:0:0:
448,192,33618,1,0,0:0:0:0:
320,192,33717,1,0,0:0:0:0:
192,192,33816,1,0,0:0:0:0:
64,192,34014,1,0,0:0:0:0:
192,192,34113,1,0,0:0:0:0:
448,192,34212,1,0,0:0:0:0:
320,192,34311,1,0,0:0:0:0:
192,192,34410,1,0,0:0:0:0:
64,192,34608,1,0,0:0:0:0:
192,192,34707,1,0,0:0:0:0:
448,192,34806,1,0,0:0:0:0:
320,192,34905,1,0,0:0:0:0:
192,192,35004,1,0,0:0:0:0:
320,192,35103,1,0,0:0:0:0:
192,192,35202,1,0,0:0:0:0:
448,192,35301,1,0,0:0:0:0:
320,192,35400,1,0,0:0:0:0:
448,192,35499,1,0,0:0:0:0:
64,192,35598,1,2,0:0:0:0:
192,192,35598,1,0,0:0:0:0:
320,192,35598,1,0,0:0:0:0:
192,192,35796,1,0,0:0:0:0:
448,192,35895,5,2,0:0:0:0:
320,192,35895,1,4,0:0:0:0:
64,192,35895,1,0,0:0:0:0:
64,192,35994,1,0,0:0:0:0:
192,192,35994,1,0,0:0:0:0:
320,192,36093,1,0,0:0:0:0:
448,192,36093,1,0,0:0:0:0:
192,192,36192,1,8,0:0:0:0:
64,192,36192,1,0,0:0:0:0:
448,192,36291,1,0,0:0:0:0:
320,192,36291,1,0,0:0:0:0:
192,192,36390,1,0,0:0:0:0:
64,192,36390,1,0,0:0:0:0:
64,192,36489,1,2,0:0:0:0:
320,192,36489,1,0,0:0:0:0:
448,192,36489,1,0,0:0:0:0:
448,192,36588,1,0,0:0:0:0:
320,192,36588,1,0,0:0:0:0:
192,192,36687,1,0,0:0:0:0:
64,192,36687,1,0,0:0:0:0:
320,192,36786,1,8,0:0:0:0:
448,192,36786,1,0,0:0:0:0:
192,192,36885,1,0,0:0:0:0:
64,192,36885,1,0,0:0:0:0:
320,192,36984,1,0,0:0:0:0:
448,192,36984,1,0,0:0:0:0:
448,192,37083,1,2,0:0:0:0:
192,192,37083,1,0,0:0:0:0:
64,192,37083,1,0,0:0:0:0:
192,192,37182,1,0,0:0:0:0:
64,192,37182,1,0,0:0:0:0:
448,192,37281,1,0,0:0:0:0:
320,192,37281,1,0,0:0:0:0:
448,192,37380,1,8,0:0:0:0:
64,192,37380,1,2,0:0:0:0:
192,192,37380,1,0,0:0:0:0:
320,192,37479,1,0,0:0:0:0:
192,192,37529,1,0,0:0:0:0:
64,192,37578,1,0,0:0:0:0:
320,192,37677,1,2,0:0:0:0:
448,192,37677,1,0,0:0:0:0:
192,192,37677,1,0,0:0:0:0:
320,192,37776,1,0,0:0:0:0:
192,192,37826,1,0,0:0:0:0:
64,192,37875,1,0,0:0:0:0:
192,192,37974,1,8,0:0:0:0:
320,192,37974,1,2,0:0:0:0:
448,192,37974,1,0,0:0:0:0:
64,192,38073,1,0,0:0:0:0:
320,192,38172,1,0,0:0:0:0:
64,192,38271,1,2,0:0:0:0:
192,192,38271,1,4,0:0:0:0:
448,192,38271,1,0,0:0:0:0:
192,192,38420,1,0,0:0:0:0:
192,192,38568,1,0,0:0:0:0:
192,192,38717,1,2,0:0:0:0:
320,192,38717,1,0,0:0:0:0:
64,192,38717,1,0,0:0:0:0:
320,192,38865,1,0,0:0:0:0:
320,192,39014,1,0,0:0:0:0:
448,192,39162,128,0,39360:0:0:0:0:
64,192,39162,128,0,39261:0:0:0:0:
192,192,39360,1,0,0:0:0:0:
448,192,39459,1,2,0:0:0:0:
320,192,39459,1,0,0:0:0:0:
64,192,39459,1,0,0:0:0:0:
320,192,39608,1,0,0:0:0:0:
320,192,39756,1,0,0:0:0:0:
192,192,39905,1,2,0:0:0:0:
320,192,39905,1,0,0:0:0:0:
448,192,39905,1,0,0:0:0:0:
192,192,40053,1,0,0:0:0:0:
192,192,40202,1,0,0:0:0:0:
64,192,40351,1,0,0:0:0:0:
320,192,40351,128,2,40450:0:0:0:0:
64,192,40648,1,4,0:0:0:0:
192,192,40648,1,2,0:0:0:0:
448,192,40648,1,0,0:0:0:0:
320,192,40747,1,0,0:0:0:0:
192,192,40846,1,0,0:0:0:0:
64,192,40945,1,2,0:0:0:0:
448,192,40945,1,8,0:0:0:0:
320,192,40945,1,0,0:0:0:0:
448,192,41143,1,0,0:0:0:0:
320,192,41242,1,2,0:0:0:0:
192,192,41242,1,0,0:0:0:0:
64,192,41242,1,0,0:0:0:0:
448,192,41341,1,0,0:0:0:0:
192,192,41440,1,0,0:0:0:0:
320,192,41539,1,2,0:0:0:0:
64,192,41539,1,8,0:0:0:0:
448,192,41539,1,0,0:0:0:0:
192,192,41737,1,2,0:0:0:0:
448,192,41737,1,0,0:0:0:0:
64,192,41836,1,2,0:0:0:0:
192,192,41836,1,0,0:0:0:0:
320,192,41836,1,0,0:0:0:0:
448,192,41935,1,0,0:0:0:0:
320,192,42034,1,0,0:0:0:0:
64,192,42133,1,2,0:0:0:0:
192,192,42133,1,8,0:0:0:0:
448,192,42133,1,0,0:0:0:0:
192,192,42331,1,0,0:0:0:0:
448,192,42430,1,2,0:0:0:0:
64,192,42430,1,0,0:0:0:0:
320,192,42430,1,0,0:0:0:0:
192,192,42529,1,0,0:0:0:0:
448,192,42628,1,0,0:0:0:0:
64,192,42727,1,2,0:0:0:0:
192,192,42727,1,8,0:0:0:0:
320,192,42727,1,0,0:0:0:0:
64,192,42925,1,2,0:0:0:0:
192,192,42925,1,0,0:0:0:0:
448,192,43024,1,2,0:0:0:0:
320,192,43024,1,0,0:0:0:0:
192,192,43024,1,0,0:0:0:0:
64,192,43123,1,0,0:0:0:0:
320,192,43222,1,0,0:0:0:0:
448,192,43321,1,2,0:0:0:0:
192,192,43321,1,8,0:0:0:0:
64,192,43321,1,0,0:0:0:0:
320,192,43519,1,0,0:0:0:0:
192,192,43618,1,2,0:0:0:0:
64,192,43618,1,0,0:0:0:0:
448,192,43618,1,0,0:0:0:0:
320,192,43717,1,0,0:0:0:0:
448,192,43816,1,0,0:0:0:0:
64,192,43915,1,2,0:0:0:0:
192,192,43915,1,8,0:0:0:0:
320,192,43915,1,0,0:0:0:0:
192,192,44113,1,2,0:0:0:0:
448,192,44113,1,0,0:0:0:0:
192,192,44212,1,6,0:0:0:70:LR_Long Bass.wav
64,192,44212,1,6,0:0:0:0:
320,192,44212,128,0,44707:0:0:0:0:
192,192,44707,128,0,44806:0:0:0:0:
64,192,44806,1,0,0:0:0:0:
64,192,45103,128,0,45400:0:0:0:0:
448,192,45400,1,4,0:0:0:0:
192,192,45400,1,2,0:0:0:0:
320,192,45400,1,0,0:0:0:0:
64,192,45499,1,0,0:0:0:0:
320,192,45598,1,0,0:0:0:0:
192,192,45697,1,2,0:0:0:0:
64,192,45697,1,8,0:0:0:0:
448,192,45697,1,0,0:0:0:0:
64,192,45895,1,0,0:0:0:0:
192,192,45994,1,2,0:0:0:0:
320,192,45994,1,0,0:0:0:0:
448,192,45994,1,0,0:0:0:0:
64,192,46093,1,0,0:0:0:0:
448,192,46192,1,0,0:0:0:0:
320,192,46192,1,0,0:0:0:0:
192,192,46291,1,0,0:0:0:0:
448,192,46489,1,2,0:0:0:0:
320,192,46489,1,0,0:0:0:0:
320,192,46588,1,2,0:0:0:0:
192,192,46588,1,4,0:0:0:0:
64,192,46588,1,0,0:0:0:0:
448,192,46687,1,0,0:0:0:0:
192,192,46786,1,0,0:0:0:0:
64,192,46885,1,2,0:0:0:0:
320,192,46885,1,8,0:0:0:0:
448,192,46885,1,0,0:0:0:0:
192,192,47083,1,0,0:0:0:0:
320,192,47182,1,2,0:0:0:0:
448,192,47182,1,0,0:0:0:0:
64,192,47182,1,0,0:0:0:0:
192,192,47281,1,0,0:0:0:0:
448,192,47380,1,0,0:0:0:0:
320,192,47479,1,2,0:0:0:0:
192,192,47479,1,8,0:0:0:0:
64,192,47479,1,0,0:0:0:0:
448,192,47677,1,2,0:0:0:0:
192,192,47677,1,0,0:0:0:0:
448,192,47776,1,2,0:0:0:0:
320,192,47776,1,0,0:0:0:0:
64,192,47776,1,0,0:0:0:0:
192,192,47875,1,0,0:0:0:0:
320,192,47974,1,0,0:0:0:0:
448,192,48073,1,2,0:0:0:0:
192,192,48073,1,8,0:0:0:0:
64,192,48073,1,0,0:0:0:0:
448,192,48271,1,0,0:0:0:0:
320,192,48370,1,2,0:0:0:0:
64,192,48370,1,0,0:0:0:0:
192,192,48370,1,0,0:0:0:0:
448,192,48469,1,0,0:0:0:0:
192,192,48568,1,0,0:0:0:0:
320,192,48667,1,2,0:0:0:0:
448,192,48667,1,8,0:0:0:0:
64,192,48667,1,0,0:0:0:0:
64,192,48865,1,2,0:0:0:0:
448,192,48865,1,0,0:0:0:0:
320,192,48964,1,2,0:0:0:0:
192,192,48964,1,4,0:0:0:0:
64,192,48964,128,0,49162:0:0:0:0:
448,192,49063,1,0,0:0:0:0:
192,192,49162,1,0,0:0:0:0:
320,192,49261,1,0,0:0:0:70:VEC3 Snares 012.wav
448,192,49261,1,0,0:0:0:0:
320,192,49459,1,0,0:0:0:0:
192,192,49459,128,0,49657:0:0:0:0:
64,192,49558,1,0,0:0:0:0:
448,192,49657,1,0,0:0:0:0:
64,192,49756,1,2,0:0:0:0:
320,192,49756,1,0,0:0:0:0:
192,192,49855,1,0,0:0:0:70:VEC3 Snares 012.wav
448,192,49855,1,0,0:0:0:0:
320,192,49855,128,0,50053:0:0:0:0:
192,192,50053,1,0,0:0:0:0:
448,192,50152,1,4,0:0:0:0:
64,192,50152,1,2,0:0:0:0:
320,192,50152,1,0,0:0:0:0:
192,192,50252,1,0,0:0:0:0:
448,192,50351,1,0,0:0:0:0:
320,192,50450,1,2,0:0:0:0:
64,192,50450,1,8,0:0:0:0:
192,192,50450,1,0,0:0:0:0:
192,192,50648,1,0,0:0:0:0:
320,192,50747,1,2,0:0:0:0:
64,192,50747,1,0,0:0:0:0:
448,192,50747,1,0,0:0:0:0:
192,192,50846,1,0,0:0:0:0:
448,192,50945,1,0,0:0:0:0:
320,192,51044,1,2,0:0:0:0:
192,192,51044,1,8,0:0:0:0:
64,192,51044,1,0,0:0:0:0:
448,192,51242,1,2,0:0:0:0:
192,192,51242,1,0,0:0:0:0:
448,192,51341,1,2,0:0:0:0:
320,192,51341,1,0,0:0:0:0:
64,192,51341,128,0,51836:0:0:0:0:
192,192,51440,1,0,0:0:0:0:
448,192,51539,1,0,0:0:0:0:
320,192,51638,1,8,0:0:0:0:
448,192,51638,1,2,0:0:0:0:
192,192,51638,1,0,0:0:0:0:
192,192,51836,128,0,52232:0:0:0:0:
320,192,51836,1,0,0:0:0:0:
448,192,51935,1,2,0:0:0:0:
64,192,51935,1,0,0:0:0:0:
320,192,51935,1,0,0:0:0:0:
448,192,52034,1,0,0:0:0:0:
64,192,52133,1,0,0:0:0:0:
320,192,52232,128,8,52529:0:0:0:0:
64,192,52232,1,2,0:0:0:0:
448,192,52232,1,0,0:0:0:0:
192,192,52430,1,2,0:0:0:0:
64,192,52430,1,0,0:0:0:0:
64,192,52529,1,2,0:0:0:0:
192,192,52529,1,0,0:0:0:0:
448,192,52529,1,0,0:0:0:0:
320,192,52628,1,0,0:0:0:0:
192,192,52727,1,0,0:0:0:0:
64,192,52826,5,2,0:0:0:0:
320,192,52826,1,8,0:0:0:0:
448,192,52826,1,0,0:0:0:0:
64,192,53024,1,0,0:0:0:0:
448,192,53024,1,0,0:0:0:0:
320,192,53123,1,2,0:0:0:0:
192,192,53123,1,0,0:0:0:0:
448,192,53123,1,0,0:0:0:0:
64,192,53222,1,0,0:0:0:0:
320,192,53321,1,0,0:0:0:0:
448,192,53420,1,2,0:0:0:0:
64,192,53420,1,8,0:0:0:0:
192,192,53420,1,0,0:0:0:0:
448,192,53618,1,2,0:0:0:0:
64,192,53618,1,0,0:0:0:0:
320,192,53717,1,2,0:0:0:0:
64,192,53717,1,4,0:0:0:0:
192,192,53717,128,0,54014:0:0:0:0:
320,192,54014,1,0,0:0:0:70:VEC3 Snares 012.wav
448,192,54014,1,0,0:0:0:0:
64,192,54014,1,0,0:0:0:0:
320,192,54212,128,0,54509:0:0:0:0:
64,192,54509,1,2,0:0:0:0:
192,192,54509,1,0,0:0:0:0:
192,192,54608,1,0,0:0:0:70:VEC3 Snares 012.wav
64,192,54608,1,0,0:0:0:0:
448,192,54608,128,0,54905:0:0:0:0:
64,192,54905,1,4,0:0:0:0:
320,192,54905,1,2,0:0:0:0:
192,192,54905,1,0,0:0:0:0:
64,192,55004,1,0,0:0:0:0:
192,192,55103,1,0,0:0:0:0:
64,192,55202,1,0,0:0:0:0:
320,192,55301,1,8,0:0:0:0:
448,192,55400,1,0,0:0:0:0:
320,192,55499,1,0,0:0:0:0:
320,192,55598,1,0,0:0:0:0:
64,192,55697,1,0,0:0:0:0:
192,192,55796,1,0,0:0:0:0:
320,192,55895,1,8,0:0:0:0:
192,192,55994,1,0,0:0:0:0:
448,192,56093,128,0,56588:0:0:0:0:
320,192,56093,1,0,0:0:0:0:
320,192,56192,1,0,0:0:0:0:
192,192,56291,1,0,0:0:0:0:
64,192,56390,1,0,0:0:0:0:
320,192,56489,1,8,0:0:0:0:
320,192,56588,128,0,56984:0:0:0:0:
64,192,56588,1,0,0:0:0:0:
192,192,56687,1,0,0:0:0:0:
192,192,56786,1,0,0:0:0:0:
448,192,56885,1,0,0:0:0:0:
192,192,56984,128,2,57281:0:0:0:0:
64,192,56984,1,8,0:0:0:0:
448,192,56984,1,0,0:0:0:0:
320,192,57182,1,2,0:0:0:0:
448,192,57182,1,0,0:0:0:0:
320,192,57281,1,2,0:0:0:0:
448,192,57281,1,4,0:0:0:0:
64,192,57380,1,2,0:0:0:0:
192,192,57380,1,0,0:0:0:0:
320,192,57479,1,2,0:0:0:0:
448,192,57479,1,0,0:0:0:0:
192,192,57578,1,8,0:0:0:0:
64,192,57578,1,2,0:0:0:0:
64,192,57677,1,2,0:0:0:0:
192,192,57677,1,0,0:0:0:0:
320,192,57776,1,2,0:0:0:0:
448,192,57776,1,0,0:0:0:0:
192,192,57875,1,2,0:0:0:0:
64,192,57875,1,4,0:0:0:0:
320,192,57974,1,2,0:0:0:0:
448,192,57974,1,0,0:0:0:0:
192,192,58073,1,2,0:0:0:0:
64,192,58073,1,0,0:0:0:0:
320,192,58172,1,8,0:0:0:0:
448,192,58172,1,2,0:0:0:0:
448,192,58271,1,2,0:0:0:0:
320,192,58271,1,0,0:0:0:0:
192,192,58370,1,2,0:0:0:0:
64,192,58370,1,0,0:0:0:0:
320,192,58469,1,2,0:0:0:0:
448,192,58469,1,4,0:0:0:0:
64,192,58568,1,2,0:0:0:0:
192,192,58568,1,0,0:0:0:0:
448,192,58667,1,2,0:0:0:0:
320,192,58667,1,0,0:0:0:0:
192,192,58717,1,2,0:0:0:0:
64,192,58717,1,0,0:0:0:0:
320,192,58766,1,2,0:0:0:0:
448,192,58766,1,8,0:0:0:0:
64,192,58865,1,2,0:0:0:0:
192,192,58865,1,0,0:0:0:0:
320,192,58915,1,2,0:0:0:0:
448,192,58915,1,0,0:0:0:0:
64,192,58964,1,2,0:0:0:0:
192,192,58964,1,0,0:0:0:0:
448,192,59063,1,2,0:0:0:0:
320,192,59063,1,0,0:0:0:0:
192,192,59162,1,2,0:0:0:0:
64,192,59162,1,0,0:0:0:0:
320,192,59261,1,2,0:0:0:0:
448,192,59261,1,0,0:0:0:0:
64,192,59360,1,12,0:0:0:0:
192,192,59360,1,2,0:0:0:0:
448,192,59360,1,0,0:0:0:0:
64,192,59657,1,4,0:0:0:70:LR_Long Bass.wav
448,192,59657,1,0,0:0:0:0:
192,192,59756,1,0,0:0:0:0:
320,192,59855,1,0,0:0:0:0:
192,192,59954,1,0,0:0:0:0:
320,192,60053,1,0,0:0:0:0:
448,192,60152,1,0,0:0:0:0:
320,192,60252,1,0,0:0:0:0:
448,192,60351,1,0,0:0:0:0:
320,192,60450,1,0,0:0:0:0:
192,192,60549,1,0,0:0:0:0:
320,192,60648,1,0,0:0:0:0:
192,192,60747,1,0,0:0:0:0:
64,192,60846,1,0,0:0:0:0:
192,192,61143,1,0,0:0:0:0:
320,192,61242,1,0,0:0:0:0:
192,192,61341,1,0,0:0:0:0:
320,192,61440,1,0,0:0:0:0:
448,192,61539,1,0,0:0:0:0:
320,192,61638,1,0,0:0:0:0:
448,192,61737,1,0,0:0:0:0:
320,192,61836,1,0,0:0:0:0:
192,192,61935,1,0,0:0:0:0:
64,192,62034,128,0,62083:0:0:0:0:
192,192,62133,128,0,62182:0:0:0:0:
320,192,62232,128,0,62281:0:0:0:0:
320,192,62331,128,0,62479:0:0:0:0:
448,192,62529,128,0,62578:0:0:0:0:
64,192,62628,128,0,62677:0:0:0:0:
192,192,62727,128,0,62776:0:0:0:0:
320,192,62826,128,0,62875:0:0:0:0:
320,192,62925,128,0,63073:0:0:0:0:
448,192,63123,128,0,63172:0:0:0:0:
192,192,63222,1,0,0:0:0:0:
320,192,63321,1,0,0:0:0:0:
64,192,63420,1,0,0:0:0:0:
192,192,63469,1,0,0:0:0:0:
320,192,63519,1,0,0:0:0:0:
448,192,63618,1,0,0:0:0:0:
64,192,63717,1,0,0:0:0:0:
192,192,63766,1,0,0:0:0:0:
320,192,63816,1,0,0:0:0:0:
448,192,63915,128,0,63964:0:0:0:0:
448,192,64014,128,0,64063:0:0:0:0:
192,192,64014,1,0,0:0:0:0:
448,192,64113,128,0,64410:0:0:0:0:
64,192,64113,1,0,0:0:0:0:
192,192,64410,128,0,64459:0:0:0:0:
64,192,64509,128,0,64558:0:0:0:0:
64,192,64608,128,0,64657:0:0:0:0:
320,192,64707,128,0,64756:0:0:0:0:
64,192,64806,128,0,64855:0:0:0:0:
192,192,64855,128,0,64905:0:0:0:0:
320,192,64905,128,0,64954:0:0:0:0:
64,192,65004,1,0,0:0:0:0:
448,192,65103,128,0,65152:0:0:0:0:
448,192,65202,128,0,65252:0:0:0:0:
320,192,65301,128,0,65351:0:0:0:0:
64,192,65400,128,0,65450:0:0:0:0:
192,192,65450,128,0,65499:0:0:0:0:
320,192,65499,128,0,65549:0:0:0:0:
192,192,65598,1,0,0:0:0:0:
448,192,65697,128,0,65747:0:0:0:0:
192,192,65796,128,0,65846:0:0:0:0:
320,192,65895,128,0,65945:0:0:0:0:
448,192,65994,128,0,66044:0:0:0:0:
64,192,66093,128,0,66143:0:0:0:0:
320,192,66192,128,0,66242:0:0:0:0:
192,192,66291,128,0,66341:0:0:0:0:
448,192,66390,128,0,66440:0:0:0:0:
320,192,66440,128,0,66489:0:0:0:0:
64,192,66489,128,0,66539:0:0:0:0:
192,192,66588,128,0,66638:0:0:0:0:
64,192,66638,128,0,66687:0:0:0:0:
320,192,66687,128,0,66737:0:0:0:0:
448,192,66737,128,0,66786:0:0:0:0:
64,192,66786,128,0,66836:0:0:0:0:
192,192,66885,128,0,66935:0:0:0:0:
320,192,66984,128,0,67034:0:0:0:0:
320,192,67083,128,0,67232:0:0:0:0:
448,192,67281,128,0,67331:0:0:0:0:
64,192,67380,128,0,67430:0:0:0:0:
192,192,67479,128,0,67529:0:0:0:0:
320,192,67578,128,0,67628:0:0:0:0:
320,192,67677,128,0,67826:0:0:0:0:
448,192,67875,128,0,67925:0:0:0:0:
64,192,67974,128,0,68073:0:0:0:0:
320,192,68073,1,0,0:0:0:0:
192,192,68172,1,0,0:0:0:0:
192,192,68271,1,0,0:0:0:0:
320,192,68370,1,0,0:0:0:0:
192,192,68420,1,0,0:0:0:0:
64,192,68469,1,0,0:0:0:0:
448,192,68568,1,0,0:0:0:0:
320,192,68667,1,0,0:0:0:0:
192,192,68717,1,0,0:0:0:0:
64,192,68766,1,0,0:0:0:0:
448,192,68865,128,0,68964:0:0:0:0:
320,192,68964,128,0,69063:0:0:0:0:
192,192,69063,128,0,69162:0:0:0:0:
448,192,69162,128,0,69261:0:0:0:0:
192,192,69261,1,0,0:0:0:0:
320,192,69360,1,0,0:0:0:0:
64,192,69459,1,0,0:0:0:0:
192,192,69558,1,0,0:0:0:0:
320,192,69608,1,0,0:0:0:0:
448,192,69657,1,0,0:0:0:0:
64,192,69756,1,0,0:0:0:0:
192,192,69855,1,0,0:0:0:0:
320,192,69905,1,0,0:0:0:0:
448,192,69954,1,0,0:0:0:0:
64,192,70053,128,0,70152:0:0:0:0:
192,192,70152,128,0,70252:0:0:0:0:
320,192,70252,128,0,70351:0:0:0:0:
448,192,70351,1,0,0:0:0:70:LR_Long Bass.wav
192,192,70351,1,0,0:0:0:0:
320,192,70648,1,0,0:0:0:0:
64,192,70648,1,0,0:0:0:0:
320,192,70846,1,0,0:0:0:0:
64,192,70846,1,0,0:0:0:0:
64,192,71044,1,0,0:0:0:0:
320,192,71093,1,0,0:0:0:0:
448,192,71192,1,0,0:0:0:0:
192,192,71242,1,0,0:0:0:0:
64,192,71242,1,0,0:0:0:0:
320,192,71390,1,0,0:0:0:0:
64,192,71539,128,4,72133:0:0:0:0:
192,192,71836,128,0,72430:0:0:0:0:
320,192,72133,128,0,72727:0:0:0:0:
448,192,72430,128,0,72727:0:0:0:0:
64,192,72727,128,6,73024:0:0:0:70:LR_Long Bass.wav
192,192,72727,128,6,75103:0:0:0:0:
320,192,73024,128,0,73123:0:0:0:0:
448,192,73123,128,0,73222:0:0:0:0:
64,192,73222,128,0,73321:0:0:0:0:
320,192,73321,128,0,73618:0:0:0:0:
448,192,73618,128,0,73915:0:0:0:0:
64,192,73915,128,0,74806:0:0:0:0:
320,192,73915,128,0,74806:0:0:0:0:
448,192,75103,128,0,75400:0:0:0:0:
320,192,75103,128,0,77479:0:0:0:0:
64,192,75400,128,0,75499:0:0:0:0:
448,192,75499,128,0,75598:0:0:0:0:
192,192,75598,128,0,75697:0:0:0:0:
448,192,75697,128,0,75994:0:0:0:0:
64,192,75994,128,0,76291:0:0:0:0:
448,192,76291,128,0,76588:0:0:0:0:
192,192,76291,128,0,77479:0:0:0:0:
64,192,76588,128,0,76885:0:0:0:0:
448,192,76885,128,0,77182:0:0:0:0:
64,192,77182,1,0,0:0:0:0:
448,192,77479,128,0,77776:0:0:0:0:
64,192,77479,128,0,79855:0:0:0:0:
192,192,77776,128,0,77875:0:0:0:0:
320,192,77875,128,0,77974:0:0:0:0:
192,192,77974,128,0,78073:0:0:0:0:
320,192,78073,128,0,78370:0:0:0:0:
448,192,78370,128,0,78667:0:0:0:0:
192,192,78667,128,0,79558:0:0:0:0:
320,192,78667,128,0,79558:0:0:0:0:
448,192,79855,128,0,82232:0:0:0:0:
320,192,79855,128,0,80152:0:0:0:0:
64,192,80152,128,0,80252:0:0:0:0:
192,192,80252,128,0,80351:0:0:0:0:
320,192,80351,128,0,80450:0:0:0:0:
192,192,80450,128,0,80747:0:0:0:0:
64,192,80747,128,0,81044:0:0:0:0:
320,192,81044,128,0,82133:0:0:0:0:
192,192,81044,128,0,81341:0:0:0:0:
64,192,81341,128,0,81638:0:0:0:0:
192,192,81638,128,0,81935:0:0:0:0:
64,192,81935,128,0,82232:0:0:0:0:
320,192,82232,128,0,83420:0:0:0:0:
192,192,82232,1,0,0:0:0:0:
64,192,84608,128,0,85796:0:0:0:0:
192,192,84608,1,0,0:0:0:0:
192,192,85796,1,0,0:0:0:0:
320,192,85870,1,0,0:0:0:0:
448,192,85945,1,0,0:0:0:0:
64,192,86019,1,0,0:0:0:0:
192,192,86093,1,0,0:0:0:0:
448,192,86093,1,0,0:0:0:0:
320,192,86167,1,0,0:0:0:0:
64,192,86242,1,0,0:0:0:0:
192,192,86316,1,0,0:0:0:0:
320,192,86390,1,0,0:0:0:0:
448,192,86464,1,0,0:0:0:0:
64,192,86464,1,0,0:0:0:0:
320,192,86539,1,0,0:0:0:0:
192,192,86613,1,0,0:0:0:0:
448,192,86687,1,0,0:0:0:0:
320,192,86761,1,0,0:0:0:0:
192,192,86836,1,0,0:0:0:0:
64,192,86910,1,0,0:0:0:0:
192,192,86984,1,0,0:0:0:0:
448,192,86984,1,0,0:0:0:0:
320,192,87083,1,0,0:0:0:0:
448,192,87182,1,0,0:0:0:0:
448,192,87281,128,0,87479:0:0:0:0:
320,192,87479,1,0,0:0:0:0:
64,192,87578,1,0,0:0:0:0:
192,192,87677,1,0,0:0:0:0:
448,192,87776,1,0,0:0:0:0:
448,192,87875,128,0,88073:0:0:0:0:
320,192,88073,1,0,0:0:0:0:
192,192,88172,1,0,0:0:0:0:
320,192,88271,1,0,0:0:0:0:
448,192,88370,1,0,0:0:0:0:
320,192,88469,1,0,0:0:0:0:
64,192,88568,1,0,0:0:0:0:
192,192,88618,1,0,0:0:0:0:
320,192,88667,1,0,0:0:0:0:
192,192,88766,1,0,0:0:0:0:
64,192,88865,1,0,0:0:0:0:
192,192,88915,1,0,0:0:0:0:
320,192,88964,1,0,0:0:0:0:
64,192,89063,1,2,0:0:0:50:cymbal.wav
448,192,89063,1,2,0:0:0:0:
320,192,89162,1,0,0:0:0:0:
192,192,89261,1,0,0:0:0:0:
64,192,89360,1,6,0:0:0:70:LR_Long Bass.wav
320,192,89360,1,0,0:0:0:0:
448,192,89360,1,0,0:0:0:0:
192,192,89459,1,0,0:0:0:0:
448,192,89558,1,0,0:0:0:0:
320,192,89657,1,0,0:0:0:0:
64,192,89756,1,0,0:0:0:0:
192,192,89806,1,0,0:0:0:0:
320,192,89855,1,0,0:0:0:0:
448,192,89954,1,0,0:0:0:0:
64,192,90053,1,0,0:0:0:0:
192,192,90103,1,0,0:0:0:0:
320,192,90152,1,0,0:0:0:0:
192,192,90252,1,2,0:0:0:0:
64,192,90252,1,4,0:0:0:0:
448,192,90351,1,2,0:0:0:0:
320,192,90351,1,4,0:0:0:0:
64,192,90450,1,2,0:0:0:0:
192,192,90450,1,4,0:0:0:0:
64,192,90549,1,2,0:0:0:0:
448,192,90549,1,4,0:0:0:0:
320,192,90549,1,0,0:0:0:0:
320,192,90648,1,0,0:0:0:0:
192,192,90648,1,0,0:0:0:0:
448,192,90747,1,0,0:0:0:0:
320,192,90846,1,2,0:0:0:0:
192,192,90846,1,8,0:0:0:0:
64,192,90846,1,0,0:0:0:0:
320,192,91044,1,0,0:0:0:0:
192,192,91143,1,2,0:0:0:0:
64,192,91143,1,0,0:0:0:0:
448,192,91143,1,0,0:0:0:0:
320,192,91242,1,0,0:0:0:0:
192,192,91242,1,0,0:0:0:0:
64,192,91341,1,0,0:0:0:0:
448,192,91440,1,2,0:0:0:0:
320,192,91440,1,8,0:0:0:0:
192,192,91440,1,0,0:0:0:0:
192,192,91638,1,0,0:0:0:0:
448,192,91737,1,2,0:0:0:0:
320,192,91737,1,0,0:0:0:0:
64,192,91737,1,0,0:0:0:0:
320,192,91836,1,0,0:0:0:0:
192,192,91836,1,0,0:0:0:0:
448,192,91935,1,0,0:0:0:0:
320,192,92034,1,2,0:0:0:0:
192,192,92034,1,8,0:0:0:0:
64,192,92034,1,0,0:0:0:0:
448,192,92133,1,0,0:0:0:0:
64,192,92133,1,0,0:0:0:0:
192,192,92232,1,0,0:0:0:0:
448,192,92331,1,2,0:0:0:0:
320,192,92331,1,0,0:0:0:0:
64,192,92331,1,0,0:0:0:0:
192,192,92430,1,0,0:0:0:0:
320,192,92430,1,0,0:0:0:0:
64,192,92529,1,0,0:0:0:0:
192,192,92578,1,0,0:0:0:0:
320,192,92628,1,2,0:0:0:0:
448,192,92628,1,8,0:0:0:0:
64,192,92628,1,0,0:0:0:0:
448,192,92727,1,0,0:0:0:0:
320,192,92776,1,0,0:0:0:0:
64,192,92826,1,0,0:0:0:0:
192,192,92875,1,0,0:0:0:0:
320,192,92925,1,2,0:0:0:0:
448,192,92925,1,0,0:0:0:0:
64,192,92925,1,0,0:0:0:0:
192,192,93024,1,0,0:0:0:0:
320,192,93123,1,2,0:0:0:0:
448,192,93123,1,0,0:0:0:0:
192,192,93222,1,10,0:0:0:0:
64,192,93222,1,4,0:0:0:0:
448,192,93222,1,0,0:0:0:0:
192,192,93420,1,0,0:0:0:0:
320,192,93519,1,2,0:0:0:0:
448,192,93519,1,0,0:0:0:0:
64,192,93519,1,0,0:0:0:0:
448,192,93618,1,2,0:0:0:0:
320,192,93618,1,0,0:0:0:0:
192,192,93717,1,2,0:0:0:0:
64,192,93717,1,0,0:0:0:0:
64,192,93816,1,10,0:0:0:0:
192,192,93816,1,4,0:0:0:0:
448,192,93816,1,0,0:0:0:0:
320,192,94014,1,0,0:0:0:0:
448,192,94113,1,2,0:0:0:0:
64,192,94113,1,4,0:0:0:0:
192,192,94113,1,0,0:0:0:0:
320,192,94212,1,0,0:0:0:0:
64,192,94311,1,2,0:0:0:0:
192,192,94311,1,0,0:0:0:0:
448,192,94410,1,10,0:0:0:0:
192,192,94410,1,4,0:0:0:0:
64,192,94410,1,0,0:0:0:0:
320,192,94509,1,0,0:0:0:0:
448,192,94608,1,2,0:0:0:0:
64,192,94608,1,0,0:0:0:0:
192,192,94657,1,0,0:0:0:0:
448,192,94707,1,2,0:0:0:0:
320,192,94707,1,4,0:0:0:0:
192,192,94806,1,2,0:0:0:0:
64,192,94806,1,4,0:0:0:0:
320,192,94905,1,2,0:0:0:0:
448,192,94905,1,4,0:0:0:0:
448,192,95004,1,10,0:0:0:0:
192,192,95004,1,4,0:0:0:0:
320,192,95004,128,0,95301:0:0:0:0:
64,192,95301,1,2,0:0:0:0:
192,192,95301,1,4,0:0:0:0:
448,192,95301,1,0,0:0:0:0:
320,192,95400,1,0,0:0:0:0:
64,192,95400,1,0,0:0:0:0:
192,192,95499,1,0,0:0:0:0:
448,192,95598,1,2,0:0:0:0:
320,192,95598,1,8,0:0:0:0:
64,192,95598,1,0,0:0:0:0:
192,192,95697,1,0,0:0:0:0:
448,192,95697,1,0,0:0:0:0:
320,192,95796,1,0,0:0:0:0:
64,192,95895,1,2,0:0:0:0:
192,192,95895,1,0,0:0:0:0:
448,192,95895,1,0,0:0:0:0:
320,192,95994,1,0,0:0:0:0:
64,192,95994,1,0,0:0:0:0:
192,192,96093,1,0,0:0:0:0:
320,192,96192,1,2,0:0:0:0:
448,192,96192,1,8,0:0:0:0:
64,192,96192,1,0,0:0:0:0:
448,192,96291,1,0,0:0:0:0:
192,192,96341,1,0,0:0:0:0:
320,192,96390,1,0,0:0:0:0:
448,192,96489,1,2,0:0:0:0:
192,192,96489,1,0,0:0:0:0:
64,192,96489,1,0,0:0:0:0:
320,192,96588,1,0,0:0:0:0:
64,192,96588,1,0,0:0:0:0:
192,192,96687,1,0,0:0:0:0:
320,192,96786,1,2,0:0:0:0:
448,192,96786,1,8,0:0:0:0:
64,192,96786,1,0,0:0:0:0:
192,192,96885,1,0,0:0:0:0:
448,192,96885,1,0,0:0:0:0:
320,192,96984,1,0,0:0:0:0:
192,192,97083,1,2,0:0:0:0:
448,192,97083,1,0,0:0:0:0:
64,192,97083,1,0,0:0:0:0:
448,192,97182,1,0,0:0:0:0:
320,192,97281,1,0,0:0:0:0:
192,192,97331,1,0,0:0:0:0:
64,192,97380,1,2,0:0:0:0:
320,192,97380,1,8,0:0:0:0:
448,192,97380,1,0,0:0:0:0:
64,192,97479,1,0,0:0:0:0:
192,192,97529,1,0,0:0:0:0:
448,192,97578,1,0,0:0:0:0:
320,192,97628,1,0,0:0:0:0:
448,192,97677,1,2,0:0:0:0:
192,192,97677,1,0,0:0:0:0:
64,192,97677,1,0,0:0:0:0:
320,192,97776,1,0,0:0:0:0:
192,192,97875,1,2,0:0:0:0:
64,192,97875,1,0,0:0:0:0:
320,192,97974,1,10,0:0:0:0:
192,192,97974,1,4,0:0:0:0:
448,192,97974,1,0,0:0:0:0:
448,192,98172,1,0,0:0:0:0:
320,192,98271,1,2,0:0:0:0:
192,192,98271,1,0,0:0:0:0:
64,192,98271,1,0,0:0:0:0:
64,192,98370,1,2,0:0:0:0:
192,192,98370,1,0,0:0:0:0:
448,192,98469,1,2,0:0:0:0:
320,192,98469,1,0,0:0:0:0:
448,192,98568,1,10,0:0:0:0:
320,192,98568,1,4,0:0:0:0:
192,192,98568,1,0,0:0:0:0:
320,192,98766,1,0,0:0:0:0:
448,192,98865,1,2,0:0:0:0:
192,192,98865,1,4,0:0:0:0:
64,192,98865,1,0,0:0:0:0:
320,192,98964,1,0,0:0:0:0:
64,192,99063,1,0,0:0:0:0:
192,192,99162,1,8,0:0:0:0:
320,192,99261,1,0,0:0:0:0:
192,192,99311,1,0,0:0:0:0:
64,192,99360,1,0,0:0:0:0:
320,192,99459,1,2,0:0:0:0:
448,192,99459,1,4,0:0:0:0:
192,192,99459,1,0,0:0:0:0:
320,192,99558,1,0,0:0:0:0:
192,192,99608,1,0,0:0:0:0:
64,192,99657,1,0,0:0:0:0:
320,192,99756,1,10,0:0:0:0:
448,192,99756,1,4,0:0:0:0:
192,192,99855,1,0,0:0:0:0:
320,192,99954,1,2,0:0:0:0:
64,192,99954,1,0,0:0:0:0:
64,192,100053,128,6,100152:0:0:0:70:LR_Long Bass.wav
448,192,100053,1,4,0:0:0:0:
192,192,100053,1,2,0:0:0:0:
320,192,100152,128,0,100252:0:0:0:0:
192,192,100252,128,0,100351:0:0:0:0:
448,192,100351,128,0,100450:0:0:0:0:
64,192,100450,128,0,100499:0:0:0:0:
192,192,100499,128,0,100549:0:0:0:0:
320,192,100549,128,0,100598:0:0:0:0:
448,192,100648,128,0,100747:0:0:0:0:
64,192,100747,128,0,100796:0:0:0:0:
192,192,100796,128,0,100846:0:0:0:0:
320,192,100846,128,0,100895:0:0:0:0:
64,192,100945,1,2,0:0:0:0:
192,192,100945,1,4,0:0:0:0:
448,192,101044,1,2,0:0:0:0:
320,192,101044,1,4,0:0:0:0:
64,192,101143,1,2,0:0:0:0:
192,192,101143,1,4,0:0:0:0:
192,192,101242,1,2,0:0:0:0:
64,192,101242,1,4,0:0:0:0:
320,192,101242,1,0,0:0:0:0:
448,192,101341,1,0,0:0:0:0:
320,192,101341,1,0,0:0:0:0:
64,192,101440,1,0,0:0:0:0:
192,192,101539,1,2,0:0:0:0:
320,192,101539,1,8,0:0:0:0:
448,192,101539,1,0,0:0:0:0:
448,192,101737,1,0,0:0:0:0:
320,192,101836,1,2,0:0:0:0:
192,192,101836,1,0,0:0:0:0:
64,192,101836,1,0,0:0:0:0:
64,192,101935,1,0,0:0:0:0:
448,192,101935,1,0,0:0:0:0:
192,192,102034,1,0,0:0:0:0:
448,192,102133,1,2,0:0:0:0:
320,192,102133,1,8,0:0:0:0:
64,192,102133,1,0,0:0:0:0:
192,192,102331,1,0,0:0:0:0:
320,192,102430,1,2,0:0:0:0:
448,192,102430,1,0,0:0:0:0:
64,192,102430,1,0,0:0:0:0:
448,192,102529,1,0,0:0:0:0:
192,192,102529,1,0,0:0:0:0:
320,192,102628,1,0,0:0:0:0:
192,192,102727,1,2,0:0:0:0:
448,192,102727,1,8,0:0:0:0:
64,192,102727,1,0,0:0:0:0:
192,192,102925,1,0,0:0:0:0:
64,192,103024,1,2,0:0:0:0:
448,192,103024,1,0,0:0:0:0:
320,192,103024,1,0,0:0:0:0:
64,192,103123,1,0,0:0:0:0:
192,192,103123,1,0,0:0:0:0:
448,192,103222,1,0,0:0:0:0:
320,192,103321,1,2,0:0:0:0:
192,192,103321,1,8,0:0:0:0:
64,192,103321,1,0,0:0:0:0:
320,192,103519,1,0,0:0:0:0:
448,192,103618,1,2,0:0:0:0:
192,192,103618,1,0,0:0:0:0:
64,192,103618,1,0,0:0:0:0:
320,192,103717,1,0,0:0:0:0:
448,192,103717,1,0,0:0:0:0:
192,192,103816,1,0,0:0:0:0:
64,192,103915,1,2,0:0:0:0:
320,192,103915,1,8,0:0:0:0:
448,192,103915,1,0,0:0:0:0:
320,192,104113,1,0,0:0:0:0:
192,192,104212,1,2,0:0:0:0:
448,192,104212,1,0,0:0:0:0:
64,192,104212,1,0,0:0:0:0:
448,192,104311,1,0,0:0:0:0:
320,192,104311,1,0,0:0:0:0:
192,192,104410,1,0,0:0:0:0:
320,192,104509,1,2,0:0:0:0:
448,192,104509,1,8,0:0:0:0:
64,192,104509,1,0,0:0:0:0:
64,192,104707,1,0,0:0:0:0:
448,192,104806,1,2,0:0:0:0:
320,192,104806,1,0,0:0:0:0:
192,192,104806,1,0,0:0:0:0:
448,192,104905,1,0,0:0:0:0:
64,192,104905,1,0,0:0:0:0:
320,192,105004,1,0,0:0:0:0:
192,192,105053,1,0,0:0:0:0:
320,192,105103,1,2,0:0:0:0:
448,192,105103,1,8,0:0:0:0:
64,192,105103,1,0,0:0:0:0:
192,192,105202,1,0,0:0:0:0:
64,192,105202,1,0,0:0:0:0:
320,192,105301,1,0,0:0:0:0:
448,192,105351,1,0,0:0:0:0:
192,192,105400,1,2,0:0:0:0:
64,192,105400,1,0,0:0:0:0:
448,192,105499,1,2,0:0:0:0:
320,192,105499,1,0,0:0:0:0:
192,192,105598,1,2,0:0:0:0:
64,192,105598,1,0,0:0:0:0:
192,192,105697,1,2,0:0:0:0:
320,192,105697,1,8,0:0:0:0:
448,192,105697,1,0,0:0:0:0:
64,192,105895,1,0,0:0:0:0:
192,192,105994,1,2,0:0:0:0:
448,192,105994,1,4,0:0:0:0:
320,192,105994,1,0,0:0:0:0:
64,192,106093,1,0,0:0:0:0:
192,192,106093,1,0,0:0:0:0:
320,192,106192,1,0,0:0:0:0:
448,192,106291,1,8,0:0:0:0:
192,192,106291,1,0,0:0:0:0:
64,192,106291,1,0,0:0:0:0:
320,192,106390,1,0,0:0:0:0:
448,192,106489,1,0,0:0:0:0:
320,192,106588,1,2,0:0:0:0:
192,192,106588,1,0,0:0:0:0:
64,192,106588,1,0,0:0:0:0:
448,192,106687,1,0,0:0:0:0:
320,192,106687,1,0,0:0:0:0:
192,192,106786,1,0,0:0:0:0:
64,192,106885,1,8,0:0:0:0:
320,192,106885,1,0,0:0:0:0:
448,192,106885,1,0,0:0:0:0:
192,192,106984,1,0,0:0:0:0:
320,192,107034,1,0,0:0:0:0:
448,192,107083,1,0,0:0:0:0:
320,192,107182,1,2,0:0:0:0:
192,192,107182,1,4,0:0:0:0:
64,192,107182,1,0,0:0:0:0:
448,192,107281,1,0,0:0:0:0:
320,192,107281,1,0,0:0:0:0:
64,192,107380,1,0,0:0:0:0:
192,192,107479,1,2,0:0:0:0:
320,192,107479,1,8,0:0:0:0:
448,192,107479,1,0,0:0:0:0:
64,192,107578,1,0,0:0:0:0:
192,192,107677,1,0,0:0:0:0:
320,192,107776,1,2,0:0:0:0:
448,192,107776,1,4,0:0:0:0:
64,192,107776,1,0,0:0:0:0:
448,192,107875,1,0,0:0:0:0:
192,192,107875,1,0,0:0:0:0:
320,192,107974,1,0,0:0:0:0:
192,192,108073,1,2,0:0:0:0:
448,192,108073,1,8,0:0:0:0:
64,192,108073,1,0,0:0:0:0:
64,192,108172,1,0,0:0:0:0:
320,192,108172,1,0,0:0:0:0:
192,192,108271,1,0,0:0:0:0:
320,192,108370,1,4,0:0:0:0:
448,192,108370,1,2,0:0:0:0:
192,192,108469,1,2,0:0:0:0:
64,192,108469,1,0,0:0:0:0:
192,192,108568,1,2,0:0:0:0:
64,192,108568,1,0,0:0:0:0:
320,192,108667,1,10,0:0:0:0:
448,192,108667,1,4,0:0:0:0:
320,192,108865,1,0,0:0:0:0:
64,192,108964,1,2,0:0:0:0:
192,192,108964,1,0,0:0:0:0:
448,192,109063,1,2,0:0:0:0:
320,192,109063,1,0,0:0:0:0:
320,192,109162,1,2,0:0:0:0:
448,192,109162,1,0,0:0:0:0:
192,192,109261,1,10,0:0:0:0:
64,192,109261,1,4,0:0:0:0:
448,192,109558,1,2,0:0:0:0:
320,192,109558,1,4,0:0:0:0:
64,192,109558,1,0,0:0:0:0:
192,192,109657,1,2,0:0:0:0:
64,192,109657,1,0,0:0:0:0:
320,192,109756,1,2,0:0:0:0:
448,192,109756,1,0,0:0:0:0:
192,192,109855,1,2,0:0:0:0:
64,192,109855,1,8,0:0:0:0:
320,192,109954,1,2,0:0:0:0:
448,192,109954,1,0,0:0:0:0:
192,192,110004,1,2,0:0:0:0:
64,192,110004,1,0,0:0:0:0:
320,192,110053,1,2,0:0:0:0:
448,192,110053,1,0,0:0:0:0:
192,192,110152,1,2,0:0:0:0:
64,192,110152,1,0,0:0:0:0:
448,192,110252,1,2,0:0:0:0:
320,192,110252,1,0,0:0:0:0:
192,192,110301,1,2,0:0:0:0:
64,192,110301,1,0,0:0:0:0:
320,192,110351,1,2,0:0:0:0:
448,192,110351,1,0,0:0:0:0:
192,192,110450,1,2,0:0:0:0:
64,192,110450,1,4,0:0:0:0:
320,192,110549,1,2,0:0:0:0:
448,192,110549,1,0,0:0:0:0:
192,192,110648,1,2,0:0:0:0:
64,192,110648,1,0,0:0:0:0:
64,192,110747,1,2,0:0:0:0:
192,192,110747,1,4,0:0:0:0:
448,192,110846,1,2,0:0:0:0:
320,192,110846,1,0,0:0:0:0:
192,192,110945,1,2,0:0:0:0:
64,192,110945,1,0,0:0:0:0:
320,192,111044,1,2,0:0:0:0:
448,192,111044,1,0,0:0:0:0:
192,192,111143,1,2,0:0:0:0:
64,192,111143,1,0,0:0:0:0:
320,192,111192,1,2,0:0:0:0:
448,192,111192,1,0,0:0:0:0:
192,192,111242,1,2,0:0:0:0:
64,192,111242,1,0,0:0:0:0:
448,192,111341,1,2,0:0:0:0:
320,192,111341,1,4,0:0:0:0:
192,192,111440,1,2,0:0:0:0:
64,192,111440,1,0,0:0:0:0:
320,192,111489,1,0,0:0:0:0:
448,192,111489,1,0,0:0:0:0:
192,192,111539,1,2,0:0:0:0:
64,192,111539,1,0,0:0:0:0:
320,192,111638,1,2,0:0:0:0:
448,192,111638,1,4,0:0:0:0:
448,192,111935,1,2,0:0:0:0:
192,192,111935,1,4,0:0:0:0:
64,192,111935,1,0,0:0:0:0:
320,192,112034,1,0,0:0:0:0:
192,192,112133,1,0,0:0:0:0:
64,192,112232,1,0,0:0:0:0:
320,192,112331,1,0,0:0:0:0:
192,192,112380,1,0,0:0:0:0:
64,192,112430,1,0,0:0:0:0:
448,192,112529,1,0,0:0:0:0:
192,192,112628,1,0,0:0:0:0:
320,192,112677,1,0,0:0:0:0:
448,192,112727,1,0,0:0:0:0:
64,192,112826,1,2,0:0:0:0:
192,192,112826,1,0,0:0:0:0:
320,192,112925,1,2,0:0:0:0:
448,192,112925,1,0,0:0:0:0:
192,192,113024,1,2,0:0:0:0:
64,192,113024,1,0,0:0:0:0:
320,192,113123,1,4,0:0:0:0:
448,192,113123,1,2,0:0:0:0:
64,192,113222,1,2,0:0:0:0:
192,192,113222,1,0,0:0:0:0:
320,192,113321,1,2,0:0:0:0:
448,192,113321,1,0,0:0:0:0:
192,192,113420,1,2,0:0:0:0:
64,192,113420,1,4,0:0:0:0:
448,192,113519,1,2,0:0:0:0:
320,192,113519,1,0,0:0:0:0:
192,192,113568,1,0,0:0:0:0:
64,192,113618,1,2,0:0:0:0:
448,192,113618,1,0,0:0:0:0:
320,192,113717,1,2,0:0:0:0:
192,192,113717,1,4,0:0:0:0:
64,192,113816,1,2,0:0:0:0:
448,192,113816,1,0,0:0:0:0:
320,192,113865,1,0,0:0:0:0:
192,192,113915,1,2,0:0:0:0:
64,192,113915,1,0,0:0:0:0:
448,192,114014,1,2,0:0:0:0:
320,192,114014,1,4,0:0:0:0:
64,192,114113,1,2,0:0:0:0:
192,192,114113,1,0,0:0:0:0:
448,192,114212,1,2,0:0:0:0:
320,192,114212,1,0,0:0:0:0:
64,192,114311,128,6,116390:0:0:0:70:LR_Long Bass.wav
448,192,114311,1,4,0:0:0:0:
448,192,115697,128,0,115796:0:0:0:0:
320,192,115796,128,0,115895:0:0:0:0:
448,192,115994,128,0,116093:0:0:0:0:
192,192,116093,128,0,116192:0:0:0:0:
320,192,116291,128,0,116390:0:0:0:0:
448,192,116390,128,0,116489:0:0:0:0:
192,192,116390,128,0,116687:0:0:0:0:
64,192,116687,1,0,0:0:0:70:LR_Long Bass.wav
448,192,116687,1,0,0:0:0:0:
320,192,116885,1,0,0:0:0:0:
320,192,117083,1,0,0:0:0:0:
320,192,117281,1,0,0:0:0:0:
192,192,117479,1,0,0:0:0:0:
64,192,117677,1,0,0:0:0:0:
192,192,117875,1,0,0:0:0:0:
320,192,118073,1,0,0:0:0:0:
320,192,118271,1,0,0:0:0:0:
320,192,118469,1,0,0:0:0:0:
64,192,118469,1,0,0:0:0:0:
192,192,118667,1,0,0:0:0:0:
448,192,118865,1,0,0:0:0:0:
320,192,119063,1,0,0:0:0:0:
192,192,119063,1,0,0:0:0:0:
320,192,119261,1,0,0:0:0:0:
448,192,119459,1,0,0:0:0:0:
64,192,119657,1,0,0:0:0:0:
192,192,119657,1,0,0:0:0:0:
320,192,119855,1,0,0:0:0:0:
448,192,120053,1,0,0:0:0:0:
192,192,120252,1,0,0:0:0:0:
320,192,120450,1,0,0:0:0:0:
192,192,120648,1,0,0:0:0:0:
320,192,120747,1,0,0:0:0:0:
448,192,120846,1,0,0:0:0:0:
64,192,121044,1,0,0:0:0:0:
192,192,121143,1,0,0:0:0:0:
448,192,121242,1,0,0:0:0:0:
320,192,121341,1,0,0:0:0:0:
448,192,121440,128,0,125004:0:0:0:0:
192,192,121440,1,0,0:0:0:0:
192,192,121638,1,0,0:0:0:0:
320,192,121836,1,0,0:0:0:0:
192,192,122034,1,0,0:0:0:0:
64,192,122628,128,0,125004:0:0:0:0:
