osu file format v14

[General]
AudioFilename: audio.mp3
AudioLeadIn: 0
PreviewTime: 86984
Countdown: 0
SampleSet: Soft
StackLeniency: 0.7
Mode: 3
LetterboxInBreaks: 0
SpecialStyle: 0
WidescreenStoryboard: 1

[Editor]
DistanceSpacing: 0.8
BeatDivisor: 3
GridSize: 32
TimelineZoom: 1.8

[Metadata]
Title:Tsui no Maihime
TitleUnicode:終の舞姫
Artist:Se-U-Ra
ArtistUnicode:Se-U-Ra
Creator:DarkistDeci
Version:Casual
Source:Dynamix
Tags:featured artist dubstek せゆーら Tree Called Elif ethnic hardcore seura seyura instrumental famoss video game ost rhythm game electronic edm artcore Ragnarok VII fa featured artist
BeatmapID:2410031
BeatmapSetID:1154776

[Difficulty]
HPDrainRate:6.5
CircleSize:4
OverallDifficulty:6.5
ApproachRate:5
SliderMultiplier:1.4
SliderTickRate:1

[Events]
//Background and Video events
0,0,"80195226_p0_master1200.jpg",0,0
//Break Periods
//Storyboard Layer 0 (Background)
//Storyboard Layer 1 (Fail)
//Storyboard Layer 2 (Pass)
//Storyboard Layer 3 (Foreground)
//Storyboard Layer 4 (Overlay)
//Storyboard Sound Samples

[TimingPoints]
252,297.029702970297,4,2,1,50,1,0
9756,-100,4,2,1,60,0,0
10945,-100,4,2,1,70,0,0
59806,-100,4,2,1,50,0,0
72727,-100,4,2,1,60,0,0
90549,-100,4,2,1,70,0,1
114311,-100,4,2,1,70,0,0
114459,-100,4,2,1,50,0,0

[HitObjects]
192,192,252,128,0,846:0:0:0:0:
448,192,846,1,0,0:0:0:0:
64,192,1044,1,0,0:0:0:0:
320,192,1242,1,0,0:0:0:0:
192,192,1638,128,0,2034:0:0:0:0:
448,192,2034,1,0,0:0:0:0:
64,192,2232,1,0,0:0:0:0:
192,192,2628,128,0,3222:0:0:0:0:
448,192,3222,128,0,3816:0:0:0:0:
64,192,3816,128,0,4410:0:0:0:0:
448,192,4410,1,0,0:0:0:0:
320,192,4608,128,0,5004:0:0:0:0:
64,192,5004,1,0,0:0:0:0:
192,192,5202,128,0,5598:0:0:0:0:
448,192,5598,1,0,0:0:0:0:
320,192,5994,1,0,0:0:0:0:
64,192,6192,1,0,0:0:0:0:
192,192,6390,128,0,6786:0:0:0:0:
448,192,6786,1,0,0:0:0:0:
64,192,7182,1,0,0:0:0:0:
448,192,7380,128,0,7974:0:0:0:0:
192,192,7974,128,0,8568:0:0:0:0:
320,192,8568,128,0,9162:0:0:0:0:
64,192,9162,128,0,9756:0:0:0:0:
448,192,9756,5,2,0:0:0:0:
320,192,9756,1,0,0:0:0:0:
448,192,10945,1,2,0:0:0:0:
64,192,10945,1,4,0:0:0:0:
320,192,11143,1,2,0:0:0:0:
192,192,11242,1,2,0:0:0:0:
64,192,11440,1,2,0:0:0:0:
320,192,11836,1,2,0:0:0:0:
192,192,12133,5,4,0:0:0:0:
448,192,12331,1,2,0:0:0:50:cymbal.wav
64,192,12430,1,2,0:0:0:50:cymbal.wav
320,192,12628,1,2,0:0:0:50:cymbal.wav
448,192,13024,1,2,0:0:0:0:
192,192,13321,128,2,14509:0:0:0:0:
64,192,13321,1,4,0:0:0:0:
448,192,14509,1,2,0:0:0:0:
320,192,14509,1,4,0:0:0:0:
64,192,15004,1,0,0:0:0:0:
192,192,15301,1,0,0:0:0:0:
448,192,15697,128,2,16291:0:0:0:0:
320,192,15697,1,4,0:0:0:0:
64,192,16291,128,2,16885:0:0:0:0:
192,192,16291,1,4,0:0:0:0:
448,192,16885,1,6,0:0:0:70:LR_Long Bass.wav
320,192,16885,1,6,0:0:0:0:
320,192,18073,128,0,18964:0:0:0:0:
64,192,18964,1,2,0:0:0:50:cymbal.wav
192,192,18964,1,2,0:0:0:0:
320,192,19261,1,2,0:0:0:0:
448,192,19261,1,4,0:0:0:0:
64,192,19558,1,2,0:0:0:0:
448,192,19855,1,2,0:0:0:0:
320,192,20152,1,2,0:0:0:0:
64,192,20450,1,2,0:0:0:0:
448,192,20747,1,2,0:0:0:0:
192,192,21044,1,2,0:0:0:0:
320,192,21341,1,2,0:0:0:0:
64,192,21638,1,2,0:0:0:0:
448,192,21935,1,2,0:0:0:0:
320,192,22232,1,2,0:0:0:0:
64,192,22529,1,2,0:0:0:0:
192,192,22826,1,2,0:0:0:0:
448,192,23123,1,2,0:0:0:0:
192,192,23420,1,2,0:0:0:0:
448,192,23717,1,2,0:0:0:0:
64,192,24014,1,2,0:0:0:0:
192,192,24014,1,4,0:0:0:0:
448,192,24311,1,10,0:0:0:0:
320,192,24608,1,2,0:0:0:0:
192,192,24905,1,10,0:0:0:0:
64,192,25202,1,2,0:0:0:0:
448,192,25499,1,10,0:0:0:0:
192,192,25796,1,2,0:0:0:0:
320,192,26093,1,10,0:0:0:0:
64,192,26390,1,2,0:0:0:0:
192,192,26687,1,10,0:0:0:0:
448,192,26984,1,2,0:0:0:0:
64,192,27281,1,10,0:0:0:0:
320,192,27578,128,2,28766:0:0:0:0:
448,192,27578,1,4,0:0:0:0:
64,192,28766,1,2,0:0:0:0:
192,192,28766,1,4,0:0:0:0:
448,192,29063,1,10,0:0:0:0:
320,192,29360,1,2,0:0:0:0:
64,192,29657,1,10,0:0:0:0:
192,192,29954,1,2,0:0:0:0:
320,192,30252,1,10,0:0:0:0:
448,192,30549,1,2,0:0:0:0:
192,192,30846,1,10,0:0:0:0:
448,192,31143,1,2,0:0:0:0:
64,192,31440,1,10,0:0:0:0:
320,192,31737,1,2,0:0:0:0:
192,192,32034,1,10,0:0:0:0:
448,192,32331,1,2,0:0:0:0:
320,192,32628,1,10,0:0:0:0:
64,192,32925,1,2,0:0:0:0:
448,192,33222,1,10,0:0:0:0:
192,192,33519,1,4,0:0:0:0:
320,192,33519,1,2,0:0:0:0:
64,192,33816,1,0,0:0:0:0:
448,192,34113,1,0,0:0:0:0:
320,192,34410,1,0,0:0:0:0:
64,192,34707,1,0,0:0:0:0:
192,192,35004,1,0,0:0:0:0:
448,192,35301,1,0,0:0:0:0:
64,192,35598,1,2,0:0:0:0:
320,192,35895,1,2,0:0:0:0:
192,192,35895,1,4,0:0:0:0:
64,192,36192,1,8,0:0:0:0:
448,192,36489,1,2,0:0:0:0:
320,192,36786,1,8,0:0:0:0:
192,192,37083,1,2,0:0:0:0:
448,192,37380,1,8,0:0:0:0:
64,192,37677,1,2,0:0:0:0:
320,192,37974,1,8,0:0:0:0:
192,192,38271,1,2,0:0:0:0:
64,192,38271,1,4,0:0:0:0:
320,192,38717,1,2,0:0:0:0:
448,192,39162,1,0,0:0:0:0:
64,192,39459,1,2,0:0:0:0:
448,192,39905,1,2,0:0:0:0:
192,192,40351,1,2,0:0:0:0:
64,192,40648,1,4,0:0:0:0:
448,192,40648,1,2,0:0:0:0:
320,192,40945,1,10,0:0:0:0:
64,192,41242,1,2,0:0:0:0:
448,192,41539,1,10,0:0:0:0:
320,192,41836,1,2,0:0:0:0:
64,192,42133,1,10,0:0:0:0:
448,192,42430,1,2,0:0:0:0:
192,192,42727,1,10,0:0:0:0:
64,192,43024,1,2,0:0:0:0:
320,192,43321,1,10,0:0:0:0:
64,192,43618,1,2,0:0:0:0:
448,192,43915,1,10,0:0:0:0:
192,192,44212,1,6,0:0:0:70:LR_Long Bass.wav
64,192,44212,1,6,0:0:0:0:
320,192,44707,1,0,0:0:0:0:
192,192,45103,1,0,0:0:0:0:
448,192,45400,1,4,0:0:0:0:
64,192,45400,1,2,0:0:0:0:
192,192,45697,1,10,0:0:0:0:
448,192,45994,1,2,0:0:0:0:
64,192,46192,1,0,0:0:0:0:
448,192,46588,1,2,0:0:0:0:
320,192,46588,1,4,0:0:0:0:
64,192,46885,1,10,0:0:0:0:
448,192,47182,1,2,0:0:0:0:
192,192,47479,1,10,0:0:0:0:
64,192,47776,1,2,0:0:0:0:
448,192,48073,1,10,0:0:0:0:
320,192,48370,1,0,0:0:0:0:
64,192,48667,1,10,0:0:0:0:
448,192,48964,1,2,0:0:0:0:
192,192,48964,1,4,0:0:0:0:
320,192,49261,1,0,0:0:0:70:VEC3 Snares 012.wav
64,192,49707,1,0,0:0:0:0:
320,192,49855,1,0,0:0:0:70:VEC3 Snares 012.wav
448,192,50152,1,4,0:0:0:0:
64,192,50152,1,2,0:0:0:0:
320,192,50450,1,10,0:0:0:0:
64,192,50747,1,2,0:0:0:0:
448,192,51044,1,10,0:0:0:0:
320,192,51341,1,2,0:0:0:0:
64,192,51836,1,0,0:0:0:0:
192,192,52232,1,8,0:0:0:0:
320,192,52529,5,2,0:0:0:0:
192,192,52826,1,10,0:0:0:0:
448,192,53123,1,2,0:0:0:0:
64,192,53420,1,8,0:0:0:0:
320,192,53717,1,2,0:0:0:0:
448,192,53717,1,4,0:0:0:0:
64,192,54014,1,0,0:0:0:70:VEC3 Snares 012.wav
320,192,54509,1,2,0:0:0:0:
64,192,54608,1,0,0:0:0:70:VEC3 Snares 012.wav
320,192,54905,1,4,0:0:0:0:
448,192,54905,1,2,0:0:0:0:
192,192,55697,1,0,0:0:0:0:
448,192,56093,1,0,0:0:0:0:
320,192,56588,1,0,0:0:0:0:
64,192,56984,1,10,0:0:0:0:
192,192,57281,1,2,0:0:0:0:
320,192,57281,1,4,0:0:0:0:
448,192,57578,1,0,0:0:0:0:
192,192,58073,1,0,0:0:0:0:
320,192,58469,1,0,0:0:0:0:
192,192,58964,1,0,0:0:0:0:
320,192,59360,1,6,0:0:0:0:
64,192,59657,1,4,0:0:0:70:LR_Long Bass.wav
448,192,59657,1,4,0:0:0:0:
192,192,59954,1,0,0:0:0:0:
448,192,60252,1,0,0:0:0:0:
320,192,60549,1,0,0:0:0:0:
192,192,60846,1,0,0:0:0:0:
64,192,61143,1,0,0:0:0:0:
320,192,61440,1,0,0:0:0:0:
448,192,61737,1,0,0:0:0:0:
192,192,62034,1,0,0:0:0:0:
64,192,62331,1,0,0:0:0:0:
448,192,62628,1,0,0:0:0:0:
320,192,62925,1,0,0:0:0:0:
64,192,63222,1,0,0:0:0:0:
192,192,63519,1,0,0:0:0:0:
320,192,63816,1,0,0:0:0:0:
448,192,64113,1,0,0:0:0:0:
192,192,64410,1,0,0:0:0:0:
320,192,65004,1,0,0:0:0:0:
192,192,65598,1,0,0:0:0:0:
64,192,66192,1,0,0:0:0:0:
448,192,66786,1,0,0:0:0:0:
320,192,67083,1,0,0:0:0:0:
192,192,67380,1,0,0:0:0:0:
64,192,67677,1,0,0:0:0:0:
448,192,67974,1,0,0:0:0:0:
320,192,68271,1,0,0:0:0:0:
192,192,68568,1,0,0:0:0:0:
64,192,68865,1,0,0:0:0:0:
448,192,69162,1,0,0:0:0:0:
320,192,69459,1,0,0:0:0:0:
192,192,69756,1,0,0:0:0:0:
64,192,70053,1,0,0:0:0:0:
320,192,70351,1,0,0:0:0:70:LR_Long Bass.wav
64,192,70648,1,0,0:0:0:0:
448,192,70846,1,0,0:0:0:0:
192,192,71242,1,0,0:0:0:0:
320,192,71539,128,4,72727:0:0:0:0:
64,192,72727,128,6,75103:0:0:0:70:LR_Long Bass.wav
192,192,72727,1,6,0:0:0:0:
320,192,73915,1,0,0:0:0:0:
192,192,75103,128,0,77479:0:0:0:0:
448,192,76291,1,0,0:0:0:0:
320,192,77479,128,0,79855:0:0:0:0:
64,192,78667,1,0,0:0:0:0:
448,192,79855,128,0,82232:0:0:0:0:
192,192,81044,1,0,0:0:0:0:
320,192,82232,1,0,0:0:0:0:
192,192,84608,1,0,0:0:0:0:
320,192,85796,128,0,86984:0:0:0:0:
64,192,86984,1,0,0:0:0:0:
192,192,87281,1,0,0:0:0:0:
448,192,87578,1,0,0:0:0:0:
320,192,87875,1,0,0:0:0:0:
64,192,88172,1,0,0:0:0:0:
320,192,88469,1,0,0:0:0:0:
64,192,88766,1,0,0:0:0:0:
320,192,89063,1,2,0:0:0:50:cymbal.wav
448,192,89063,1,2,0:0:0:0:
64,192,89360,128,6,89954:0:0:0:70:LR_Long Bass.wav
192,192,89360,1,6,0:0:0:0:
448,192,89954,128,0,90252:0:0:0:0:
192,192,90252,1,2,0:0:0:0:
64,192,90252,1,4,0:0:0:0:
448,192,90549,1,2,0:0:0:0:
320,192,90549,1,4,0:0:0:0:
192,192,90846,1,10,0:0:0:0:
64,192,91143,1,2,0:0:0:0:
320,192,91440,1,10,0:0:0:0:
64,192,91737,1,2,0:0:0:0:
448,192,92034,1,10,0:0:0:0:
192,192,92331,1,2,0:0:0:0:
320,192,92628,1,10,0:0:0:0:
64,192,92925,1,2,0:0:0:0:
320,192,93222,1,10,0:0:0:0:
448,192,93519,1,2,0:0:0:0:
192,192,93816,1,10,0:0:0:0:
448,192,94113,1,6,0:0:0:0:
64,192,94113,1,0,0:0:0:0:
320,192,94410,1,10,0:0:0:0:
64,192,94707,1,6,0:0:0:0:
192,192,94707,1,0,0:0:0:0:
320,192,95004,1,10,0:0:0:0:
448,192,95301,1,6,0:0:0:0:
64,192,95301,1,0,0:0:0:0:
192,192,95598,1,10,0:0:0:0:
320,192,95895,1,2,0:0:0:0:
64,192,96192,1,10,0:0:0:0:
320,192,96489,1,2,0:0:0:0:
192,192,96786,1,10,0:0:0:0:
448,192,97083,1,2,0:0:0:0:
64,192,97380,1,10,0:0:0:0:
320,192,97677,1,2,0:0:0:0:
64,192,97974,1,10,0:0:0:0:
448,192,98271,1,2,0:0:0:0:
192,192,98568,1,10,0:0:0:0:
64,192,98865,1,2,0:0:0:0:
448,192,98865,1,4,0:0:0:0:
320,192,99162,1,8,0:0:0:0:
192,192,99459,1,4,0:0:0:0:
64,192,99459,1,2,0:0:0:0:
320,192,99756,1,10,0:0:0:0:
64,192,100053,1,6,0:0:0:70:LR_Long Bass.wav
448,192,100053,1,6,0:0:0:0:
192,192,100351,1,0,0:0:0:0:
448,192,100648,1,0,0:0:0:0:
64,192,100945,1,2,0:0:0:0:
192,192,100945,1,4,0:0:0:0:
448,192,101242,1,2,0:0:0:0:
320,192,101242,1,4,0:0:0:0:
192,192,101539,1,10,0:0:0:0:
448,192,101836,1,2,0:0:0:0:
64,192,102133,1,10,0:0:0:0:
320,192,102430,1,2,0:0:0:0:
448,192,102727,1,10,0:0:0:0:
192,192,103024,1,2,0:0:0:0:
64,192,103321,1,10,0:0:0:0:
320,192,103618,1,2,0:0:0:0:
192,192,103915,1,10,0:0:0:0:
64,192,104212,1,2,0:0:0:0:
448,192,104509,1,10,0:0:0:0:
64,192,104806,1,2,0:0:0:0:
320,192,105103,1,10,0:0:0:0:
192,192,105400,1,2,0:0:0:0:
448,192,105697,1,10,0:0:0:0:
64,192,105994,1,2,0:0:0:0:
192,192,105994,1,4,0:0:0:0:
448,192,106588,1,2,0:0:0:0:
64,192,107182,1,2,0:0:0:0:
320,192,107182,1,4,0:0:0:0:
192,192,107479,1,10,0:0:0:0:
448,192,107776,1,2,0:0:0:0:
64,192,107776,1,4,0:0:0:0:
320,192,108073,1,10,0:0:0:0:
64,192,108370,1,2,0:0:0:0:
192,192,108370,1,4,0:0:0:0:
320,192,108667,1,10,0:0:0:0:
64,192,108964,1,2,0:0:0:0:
448,192,109261,1,10,0:0:0:0:
320,192,109558,128,2,110747:0:0:0:0:
192,192,109558,1,4,0:0:0:0:
64,192,110747,1,2,0:0:0:0:
192,192,110747,1,4,0:0:0:0:
448,192,111044,128,0,111341:0:0:0:0:
64,192,111341,128,0,111638:0:0:0:0:
320,192,111638,128,0,111935:0:0:0:0:
192,192,111935,128,2,113123:0:0:0:0:
64,192,111935,1,4,0:0:0:0:
448,192,113123,1,2,0:0:0:0:
320,192,113123,1,4,0:0:0:0:
64,192,113420,128,0,113717:0:0:0:0:
448,192,113717,128,0,114014:0:0:0:0:
192,192,114014,128,0,114311:0:0:0:0:
448,192,114311,1,6,0:0:0:70:LR_Long Bass.wav
320,192,114311,1,6,0:0:0:0:
320,192,116687,1,0,0:0:0:70:LR_Long Bass.wav
192,192,116885,128,0,117281:0:0:0:0:
448,192,117281,1,0,0:0:0:0:
64,192,117677,1,0,0:0:0:0:
448,192,117875,1,0,0:0:0:0:
192,192,118073,128,0,118469:0:0:0:0:
320,192,118469,1,0,0:0:0:0:
448,192,118865,1,0,0:0:0:0:
64,192,119063,128,0,119657:0:0:0:0:
448,192,119657,128,0,120252:0:0:0:0:
64,192,120252,128,0,120846:0:0:0:0:
448,192,120846,1,0,0:0:0:0:
320,192,121044,128,0,121440:0:0:0:0:
64,192,121440,1,0,0:0:0:0:
448,192,121638,1,0,0:0:0:0:
192,192,121836,1,0,0:0:0:0:
320,192,122034,1,0,0:0:0:0:
64,192,122628,128,0,125004:0:0:0:0:
