osu file format v14

[General]
AudioFilename: audio.mp3
AudioLeadIn: 0
PreviewTime: 72673
Countdown: 0
SampleSet: Soft
StackLeniency: 0.7
Mode: 2
LetterboxInBreaks: 0
WidescreenStoryboard: 0

[Editor]
Bookmarks: 1873,21073,40273,49873,55873,72673,91873,101473,112273,115873
DistanceSpacing: 0.8
BeatDivisor: 16
GridSize: 4
TimelineZoom: 7.299995

[Metadata]
Title:The Endless for Traveler
TitleUnicode:The Endless for Traveler
Artist:Se-U-Ra
ArtistUnicode:Se-U-Ra
Creator:JBHyperion
Version:Adversity
Source:Dynamix
Tags:Traveller electronic instrumental artcore orchestral piano rhythm game featured artist FA Mappers Guild MPG osu!catch World Cup 2022 CWC grand finals GF hard rock HR Sorceress AJamez Jemzuu -Rustyy
BeatmapID:3677173
BeatmapSetID:1794190

[Difficulty]
HPDrainRate:6
CircleSize:5.2
OverallDifficulty:9.5
ApproachRate:9.5
SliderMultiplier:1.8
SliderTickRate:2

[Events]
//Background and Video events
0,0,"winter-4399912_1920.jpg",0,0
//Break Periods
//Storyboard Layer 0 (Background)
//Storyboard Layer 1 (Fail)
//Storyboard Layer 2 (Pass)
//Storyboard Layer 3 (Foreground)
//Storyboard Layer 4 (Overlay)
//Storyboard Sound Samples

[TimingPoints]
1873,300,4,2,1,70,1,0
11473,-100,4,2,2,70,0,0
12523,-100,4,2,1,80,0,0
12673,-100,4,2,2,70,0,0
16273,-100,4,2,2,75,0,0
17473,-100,4,2,2,80,0,0
18073,-100,4,2,2,85,0,0
18523,-100,4,2,2,80,0,0
18973,-100,4,2,0,40,0,0
19123,-100,4,2,0,35,0,0
19273,-100,4,2,0,30,0,0
19423,-100,4,2,0,25,0,0
19573,-100,4,2,0,20,0,0
19723,-100,4,2,0,15,0,0
19873,-100,4,2,0,10,0,0
21073,-100,4,2,2,80,0,0
22723,-100,4,2,1,100,0,0
22873,-100,4,2,10,50,0,0
23023,-100,4,2,2,80,0,0
23923,-100,4,2,1,100,0,0
24073,-100,4,2,10,50,0,0
24223,-100,4,2,2,80,0,0
24673,-100,4,2,77,80,0,0
24823,-100,4,2,2,80,0,0
25873,-90.9090909090909,4,2,2,80,0,0
26173,-100,4,2,2,80,0,0
26923,-100,4,2,1,100,0,0
27073,-100,4,2,10,50,0,0
27223,-100,4,2,2,80,0,0
27523,-100,4,2,1,100,0,0
27673,-100,4,2,10,50,0,0
27823,-100,4,2,2,80,0,0
29923,-100,4,2,1,100,0,0
30073,-100,4,2,2,80,0,0
30448,-100,4,2,1,80,0,0
30673,-75.187969924812,4,2,2,80,0,0
30973,-100,4,2,2,80,0,0
33523,-100,4,2,1,100,0,0
33673,-100,4,2,10,50,0,0
33823,-100,4,2,2,80,0,0
34273,-100,4,2,77,80,0,0
34423,-100,4,2,2,80,0,0
35173,-66.6666666666667,4,2,2,80,0,0
35473,-66.6666666666667,4,2,2,85,0,0
35773,-100,4,2,2,85,0,0
35923,-100,4,2,1,100,0,0
36073,-100,4,2,2,85,0,0
37123,-100,4,2,1,100,0,0
37273,-100,4,2,2,85,0,0
37423,-100,4,2,1,100,0,0
37573,-100,4,2,2,85,0,0
37873,-100,4,2,2,90,0,0
40273,-100,4,2,2,100,0,0
40423,-100,4,2,1,100,0,0
40723,-100,4,2,2,80,0,0
41293,-100,4,2,78,80,0,0
41473,-100,4,2,2,80,0,0
41773,-100,4,2,78,80,0,0
42073,-100,4,2,2,80,0,0
42373,-66.6666666666667,4,2,2,80,0,0
42523,-100,4,2,2,80,0,0
43573,-100,4,2,78,80,0,0
43723,-100,4,2,2,80,0,0
44023,-40,4,2,78,80,0,0
45073,-100,4,2,2,85,0,0
45973,-100,4,2,78,85,0,0
46273,-100,4,2,2,85,0,0
46573,-100,4,2,78,85,0,0
46873,-100,4,2,2,85,0,0
46948,-100,4,2,78,85,0,0
47473,-100,4,2,2,85,0,0
48073,-100,4,2,78,85,0,0
49273,-100,4,2,2,90,0,0
49873,-100,4,2,2,80,0,0
49973,-100,4,2,1,80,0,0
52323,-100,4,2,1,60,0,0
52873,-100,4,2,1,80,0,0
52923,-100,4,2,1,60,0,0
53173,-100,4,2,1,80,0,0
53223,-100,4,2,1,60,0,0
53473,-100,4,2,1,80,0,0
54723,-100,4,2,1,60,0,0
55273,-100,4,2,1,80,0,0
55323,-100,4,2,1,60,0,0
55573,-100,4,2,1,80,0,0
55623,-100,4,2,1,60,0,0
55873,-100,4,2,2,70,0,0
56023,-100,4,2,1,70,0,0
56473,-100,4,2,2,55,0,0
56773,-100,4,2,1,70,0,0
57073,-100,4,2,2,70,0,0
57173,-100,4,2,1,70,0,0
57673,-100,4,2,2,55,0,0
57973,-100,4,2,1,70,0,0
58273,-100,4,2,2,70,0,0
58573,-100,4,2,1,70,0,0
58873,-66.6666666666667,4,2,2,60,0,0
59173,-41.6666666666667,4,2,1,70,0,0
59473,-100,4,2,2,70,0,0
59573,-100,4,2,1,70,0,0
60673,-100,4,2,2,80,0,0
61573,-33.3333333333333,4,2,2,80,0,0
61723,-100,4,2,2,80,0,0
63973,-33.3333333333333,4,2,2,80,0,0
64123,-100,4,2,2,80,0,0
65173,-100,4,2,1,90,0,0
65473,-100,4,2,2,70,0,0
69073,-80,4,2,2,60,0,0
69673,-100,4,2,2,40,0,0
69973,-80,4,2,2,50,0,0
70273,-66.6666666666667,4,2,2,70,0,0
70423,-100,4,2,1,80,0,0
70723,-100,4,2,1,80,0,0
71023,-100,4,2,1,80,0,0
71473,-100,4,2,2,90,0,0
71660,-66.6666666666667,4,2,2,90,0,0
71698,-100,4,2,2,90,0,0
71960,-66.6666666666667,4,2,2,90,0,0
71998,-100,4,2,2,90,0,0
72373,-25,4,2,77,80,0,0
72673,-100,4,2,2,90,0,1
73723,-40,4,2,77,100,0,1
73873,-100,4,2,10,70,0,1
74023,-100,4,2,2,90,0,1
74623,-100,4,2,1,100,0,1
74773,-100,4,2,2,90,0,1
75673,-41.6666666666667,4,2,77,100,0,1
75879,-41.6666666666667,4,2,77,20,0,1
75898,-62.5,4,2,2,90,0,1
76104,-62.5,4,2,2,20,0,1
76123,-100,4,2,2,90,0,1
76273,-100,4,2,2,90,0,1
78523,-40,4,2,77,100,0,1
78673,-100,4,2,10,70,0,1
78823,-100,4,2,2,90,0,1
79273,-41.6666666666667,4,2,77,100,0,1
79479,-41.6666666666667,4,2,77,20,0,1
79498,-62.5,4,2,2,90,0,1
79704,-62.5,4,2,2,20,0,1
79723,-76.9230769230769,4,2,2,90,0,1
79873,-100,4,2,2,90,0,1
80398,-100,4,2,1,90,0,1
80773,-100,4,2,2,90,0,1
81448,-76.9230769230769,4,2,2,90,0,1
82273,-100,4,2,2,90,0,1
83323,-40,4,2,77,100,0,1
83473,-100,4,2,10,90,0,1
83623,-100,4,2,2,90,0,1
84223,-100,4,2,1,100,0,1
84373,-100,4,2,2,90,0,1
85273,-66.6666666666667,4,2,77,100,0,1
85479,-66.6666666666667,4,2,77,20,0,1
85498,-41.6666666666667,4,2,2,90,0,1
85704,-41.6666666666667,4,2,2,20,0,1
85723,-100,4,2,2,90,0,1
85873,-100,4,2,2,90,0,1
86173,-28.5714285714286,4,2,77,100,0,1
86473,-100,4,2,2,90,0,1
88123,-50,4,2,77,100,0,1
88273,-100,4,2,2,90,0,1
88873,-41.6666666666667,4,2,77,100,0,1
89023,-100,4,2,2,90,0,1
90673,-100,4,2,2,80,0,0
90823,-100,4,2,1,80,0,0
91273,-100,4,2,2,80,0,0
91873,-100,4,2,2,80,0,0
92893,-100,4,2,78,80,0,0
93073,-100,4,2,2,80,0,0
93373,-100,4,2,78,80,0,0
93673,-41.6666666666667,4,2,2,80,0,0
93823,-100,4,2,2,80,0,0
94423,-100,4,2,1,80,0,0
94873,-100,4,2,2,80,0,0
95173,-100,4,2,78,80,0,0
95623,-40,4,2,78,80,0,0
96073,-30.7692307692308,4,2,78,80,0,0
96373,-25,4,2,78,80,0,0
96523,-100,4,2,2,80,0,0
96673,-100,4,2,2,85,0,0
96823,-100,4,2,1,85,0,0
96973,-100,4,2,2,85,0,0
97693,-100,4,2,78,85,0,0
97873,-100,4,2,2,85,0,0
98173,-100,4,2,78,85,0,0
98473,-100,4,2,2,85,0,0
99973,-100,4,2,78,85,0,0
100123,-100,4,2,2,85,0,0
100423,-100,4,2,78,85,0,0
100573,-100,4,2,2,85,0,0
101623,-100,4,2,0,50,0,0
103123,-100,4,2,2,80,0,0
103723,-80,4,2,2,80,0,0
103873,-100,4,2,2,90,0,1
104473,-62.5,4,2,77,100,0,1
104698,-76.9230769230769,4,2,2,90,0,1
104923,-100,4,2,2,90,0,1
107473,-100,4,2,2,70,0,1
107773,-100,4,2,2,90,0,1
108673,-76.9230769230769,4,2,2,90,0,1
109573,-100,4,2,2,90,0,1
110248,-55.5555555555556,4,2,2,90,0,1
110454,-55.5555555555556,4,2,2,20,0,1
110473,-41.6666666666667,4,2,2,90,0,1
110679,-41.6666666666667,4,2,2,20,0,1
110698,-62.5,4,2,2,90,0,1
110904,-62.5,4,2,2,20,0,1
110923,-62.5,4,2,2,90,0,1
111129,-62.5,4,2,2,20,0,1
111148,-41.6666666666667,4,2,2,90,0,1
111354,-41.6666666666667,4,2,2,20,0,1
111373,-62.5,4,2,2,90,0,1
111579,-62.5,4,2,2,20,0,1
111598,-62.5,4,2,2,90,0,1
111804,-62.5,4,2,2,20,0,1
111823,-62.5,4,2,2,90,0,1
112029,-62.5,4,2,2,20,0,1
112048,-41.6666666666667,4,2,2,90,0,1
112198,-41.6666666666667,4,2,2,20,0,1
112273,-100,4,2,2,80,0,0
112348,-100,4,2,3,70,0,0
113473,-100,4,2,1,70,0,0
113573,-100,4,2,3,70,0,0
114073,-100,4,2,1,70,0,0
114173,-100,4,2,3,70,0,0
114573,-100,4,2,1,70,0,0
115273,-100,4,2,2,100,0,0
115291,-100,4,2,2,40,0,0
115873,-100,4,2,2,35,0,0
116173,-100,4,2,2,27,0,0
116473,-100,4,2,2,20,0,0
116773,-100,4,2,2,12,0,0
117073,-100,4,2,2,5,0,0

[Colours]
Combo1 : 80,80,80
Combo2 : 180,255,255
Combo3 : 200,200,200
Combo4 : 80,160,160

[HitObjects]
336,252,1873,6,0,P|440:144|309:36,1,360,2|8,0:0|0:0,0:0:0:0:
218,36,2623,1,0,0:0:0:0:
316,36,2773,1,0,0:0:0:0:
152,36,2923,6,0,P|60:108|152:192,1,270,2|0,0:0|0:0,0:0:0:0:
328,192,3673,1,8,0:0:0:0:
168,192,3973,2,0,L|264:192,1,90,0|0,0:0|0:0,0:0:0:0:
32,192,4273,6,0,P|154:77|258:193,1,360,2|8,0:0|0:0,0:0:0:0:
176,192,5023,1,0,0:0:0:0:
176,112,5173,1,0,0:0:0:0:
340,36,5323,6,0,P|432:108|340:192,1,270,2|0,0:0|0:0,0:0:0:0:
76,192,6073,2,0,L|72:372,1,180,8|0,0:0|0:0,0:0:0:0:
476,192,6673,6,0,L|272:192,1,180,2|0,1:2|0:0,0:0:0:0:
208,192,7123,1,0,1:0:0:0:
372,124,7273,2,0,L|376:32,1,90,8|0,0:0|0:0,0:0:0:0:
152,32,7573,2,0,L|244:32,1,90,2|0,0:0|0:0,0:0:0:0:
20,32,7873,6,0,P|16:100|92:176,1,180,2|0,1:2|0:0,0:0:0:0:
180,192,8323,1,0,1:0:0:0:
392,192,8473,2,0,L|256:192,2,135,8|2|0,0:0|0:0|0:0,0:0:0:0:
160,192,9073,6,0,P|104:132|160:64,1,180,2|0,1:2|0:0,0:0:0:0:
244,64,9523,1,0,1:0:0:0:
80,8,9673,2,0,L|76:116,1,90,8|0,0:0|0:0,0:0:0:0:
412,36,10273,6,0,L|249:130,1,180,2|0,1:2|0:0,0:0:0:0:
336,80,10723,1,0,1:0:0:0:
64,36,10873,2,0,L|152:64,1,90,4|0,1:2|0:0,0:0:0:0:
64,36,11173,1,0,0:0:0:0:
460,40,11473,6,0,P|508:96|412:232,1,270,2|0,0:0|0:0,0:0:0:0:
248,192,12073,1,8,0:0:0:0:
348,192,12223,1,0,0:0:0:0:
256,192,12373,1,0,0:0:0:0:
411,231,12523,6,0,P|400:144|308:132,1,180,2|0,0:0|0:0,0:0:0:0:
156,192,12973,1,2,0:0:0:0:
424,192,13273,2,0,L|428:304,1,90,8|0,0:0|0:0,0:0:0:0:
332,192,13573,2,0,L|424:192,1,90,0|0,0:0|0:0,0:0:0:0:
152,192,13873,6,0,B|60:192|60:192|12:120|12:120|32:28,1,270,2|0,0:0|0:0,0:0:0:0:
184,8,14473,2,0,L|284:8,1,90,8|0,0:0|0:0,0:0:0:0:
176,8,14773,1,0,0:0:0:0:
332,8,14923,1,2,0:0:0:0:
84,152,15073,6,0,L|201:84,2,135,2|2|2,0:0|0:0|0:0,0:0:0:0:
320,192,15673,1,8,0:0:0:0:
408,192,15823,1,2,0:0:0:0:
408,192,15973,1,2,0:0:0:0:
320,192,16123,1,2,0:0:0:0:
96,192,16273,6,0,L|16:238,3,90,10|2|2|2,0:0|0:0|0:0|0:0,0:0:0:0:
180,248,16873,2,0,L|100:294,1,90,2|2,0:0|0:0,0:0:0:0:
264,192,17173,2,0,L|343:238,1,90,2|2,0:0|0:0,0:0:0:0:
88,192,17473,6,0,L|40:192,1,45,10|2,0:0|0:0,0:0:0:0:
44,144,17623,2,0,L|92:144,1,45,2|2,0:0|0:0,0:0:0:0:
144,84,17773,2,0,L|100:84,1,45,8|8,0:0|0:0,0:0:0:0:
148,84,17923,2,0,L|196:84,1,45,2|2,0:0|0:0,0:0:0:0:
384,84,18073,2,0,L|388:188,1,90,6|0,0:0|0:0,0:0:0:0:
136,192,18373,1,6,0:0:0:0:
424,84,18523,5,0,0:0:0:0:
256,192,18673,12,0,19873,0:0:0:0:
424,192,21073,6,0,P|476:136|416:72,1,180,6|2,0:0|0:0,0:0:0:0:
328,72,21523,1,0,0:0:0:0:
184,60,21673,2,0,L|180:164,1,90,2|0,0:0|0:0,0:0:0:0:
336,192,21973,2,0,L|236:192,1,90,2|0,0:0|0:0,0:0:0:0:
480,196,22273,6,0,L|296:196,1,180,2|2,0:0|0:0,0:0:0:0:
156,192,22723,2,0,B|156:284|156:284|240:328,1,180,2|0,0:0|0:0,0:0:0:0:
78,237,23173,2,0,L|157:191,1,90,2|0,0:0|0:0,0:0:0:0:
384,192,23473,6,0,B|384:104|384:104|300:64,1,180,2|2,0:0|0:0,0:0:0:0:
156,64,23923,2,0,P|100:84|80:192,1,180,2|0,0:0|0:0,0:0:0:0:
188,192,24373,1,2,0:0:0:0:
88,192,24523,1,0,0:0:0:0:
244,192,24673,6,0,B|336:192|336:192|336:284,1,180,6|2,0:0|0:0,0:0:0:0:
244,280,25123,1,0,0:0:0:0:
100,280,25273,2,0,L|96:372,1,90,2|0,0:0|0:0,0:0:0:0:
248,280,25573,2,0,L|252:180,1,90,2|0,0:0|0:0,0:0:0:0:
480,192,25873,6,0,P|500:128|408:56,1,198.000006042481,6|2,0:0|0:0,0:0:0:0:
312,56,26323,1,0,0:0:0:0:
164,60,26473,2,0,L|160:176,1,90,2|0,0:0|0:0,0:0:0:0:
308,192,26773,1,2,0:0:0:0:
152,152,26923,6,0,P|96:216|152:272,1,180,2|0,0:0|0:0,0:0:0:0:
296,272,27373,1,2,0:0:0:0:
60,352,27523,2,0,L|240:352,1,180,2|0,0:0|0:0,0:0:0:0:
384,272,27973,1,2,0:0:0:0:
228,272,28123,1,0,0:0:0:0:
476,272,28273,6,0,L|480:176,1,90,6|2,0:0|0:0,0:0:0:0:
360,164,28573,2,0,L|356:56,1,90,2|2,0:0|0:0,0:0:0:0:
212,76,28873,1,6,0:0:0:0:
368,164,29023,1,2,0:0:0:0:
204,76,29173,2,0,L|200:184,1,90,2|2,0:0|0:0,0:0:0:0:
440,304,29473,6,0,L|440:252,1,45,2|2,0:0|0:0,0:0:0:0:
372,240,29623,2,0,L|372:296,1,45,2|2,0:0|0:0,0:0:0:0:
228,264,29773,2,0,L|136:264,1,90,2|2,0:0|0:0,0:0:0:0:
292,192,30073,2,0,L|296:292,1,90,2|0,0:0|0:0,0:0:0:0:
128,264,30373,1,2,0:0:0:0:
84,263,30448,1,2,0:0:0:0:
84,218,30523,1,2,0:0:0:0:
128,216,30598,1,2,0:0:0:0:
296,192,30673,6,0,B|417:192|417:192|416:72,1,239.399990137024,6|2,0:0|0:0,0:0:0:0:
328,76,31123,1,0,0:0:0:0:
180,32,31273,2,0,L|176:152,1,90,2|0,0:0|0:0,0:0:0:0:
320,192,31573,1,2,0:0:0:0:
76,192,31723,1,0,0:0:0:0:
212,192,31873,6,0,L|216:304,1,90,2|0,0:0|0:0,0:0:0:0:
460,192,32173,1,2,0:0:0:0:
320,192,32323,1,0,0:0:0:0:
452,192,32473,2,0,L|456:304,1,90,2|0,0:0|0:0,0:0:0:0:
312,340,32773,2,0,L|416:340,1,90,2|0,0:0|0:0,0:0:0:0:
168,320,33073,6,0,L|68:320,1,90,2|0,0:0|0:0,0:0:0:0:
324,192,33373,1,2,0:0:0:0:
180,192,33523,2,0,P|124:144|180:76,1,180,2|0,0:0|0:0,0:0:0:0:
328,44,33973,2,0,L|236:44,1,90,2|0,0:0|0:0,0:0:0:0:
384,44,34273,6,0,L|388:152,1,90,6|0,0:0|0:0,0:0:0:0:
128,76,34573,2,0,L|124:176,1,90,2|0,0:0|0:0,0:0:0:0:
180,192,34798,1,0,0:0:0:0:
336,192,34873,2,0,L|440:192,1,90,2|0,0:0|0:0,0:0:0:0:
172,296,35173,2,0,L|36:296,1,135.000005149842,2|0,0:0|0:0,0:0:0:0:
392,356,35473,6,0,P|476:288|472:264,1,135.000005149842,6|0,0:0|0:0,0:0:0:0:
448,212,35698,1,0,0:0:0:0:
386,191,35773,1,2,0:0:0:0:
164,192,35923,2,0,L|160:80,1,90,2|2,0:0|0:0,0:0:0:0:
248,80,36223,1,0,0:0:0:0:
100,192,36373,1,2,0:0:0:0:
336,192,36523,1,0,0:0:0:0:
188,192,36673,6,0,L|184:96,1,90,2|0,0:0|0:0,0:0:0:0:
432,44,36973,1,2,0:0:0:0:
280,44,37123,2,0,L|209:103,1,90,2|2,0:0|0:0,0:0:0:0:
364,88,37423,2,0,L|376:192,1,90,2|2,0:0|0:0,0:0:0:0:
284,192,37723,1,0,0:0:0:0:
48,192,37873,5,6,0:0:0:0:
176,192,38023,1,2,0:0:0:0:
40,192,38173,2,0,L|36:300,1,90,2|2,0:0|0:0,0:0:0:0:
364,192,38473,1,2,0:0:0:0:
228,192,38623,1,2,0:0:0:0:
372,192,38773,1,2,0:0:0:0:
220,192,38923,1,2,0:0:0:0:
480,192,39073,5,2,0:0:0:0:
488,140,39148,1,2,0:0:0:0:
464,92,39223,1,2,0:0:0:0:
412,76,39298,1,2,0:0:0:0:
216,32,39373,2,0,L|212:96,1,45,2|2,0:0|0:0,0:0:0:0:
384,192,39523,2,0,L|380:136,1,45,2|2,0:0|0:0,0:0:0:0:
156,32,39673,2,0,L|152:144,1,90,2|0,0:0|0:0,0:0:0:0:
296,80,39973,2,0,P|328:128|296:192,1,135,6|0,0:0|0:0,0:0:0:0:
124,192,40273,5,6,0:0:0:0:
348,192,40423,1,2,0:0:0:0:
260,192,40573,1,0,3:0:0:0:
368,192,40723,1,2,0:0:0:0:
224,248,40873,2,0,L|216:224,4,22.5,8|0|0|0|0,0:0|0:0|0:0|0:0|0:0,0:0:0:0:
488,192,41173,2,0,L|492:148,1,36,2|2,0:0|0:0,0:0:0:0:
448,128,41293,1,8,0:0:0:0:
276,192,41473,6,0,P|262:149|276:108,1,90,2|0,0:0|0:0,0:0:0:0:
336,88,41698,1,2,0:0:0:0:
192,40,41773,2,0,L|192:52,1,11.25,8|0,0:0|0:0,0:0:0:0:
320,88,41923,2,0,L|320:104,1,11.25,10|0,0:0|0:0,0:0:0:0:
80,64,42073,2,0,P|64:104|84:152,1,90,8|0,0:0|0:0,0:0:0:0:
228,192,42373,2,0,B|92:192|92:192|92:260,1,202.500007724762,2|0,0:0|0:0,0:0:0:0:
256,256,42673,5,6,0:0:0:0:
40,256,42823,1,0,0:0:0:0:
40,256,42973,1,0,3:0:0:0:
144,192,43123,1,2,0:0:0:0:
288,192,43273,2,0,L|296:168,4,22.5,8|0|0|0|0,0:0|0:0|0:0|0:0|0:0,0:0:0:0:
44,192,43573,1,8,0:0:0:0:
180,192,43723,1,2,0:0:0:0:
316,192,43873,5,2,0:0:0:0:
96,100,44023,2,0,L|320:100,2,225,8|8|8,0:0|0:0|0:0,0:0:0:0:
364,192,44473,2,0,L|140:192,1,225,4|0,0:0|0:0,0:0:0:0:
408,272,44773,2,0,L|184:272,1,225,4|0,0:0|0:0,0:0:0:0:
436,272,45073,5,6,0:0:0:0:
116,272,45223,1,0,0:0:0:0:
204,272,45373,2,0,L|208:180,1,90,0|0,3:0|3:0,0:0:0:0:
344,192,45673,2,0,L|352:160,4,22.5,8|0|0|0|0,0:0|0:0|0:0|0:0|0:0,0:0:0:0:
96,192,45973,2,0,L|54:166,2,40,2|2|8,0:0|0:0|0:0,0:0:0:0:
244,192,46273,5,2,0:0:0:0:
96,192,46423,1,2,0:0:0:0:
244,192,46498,1,2,0:0:0:0:
392,192,46573,1,8,0:0:0:0:
128,192,46723,1,8,0:0:0:0:
392,192,46873,1,8,0:0:0:0:
328,192,46948,1,2,0:0:0:0:
392,192,47023,1,2,0:0:0:0:
148,192,47173,2,0,L|144:96,1,90,10|0,0:0|0:0,0:0:0:0:
392,192,47473,5,6,0:0:0:0:
248,192,47623,1,0,0:0:0:0:
348,192,47773,2,0,L|352:304,1,90,0|0,3:0|0:0,0:0:0:0:
124,316,48073,2,0,L|24:316,1,90,8|0,0:0|3:0,0:0:0:0:
180,232,48373,1,0,3:0:0:0:
36,192,48523,2,0,L|36:176,1,11.25,2|0,0:0|0:0,0:0:0:0:
180,232,48673,2,0,L|180:216,1,11.25,2|0,0:0|0:0,0:0:0:0:
392,192,48823,5,8,0:0:0:0:
256,192,48973,2,0,L|256:180,1,11.25,2|0,0:0|0:0,0:0:0:0:
44,104,49123,1,8,0:0:0:0:
328,32,49273,2,0,P|364:72|328:136,1,135,2|0,0:0|0:0,0:0:0:0:
168,192,49573,2,0,L|72:192,1,90,2|0,0:0|0:0,0:0:0:0:
128,192,49798,1,0,0:0:0:0:
296,144,49873,6,0,L|356:144,2,60,6|0|0,0:0|0:0|0:0,0:0:0:0:
212,144,50173,1,0,0:0:0:0:
272,144,50273,1,0,0:0:0:0:
332,144,50373,1,0,0:0:0:0:
247,77,50473,2,0,L|187:77,2,60,2|0|0,0:0|0:0|0:0,0:0:0:0:
404,28,50773,2,0,L|408:96,1,60,8|0,0:0|0:0,0:0:0:0:
340,136,50973,1,0,0:0:0:0:
136,192,51073,6,0,L|132:264,1,60,2|0,0:0|0:0,0:0:0:0:
200,280,51273,1,0,0:0:0:0:
372,248,51373,1,0,0:0:0:0:
296,248,51473,1,0,0:0:0:0:
220,248,51573,1,0,0:0:0:0:
424,328,51673,5,2,0:0:0:0:
444,260,51773,1,0,0:0:0:0:
411,198,51873,1,0,0:0:0:0:
232,184,51973,2,0,L|168:184,1,60,8|0,0:0|0:0,0:0:0:0:
172,184,52173,1,0,0:0:0:0:
400,196,52273,5,2,0:0:0:0:
432,184,52323,1,0,0:0:0:0:
452,156,52373,1,0,0:0:0:0:
456,120,52423,1,0,0:0:0:0:
444,80,52473,1,0,0:0:0:0:
353,22,52573,1,0,0:0:0:0:
320,40,52623,1,0,0:0:0:0:
300,72,52673,1,0,0:0:0:0:
300,108,52723,1,0,0:0:0:0:
324,136,52773,1,0,0:0:0:0:
420,260,52873,5,2,0:0:0:0:
436,292,52923,1,0,0:0:0:0:
432,328,52973,1,0,0:0:0:0:
412,356,53023,1,0,0:0:0:0:
376,364,53073,1,0,0:0:0:0:
280,340,53173,1,8,0:0:0:0:
252,320,53223,1,0,0:0:0:0:
244,284,53273,1,0,0:0:0:0:
260,252,53323,1,0,0:0:0:0:
292,240,53373,1,0,0:0:0:0:
136,192,53473,6,0,L|84:162,2,60,2|0|0,0:0|0:0|0:0,0:0:0:0:
304,128,53773,2,0,L|252:98,2,60,0|0|0,0:0|0:0|0:0,0:0:0:0:
128,24,54073,2,0,L|124:84,1,60,2|0,0:0|0:0,0:0:0:0:
188,112,54273,1,0,0:0:0:0:
352,192,54373,1,8,0:0:0:0:
280,192,54473,1,0,0:0:0:0:
208,192,54573,1,0,0:0:0:0:
48,336,54673,5,2,0:0:0:0:
36,300,54723,1,0,0:0:0:0:
40,260,54773,1,0,0:0:0:0:
60,228,54823,1,0,0:0:0:0:
96,208,54873,1,0,0:0:0:0:
192,192,54973,1,0,0:0:0:0:
224,168,55023,1,0,0:0:0:0:
232,128,55073,1,0,0:0:0:0:
212,96,55123,1,0,0:0:0:0:
176,84,55173,1,0,0:0:0:0:
80,88,55273,5,2,0:0:0:0:
60,120,55323,1,0,0:0:0:0:
68,160,55373,1,0,0:0:0:0:
96,188,55423,1,0,0:0:0:0:
132,192,55473,1,0,0:0:0:0:
232,280,55573,2,0,L|232:244,1,30,8|0,0:0|0:0,0:0:0:0:
180,304,55673,2,0,L|180:264,1,30,0|0,0:0|0:0,0:0:0:0:
232,250,55773,1,0,0:0:0:0:
416,192,55873,6,0,P|427:152|412:121,1,60,6|0,0:0|0:0,0:0:0:0:
368,88,56073,1,0,0:0:0:0:
304,40,56173,2,0,L|302:102,1,60,0|0,1:0|0:0,0:0:0:0:
368,88,56373,1,0,0:0:0:0:
200,40,56473,1,8,0:0:0:0:
150,94,56573,1,0,0:0:0:0:
198,151,56673,1,0,0:0:0:0:
368,244,56773,2,0,L|468:244,1,90,2|0,0:0|0:0,0:0:0:0:
412,244,56998,1,0,0:0:0:0:
260,336,57073,6,0,L|200:336,1,60,2|0,0:0|0:0,0:0:0:0:
188,336,57273,1,0,0:0:0:0:
380,236,57373,2,0,L|320:236,2,60,0|0|0,1:0|0:0|0:0,0:0:0:0:
176,160,57673,2,0,L|236:160,2,60,8|0|0,0:0|0:0|0:0,0:0:0:0:
392,164,57973,2,0,L|396:92,1,60,0|0,1:0|0:0,0:0:0:0:
336,76,58173,1,0,0:0:0:0:
132,24,58273,5,2,0:0:0:0:
73,71,58373,1,0,0:0:0:0:
108,136,58473,1,0,0:0:0:0:
268,264,58573,2,0,L|360:264,1,90,2|0,0:0|0:0,0:0:0:0:
358,264,58798,1,0,0:0:0:0:
224,192,58873,2,0,L|360:192,1,135.000005149842,8|0,0:0|0:0,0:0:0:0:
359,192,59098,1,0,0:0:0:0:
144,124,59173,2,0,L|368:124,1,215.999993408203,2|0,0:0|0:0,0:0:0:0:
360,124,59398,1,0,0:0:0:0:
216,264,59473,5,2,0:0:0:0:
160,264,59573,1,0,0:0:0:0:
104,264,59673,1,0,0:0:0:0:
216,264,59773,1,0,1:0:0:0:
160,264,59873,1,0,0:0:0:0:
104,264,59973,1,0,0:0:0:0:
324,192,60073,2,0,L|388:192,2,60,8|0|0,0:0|0:0|0:0,0:0:0:0:
228,192,60373,2,0,L|224:128,1,60,0|0,1:0|0:0,0:0:0:0:
288,104,60573,1,0,0:0:0:0:
60,192,60673,6,0,L|56:92,1,90,6|0,0:0|0:0,0:0:0:0:
200,328,60973,2,0,L|204:224,1,90,2|0,0:0|0:0,0:0:0:0:
456,192,61273,2,0,L|360:192,1,90,2|0,0:0|0:0,0:0:0:0:
460,192,61573,2,0,L|188:192,1,270.000010299683,10|0,0:0|0:0,0:0:0:0:
460,192,61873,6,0,L|464:92,1,90,2|0,0:0|0:0,0:0:0:0:
312,192,62173,2,0,L|300:140,3,45,2|0|0|0,0:0|0:0|0:0|0:0,0:0:0:0:
132,192,62473,2,0,L|128:96,1,90,2|0,0:0|0:0,0:0:0:0:
380,192,62773,2,0,L|472:192,1,90,10|0,0:0|0:0,0:0:0:0:
180,192,63073,6,0,L|88:192,1,90,2|0,0:0|0:0,0:0:0:0:
136,192,63298,1,0,0:0:0:0:
312,192,63373,2,0,L|360:192,1,45,2|0,0:0|0:0,0:0:0:0:
356,148,63523,2,0,L|308:148,1,45,0|0,0:0|0:0,0:0:0:0:
132,88,63673,2,0,L|236:88,1,90,2|0,0:0|0:0,0:0:0:0:
132,88,63973,2,0,L|404:88,1,270.000010299683,10|0,0:0|0:0,0:0:0:0:
164,88,64273,5,6,0:0:0:0:
120,100,64348,1,0,0:0:0:0:
108,144,64423,1,0,0:0:0:0:
140,176,64498,1,0,0:0:0:0:
288,268,64573,2,0,L|380:268,1,90,2|0,0:0|0:0,0:0:0:0:
132,232,64873,2,0,P|92:276|132:328,1,135,2|0,0:0|0:0,0:0:0:0:
228,348,65173,2,0,L|232:296,1,45,2|0,0:0|0:0,0:0:0:0:
160,232,65323,2,0,L|116:232,1,45,0|0,0:0|0:0,0:0:0:0:
276,192,65473,6,0,L|184:192,3,90,6|2|10|2,0:0|0:0|0:0|0:0,0:0:0:0:
329,192,66073,2,0,L|333:96,1,90,2|2,0:0|0:0,0:0:0:0:
116,96,66373,2,0,L|24:96,1,90,10|2,0:0|0:0,0:0:0:0:
260,192,66673,6,0,L|312:192,1,45,2|0,0:0|0:0,0:0:0:0:
260,192,66823,2,0,L|208:192,1,45,2|0,0:0|0:0,0:0:0:0:
377,192,66973,2,0,L|377:140,1,45,10|0,0:0|0:0,0:0:0:0:
305,192,67123,2,0,L|305:240,1,45,2|0,0:0|0:0,0:0:0:0:
468,192,67273,2,0,L|468:148,1,45,2|0,0:0|0:0,0:0:0:0:
396,48,67423,2,0,L|348:48,1,45,2|0,0:0|0:0,0:0:0:0:
188,116,67573,2,0,L|236:116,1,45,10|0,0:0|0:0,0:0:0:0:
304,192,67723,2,0,L|304:136,1,45,2|0,0:0|0:0,0:0:0:0:
140,192,67873,6,0,L|96:192,1,45,2|2,0:0|0:0,0:0:0:0:
168,192,68023,2,0,L|216:192,1,45,2|2,0:0|0:0,0:0:0:0:
416,192,68173,2,0,L|364:192,3,45,10|2|2|2,0:0|0:0|0:0|0:0,0:0:0:0:
192,312,68473,2,0,L|148:312,1,45,2|2,0:0|0:0,0:0:0:0:
220,312,68623,2,0,L|220:364,1,45,2|2,0:0|0:0,0:0:0:0:
40,312,68773,2,0,L|40:268,1,45,10|2,0:0|0:0,0:0:0:0:
220,192,68923,2,0,L|264:192,1,45,2|2,0:0|0:0,0:0:0:0:
456,192,69073,6,0,L|400:192,3,56.25,6|2|2|2,0:0|0:0|0:0|0:0,0:0:0:0:
220,192,69373,2,0,L|164:192,2,56.25,10|2|2,0:0|0:0|0:0,0:0:0:0:
399,192,69598,1,2,0:0:0:0:
184,192,69673,5,8,0:0:0:0:
160,177,69710,1,8,0:0:0:0:
143,154,69748,1,8,0:0:0:0:
136,127,69785,1,8,0:0:0:0:
139,100,69823,1,8,0:0:0:0:
152,75,69860,1,8,0:0:0:0:
173,57,69898,1,8,0:0:0:0:
344,24,69973,2,0,L|376:24,2,28.125,8|8|8,0:0|0:0|0:0,0:0:0:0:
184,192,70123,1,8,0:0:0:0:
160,192,70160,1,8,0:0:0:0:
136,192,70198,1,8,0:0:0:0:
304,192,70273,6,0,L|441:192,1,135.000005149842,2|0,0:0|0:0,0:0:0:0:
304,192,70573,1,0,0:0:0:0:
52,84,70723,2,0,P|60:184|116:236,1,180,2|0,0:0|0:0,0:0:0:0:
252,236,71173,2,0,L|360:236,1,90,2|0,0:0|0:0,0:0:0:0:
88,360,71473,6,0,L|84:264,1,90,2|2,0:0|0:0,0:0:0:0:
115,235,71660,2,0,L|151:235,1,33.7500012874604,2|2,0:0|0:0,0:0:0:0:
336,236,71773,2,0,L|340:144,1,90,8|2,0:0|0:0,0:0:0:0:
305,136,71960,2,0,L|264:136,1,33.7500012874604,2|2,0:0|0:0,0:0:0:0:
416,144,72073,1,8,0:0:0:0:
180,136,72223,1,2,0:0:0:0:
468,64,72373,2,0,L|104:64,1,360,4|0,0:0|0:0,0:0:0:0:
424,212,72673,6,0,B|472:212|472:212|472:256,1,90,6|0,0:0|0:0,0:0:0:0:
428,252,72898,1,0,0:0:0:0:
272,248,72973,2,0,L|176:248,1,90,10|0,0:0|0:0,0:0:0:0:
232,248,73198,1,0,0:0:0:0:
36,292,73273,2,0,L|32:248,1,45,2|0,0:0|0:0,0:0:0:0:
228,160,73423,2,0,L|280:160,1,45
31,247,73573,2,0,L|28:200,1,45,10|0,0:0|0:0,0:0:0:0:
249,160,73723,6,0,B|476:160|476:160|475:47|475:47|476:164,1,450,8|0,0:0|0:0,0:0:0:0:
328,64,74173,1,10,0:0:0:0:
464,156,74323,1,0,0:0:0:0:
308,160,74398,1,0,0:0:0:0:
152,192,74473,2,0,L|152:168,1,22.5,2|0,0:0|0:0,0:0:0:0:
340,324,74623,2,0,L|340:300,1,22.5,2|0,0:0|0:0,0:0:0:0:
124,288,74773,2,0,L|76:288,2,45,10|0|0,0:0|0:0|0:0,0:0:0:0:
176,288,74998,1,0,0:0:0:0:
368,192,75073,6,0,L|372:148,1,45,2|0,0:0|0:0,0:0:0:0:
320,192,75223,1,0,0:0:0:0:
372,147,75298,1,0,0:0:0:0:
152,192,75373,2,0,L|148:148,1,45,10|0,0:0|0:0,0:0:0:0:
204,192,75523,1,0,0:0:0:0:
147,147,75598,1,0,0:0:0:0:
372,284,75673,2,0,L|76:284,1,296.99999093628,10|0,0:0|0:0,0:0:0:0:
75,284,75898,2,0,L|279:284,1,198,2|0,0:0|0:0,0:0:0:0:
273,284,76123,2,0,L|183:284,1,90,2|0,0:0|0:0,0:0:0:0:
192,284,76423,5,2,0:0:0:0:
428,284,76573,2,0,L|432:188,1,90,2|0,0:0|0:0,0:0:0:0:
204,192,76873,1,2,0:0:0:0:
456,192,77023,1,2,0:0:0:0:
316,192,77098,1,2,0:0:0:0:
176,192,77173,2,0,L|172:140,1,45,10|0,0:0|0:0,0:0:0:0:
244,84,77323,2,0,L|292:84,1,45,2|0,0:0|0:0,0:0:0:0:
120,216,77473,6,0,L|76:216,3,45,6|0|0|0,0:0|0:0|0:0|0:0,0:0:0:0:
256,248,77773,2,0,L|304:248,1,45,10|0,0:0|0:0,0:0:0:0:
467,192,77923,2,0,L|375:192,1,90,0|2,0:0|0:0,0:0:0:0:
331,192,78148,1,0,0:0:0:0:
160,192,78223,2,0,L|156:240,1,45
376,280,78373,2,0,L|420:280,1,45,10|0,0:0|0:0,0:0:0:0:
240,192,78523,6,0,B|12:192|12:192|12:80|12:80|12:196,1,450,8|0,0:0|0:0,0:0:0:0:
312,28,78973,2,0,L|316:128,1,90,10|0,0:0|0:0,0:0:0:0:
106,280,79273,2,0,L|404:280,1,296.99999093628,10|0,0:0|0:0,0:0:0:0:
403,280,79498,2,0,L|204:280,1,198,2|0,0:0|0:0,0:0:0:0:
205,280,79723,2,0,L|265:280,1,58.4999973220826,2|0,0:0|0:0,0:0:0:0:
444,280,79873,6,0,B|488:280|488:280|440:280,1,90,2|0,0:0|0:0,0:0:0:0:
296,280,80098,1,0,0:0:0:0:
152,192,80173,2,0,L|60:192,1,90,10|0,0:0|0:0,0:0:0:0:
240,124,80398,2,0,L|146:124,1,90,2|0,0:0|0:0,0:0:0:0:
332,124,80623,2,0,L|332:68,1,45,2|0,0:0|0:0,0:0:0:0:
150,124,80773,2,0,L|150:180,1,45,10|0,0:0|0:0,0:0:0:0:
388,128,80923,2,0,L|388:64,1,45,0|0,0:0|0:0,0:0:0:0:
180,248,81073,5,6,0:0:0:0:
468,125,81223,1,2,0:0:0:0:
192,248,81448,2,0,L|368:248,2,175.499991966248,6|2|2,0:0|0:0|0:0,0:0:0:0:
480,248,82123,1,2,0:0:0:0:
208,72,82273,6,0,B|160:72|160:72|160:116,1,90,6|0,0:0|0:0,0:0:0:0:
204,112,82498,1,0,0:0:0:0:
360,140,82573,2,0,L|412:140,1,45,10|0,0:0|0:0,0:0:0:0:
308,160,82723,2,0,L|304:104,1,45,0|0,0:0|0:0,0:0:0:0:
488,292,82873,2,0,L|492:248,1,45,2|0,0:0|0:0,0:0:0:0:
308,160,83023,2,0,L|256:160,1,45,0|0,0:0|0:0,0:0:0:0:
492,247,83173,2,0,L|440:247,1,45,10|0,0:0|0:0,0:0:0:0:
263,160,83323,6,0,B|36:160|36:160|37:47|37:47|36:164,1,450,4|0,0:0|0:0,0:0:0:0:
184,64,83773,1,10,0:0:0:0:
48,156,83923,1,0,0:0:0:0:
204,160,83998,1,0,0:0:0:0:
360,192,84073,2,0,L|360:168,1,22.5,2|0,0:0|0:0,0:0:0:0:
172,324,84223,2,0,L|172:300,1,22.5,2|0,0:0|0:0,0:0:0:0:
388,288,84373,2,0,L|436:288,2,45,10|0|0,0:0|0:0|0:0,0:0:0:0:
336,288,84598,1,0,0:0:0:0:
164,192,84673,6,0,L|160:136,1,45,2|0,0:0|0:0,0:0:0:0:
308,40,84823,2,0,L|264:40,1,45,0|0,0:0|0:0,0:0:0:0:
92,100,84973,2,0,L|88:56,1,45,2|0,0:0|0:0,0:0:0:0:
268,192,85123,2,0,L|312:192,1,45,0|0,0:0|0:0,0:0:0:0:
152,288,85273,2,0,L|340:288,1,185.625007081032,10|0,0:0|0:0,0:0:0:0:
338,288,85498,2,0,L|42:288,1,296.99999093628,2|0,0:0|0:0,0:0:0:0:
41,288,85723,1,2,0:0:0:0:
312,192,86023,5,2,0:0:0:0:
88,192,86173,2,0,L|404:192,1,315.000003004074,10|0,0:0|0:0,0:0:0:0:
148,192,86473,1,2,0:0:0:0:
403,192,86623,2,0,L|451:192,1,45,0|0,0:0|0:0,0:0:0:0:
260,192,86773,2,0,L|217:156,1,45,10|0,0:0|0:0,0:0:0:0:
403,192,86923,2,0,L|412:140,1,45,0|0,0:0|0:0,0:0:0:0:
120,168,87073,6,0,L|76:168,3,45,6|0|2|0,0:0|0:0|0:0|0:0,0:0:0:0:
256,136,87373,2,0,L|304:136,1,45,10|0,0:0|0:0,0:0:0:0:
104,24,87523,2,0,L|100:84,1,45,2|0,0:0|0:0,0:0:0:0:
301,136,87673,2,0,L|347:136,1,45,2|0,0:0|0:0,0:0:0:0:
152,168,87823,2,0,L|148:120,1,45,2|0,0:0|0:0,0:0:0:0:
391,136,87973,2,0,L|347:136,1,45,10|0,0:0|0:0,0:0:0:0:
128,260,88123,6,0,P|56:204|64:120,1,180,10|2,0:0|0:0,0:0:0:0:
128,100,88348,1,2,0:0:0:0:
62,122,88423,1,2,0:0:0:0:
128,100,88498,1,2,0:0:0:0:
300,32,88573,2,0,L|208:32,1,90,10|2,0:0|0:0,0:0:0:0:
420,280,88873,2,0,L|204:280,1,215.999993408203,10|2,0:0|0:0,0:0:0:0:
276,280,89098,1,0,0:0:0:0:
440,280,89173,2,0,L|444:204,1,45,8|0,0:0|0:0,0:0:0:0:
196,192,89323,2,0,L|193:136,1,45,2|0,0:0|0:0,0:0:0:0:
400,80,89473,6,0,L|456:80,1,45,2|2,0:0|0:0,0:0:0:0:
296,80,89623,1,2,0:0:0:0:
148,80,89698,1,2,0:0:0:0:
372,192,89773,2,0,L|424:162,1,45,10|2,0:0|0:0,0:0:0:0:
408,104,89923,2,0,L|370:126,1,45,2|2,0:0|0:0,0:0:0:0:
180,192,90073,2,0,L|132:192,1,45,10|2,0:0|0:0,0:0:0:0:
360,192,90223,2,0,L|364:240,1,45,2|2,0:0|0:0,0:0:0:0:
88,192,90373,2,0,L|84:144,1,45,10|10,0:0|0:0,0:0:0:0:
410,169,90523,2,0,L|458:169,1,45,2|2,0:0|0:0,0:0:0:0:
40,192,90673,6,0,L|36:100,1,90,6|0,0:0|1:0,0:0:0:0:
252,24,91123,1,0,1:0:0:0:
116,44,91273,2,0,L|112:140,1,90,2|0,0:0|0:0,0:0:0:0:
256,192,91573,2,0,L|348:192,1,90,8|0,0:0|0:0,0:0:0:0:
112,192,91873,6,0,L|20:192,2,90,6|0|0,0:0|3:0|3:0,0:0:0:0:
200,192,92323,1,2,0:0:0:0:
64,344,92473,2,0,L|60:236,1,90,8|0,0:0|0:0,0:0:0:0:
300,192,92773,2,0,L|304:152,2,36,2|2|8,0:0|0:0|0:0,0:0:0:0:
164,192,93073,6,0,P|150:149|164:108,1,90,2|0,0:0|0:0,0:0:0:0:
224,88,93298,1,0,0:0:0:0:
372,40,93373,2,0,L|372:52,1,11.25,8|0,0:0|0:0,0:0:0:0:
244,88,93523,2,0,L|244:104,1,11.25,10|0,0:0|0:0,0:0:0:0:
380,192,93673,2,0,L|164:192,1,215.999993408203,8|0,0:0|0:0,0:0:0:0:
304,192,93973,2,0,P|324:240|312:292,1,90,2|0,0:0|0:0,0:0:0:0:
276,308,94198,1,0,0:0:0:0:
140,308,94273,6,0,L|55:254,1,90,6|0,0:0|1:0,0:0:0:0:
164,252,94573,2,0,L|79:198,1,90,0|0,3:0|3:0,0:0:0:0:
224,252,94873,1,8,0:0:0:0:
224,229,94910,1,0,0:0:0:0:
225,207,94948,1,0,0:0:0:0:
226,184,94985,1,0,0:0:0:0:
227,162,95023,1,0,0:0:0:0:
452,119,95173,2,0,L|372:166,1,90,10|2,0:0|0:0,0:0:0:0:
227,162,95473,5,2,0:0:0:0:
452,28,95623,2,0,L|228:28,2,225,8|8|8,0:0|0:0|0:0,0:0:0:0:
184,120,96073,2,0,L|476:120,1,292.500008368492,4|0,0:0|0:0,0:0:0:0:
140,200,96373,2,0,L|500:200,1,360,4|2,0:0|0:0,0:0:0:0:
232,336,96673,6,0,L|140:336,1,90,6|0,0:0|1:0,0:0:0:0:
276,260,96973,2,0,L|176:260,1,90,0|0,3:0|3:0,0:0:0:0:
320,192,97273,2,0,L|324:88,1,90,8|0,0:0|0:0,0:0:0:0:
88,108,97573,2,0,L|40:108,2,36,2|2|8,0:0|0:0|0:0,0:0:0:0:
232,192,97873,5,8,0:0:0:0:
84,192,98023,1,0,0:0:0:0:
232,192,98098,1,0,0:0:0:0:
380,192,98173,1,8,0:0:0:0:
116,192,98323,1,2,0:0:0:0:
380,192,98473,1,8,0:0:0:0:
148,192,98623,1,2,0:0:0:0:
436,192,98773,2,0,L|440:96,1,90,8|2,0:0|0:0,0:0:0:0:
44,192,99073,6,0,L|40:88,1,90,6|0,0:0|0:0,0:0:0:0:
176,48,99373,2,0,L|80:48,1,90,2|0,0:0|0:0,0:0:0:0:
368,24,99673,2,0,L|376:52,4,22.5,2|0|0|0|0,0:0|0:0|0:0|0:0|0:0,0:0:0:0:
136,192,99973,1,8,0:0:0:0:
272,192,100123,1,2,0:0:0:0:
36,192,100273,6,0,L|128:192,2,90,2|8|2,0:0|0:0|0:0,0:0:0:0:
304,192,100723,1,0,0:0:0:0:
178,192,100798,1,2,0:0:0:0:
52,192,100873,2,0,L|48:288,1,90,2|0,0:0|0:0,0:0:0:0:
356,192,101173,1,2,0:0:0:0:
216,192,101323,1,2,0:0:0:0:
476,192,101473,5,12,0:0:0:0:
256,192,101623,12,0,102823,0:0:0:0:
180,192,103123,5,2,0:0:0:0:
256,192,103198,1,2,0:0:0:0:
332,192,103273,1,2,0:0:0:0:
188,192,103423,1,2,0:0:0:0:
432,192,103573,2,0,L|436:132,1,45,2|0,0:0|0:0,0:0:0:0:
270,82,103723,2,0,L|206:82,1,56.25,2|0,0:0|0:0,0:0:0:0:
52,192,103873,6,0,L|48:236,1,45,6|0,0:0|0:0,0:0:0:0:
192,192,104023,2,0,L|140:192,1,45,0|0,0:0|0:0,0:0:0:0:
300,260,104173,2,0,L|304:304,1,45,10|0,0:0|0:0,0:0:0:0:
160,260,104323,2,0,L|212:260,1,45,0|0,0:0|0:0,0:0:0:0:
384,368,104473,2,0,B|456:368|456:368|380:368,1,144,10|0,0:0|0:0,0:0:0:0:
205,260,104698,2,0,B|148:244|148:244|208:228,1,116.999994644165,2|0,0:0|0:0,0:0:0:0:
384,368,104923,2,0,L|388:272,1,90,2|0,0:0|3:0,0:0:0:0:
160,192,105223,5,2,0:0:0:0:
448,276,105373,2,0,L|452:180,1,90,2|8,0:0|0:0,0:0:0:0:
224,184,105673,1,2,0:0:0:0:
476,184,105823,1,2,0:0:0:0:
336,184,105898,1,0,0:0:0:0:
196,184,105973,2,0,L|192:132,1,45,2|0,0:0|0:0,0:0:0:0:
372,44,106123,2,0,L|420:44,1,45,2|2,0:0|0:0,0:0:0:0:
208,44,106273,6,0,L|164:44,3,45,6|0|2|0,0:0|0:0|0:0|0:0,0:0:0:0:
344,76,106573,2,0,L|347:120,1,45,2|0,0:0|0:0,0:0:0:0:
184,184,106723,2,0,L|180:124,1,45,2|0,0:0|0:0,0:0:0:0:
16,72,106873,2,0,L|14:124,1,45,2|0,0:0|0:0,0:0:0:0:
208,44,107023,2,0,L|212:96,1,45,2|0,0:0|0:0,0:0:0:0:
408,192,107173,2,0,L|404:244,1,45,2|0,0:0|0:0,0:0:0:0:
188,296,107323,2,0,L|136:296,1,45,2|0,0:0|0:0,0:0:0:0:
352,192,107473,5,8,0:0:0:0:
397,157,107548,1,8,0:0:0:0:
387,101,107623,1,8,0:0:0:0:
340,84,107698,1,8,0:0:0:0:
144,192,107773,2,0,L|44:192,1,90,8|2,0:0|0:0,0:0:0:0:
304,292,108073,2,0,L|396:292,1,90,8|2,0:0|0:0,0:0:0:0:
344,292,108298,1,2,0:0:0:0:
164,192,108373,2,0,L|160:248,1,45,2|0,0:0|0:0,0:0:0:0:
372,192,108523,2,0,L|368:136,1,45,2|0,0:0|0:0,0:0:0:0:
176,80,108673,6,0,L|116:80,3,58.4999973220826,6|2|2|2,0:0|0:0|0:0|0:0,0:0:0:0:
352,68,108973,2,0,L|416:68,2,58.4999973220826,10|2|2,0:0|0:0|0:0,0:0:0:0:
200,80,109198,1,2,0:0:0:0:
376,68,109273,2,0,L|380:144,1,58.4999973220826,2|2,0:0|0:0,0:0:0:0:
204,192,109423,2,0,L|144:192,1,58.4999973220826,2|2,0:0|0:0,0:0:0:0:
348,276,109573,2,0,L|440:276,1,90,10|0,0:0|0:0,0:0:0:0:
204,248,109873,5,6,0:0:0:0:
488,124,110023,1,2,0:0:0:0:
157,192,110248,2,0,P|88:124|160:48,1,222.74999320221,6|0,0:0|0:0,0:0:0:0:
172,48,110473,2,0,L|473:48,1,296.99999093628,2|0,0:0|0:0,0:0:0:0:
456,48,110698,2,0,L|252:48,1,198,2|0,0:0|0:0,0:0:0:0:
268,48,110923,2,0,P|352:92|320:176,1,198,2|0,0:0|0:0,0:0:0:0:
308,176,111148,6,0,L|12:192,1,296.99999093628,6|0,0:0|0:0,0:0:0:0:
24,192,111373,2,0,L|228:192,1,198,2|0,0:0|0:0,0:0:0:0:
208,192,111598,2,0,P|144:256|208:316,1,198,2|0,0:0|0:0,0:0:0:0:
216,316,111823,2,0,L|416:316,1,198,2|0,0:0|0:0,0:0:0:0:
404,316,112048,2,0,L|171:315,1,215.999993408203,2|0,0:0|0:0,0:0:0:0:
328,240,112273,5,6,0:0:0:0:
359,185,112348,1,0,0:0:0:0:
346,124,112423,1,0,0:0:0:0:
296,86,112498,1,0,0:0:0:0:
233,92,112573,1,0,0:0:0:0:
183,169,112673,1,0,0:0:0:0:
231,249,112773,1,0,0:0:0:0:
328,240,112873,2,0,L|387:239,2,60,2|0|0,0:0|0:0|0:0,0:0:0:0:
231,249,113173,2,0,L|226:187,1,60,2|0,0:0|0:0,0:0:0:0:
311,168,113373,1,0,0:0:0:0:
160,192,113473,6,0,L|96:192,1,60,2|0,0:0|0:0,0:0:0:0:
96,192,113673,1,0,0:0:0:0:
336,84,113773,2,0,L|400:84,2,60,2|0|0,0:0|0:0|0:0,0:0:0:0:
108,32,114073,2,0,L|172:32,2,60,2|0|0,0:0|0:0|0:0,0:0:0:0:
336,84,114373,1,2,0:0:0:0:
292,68,114473,1,2,0:0:0:0:
32,32,114573,6,0,P|8:104|184:284,1,360,2|0,0:0|0:0,0:0:0:0:
364,192,115273,6,0,L|376:184,23,11.25,6|0|0|0|0|0|0|0|0|0|0|0|0|0|0|0|0|0|0|0|0|0|0|0,0:0|0:0|0:0|0:0|0:0|0:0|0:0|0:0|0:0|0:0|0:0|0:0|0:0|0:0|0:0|0:0|0:0|0:0|0:0|0:0|0:0|0:0|0:0|0:0,0:0:0:0:
364,192,115723,5,0,0:0:0:0:
256,192,115873,12,0,117073,0:0:0:0:
