osu file format v14

[General]
AudioFilename: audio.mp3
AudioLeadIn: 0
PreviewTime: 70892
Countdown: 1
SampleSet: Normal
StackLeniency: 0.7
Mode: 0
LetterboxInBreaks: 0
WidescreenStoryboard: 0

[Editor]
Bookmarks: 25817,32192,75992
DistanceSpacing: 1.1
BeatDivisor: 4
GridSize: 4
TimelineZoom: 3.699998

[Metadata]
Title:The Endless for Traveler
TitleUnicode:The Endless for Traveler
Artist:Se-U-Ra
ArtistUnicode:Se-U-Ra
Creator:[ Drop ]
Version:Everlasting
Source:Dynamix
Tags:
BeatmapID:1466330
BeatmapSetID:692962

[Difficulty]
HPDrainRate:5
CircleSize:5
OverallDifficulty:7
ApproachRate:9.7
SliderMultiplier:1.9
SliderTickRate:1

[Events]
//Background and Video events
0,0,"65807374_p0.jpg",0,0
//Break Periods
//Storyboard Layer 0 (Background)
//Storyboard Layer 1 (Fail)
//Storyboard Layer 2 (Pass)
//Storyboard Layer 3 (Foreground)
//Storyboard Sound Samples

[TimingPoints]
1592,300,4,1,0,5,1,0
2492,300,4,1,0,70,1,0
2492,-200,4,1,0,70,0,0
16892,-100,4,1,0,70,0,0
41192,-66.6666666666667,4,1,0,70,0,0
41492,-76.9230769230769,4,1,0,70,0,0
41792,-62.5,4,1,0,70,0,0
42242,-83.3333333333333,4,1,0,70,0,0
42692,-55.5555555555556,4,1,0,70,0,0
42842,-133.333333333333,4,1,0,70,0,0
43292,-100,4,1,0,70,0,0
43592,-66.6666666666667,4,1,0,70,0,0
43892,-76.9230769230769,4,1,0,70,0,0
44192,-62.5,4,1,0,70,0,0
44492,-83.3333333333333,4,1,0,70,0,0
45692,-100,4,1,0,70,0,0
45992,-66.6666666666667,4,1,0,70,0,0
46292,-76.9230769230769,4,1,0,70,0,0
46592,-62.5,4,1,0,70,0,0
47042,-83.3333333333333,4,1,0,70,0,0
47792,-133.333333333333,4,1,0,70,0,0
48092,-100,4,1,0,70,0,0
48392,-66.6666666666667,4,1,0,70,0,0
48692,-76.9230769230769,4,1,0,70,0,0
48842,-133.333333333333,4,1,0,70,0,0
49142,-62.5,4,1,0,70,0,0
49442,-83.3333333333333,4,1,0,70,0,0
49592,-62.5,4,1,0,70,0,0
49742,-83.3333333333333,4,1,0,70,0,0
49892,-100,4,1,0,70,0,0
72092,-66.6666666666667,4,1,0,70,0,0
73292,-100,4,1,0,70,0,1
76292,-58.8235294117647,4,1,0,70,0,1
77042,-100,4,1,0,70,0,1
79142,-76.9230769230769,4,1,0,70,0,1
79592,-133.333333333333,4,1,0,70,0,1
79892,-58.8235294117647,4,1,0,70,0,1
80492,-100,4,1,0,70,0,1
81692,-55.5555555555556,4,1,0,70,0,1
82892,-100,4,1,0,70,0,1
85892,-58.8235294117647,4,1,0,70,0,1
86642,-100,4,1,0,70,0,1
89192,-58.8235294117647,4,1,0,70,0,1
90092,-100,4,1,0,70,0,1
90842,-111.111111111111,4,1,0,70,0,1
90992,-125,4,1,0,70,0,1
91142,-142.857142857143,4,1,0,70,0,1
91292,-166.666666666667,4,1,0,70,0,1
92492,-100,4,1,0,70,0,0
92642,-66.6666666666667,4,1,0,70,0,0
93092,-76.9230769230769,4,1,0,70,0,0
93392,-62.5,4,1,0,70,0,0
93842,-83.3333333333333,4,1,0,70,0,0
94292,-55.5555555555556,4,1,0,70,0,0
94442,-133.333333333333,4,1,0,70,0,0
94892,-100,4,1,0,70,0,0
95492,-76.9230769230769,4,1,0,70,0,0
95792,-62.5,4,1,0,70,0,0
96092,-83.3333333333333,4,1,0,70,0,0
97292,-100,4,1,0,70,0,0
97442,-66.6666666666667,4,1,0,70,0,0
97892,-76.9230769230769,4,1,0,70,0,0
98192,-62.5,4,1,0,70,0,0
98642,-83.3333333333333,4,1,0,70,0,0
99392,-133.333333333333,4,1,0,70,0,0
99692,-66.6666666666667,4,1,0,70,0,0
99992,-83.3333333333333,4,1,0,70,0,0
100292,-62.5,4,1,0,70,0,0
100592,-133.333333333333,4,1,0,70,0,0
100892,-83.3333333333333,4,1,0,70,0,0
101492,-66.6666666666667,4,1,0,70,0,0
102092,-333.333333333333,4,1,0,70,0,0
103592,-100,4,1,0,70,0,1
105092,-58.8235294117647,4,1,0,70,0,1
106292,-100,4,1,0,70,0,1
108692,-58.8235294117647,4,1,0,70,0,1
109292,-100,4,1,0,70,0,1
110642,-50,4,1,0,70,0,1
112892,-100,4,1,0,70,0,0
115892,-50,4,1,0,70,0,1
116492,-50,4,1,0,5,0,0

[HitObjects]
256,192,1592,12,0,2192,0:0:0:0:
60,272,2492,6,0,B|189:224|157:332|289:284,1,237.5
286,284,3392,1,0,0:0:0:0:
316,124,3542,6,0,P|245:97|236:220,1,237.5
231,217,4592,2,0,P|205:214|171:213,1,47.5
44,88,4892,6,0,P|115:84|274:34,1,237.5
272,34,5792,1,0,0:0:0:0:
408,128,5942,6,0,B|382:141|356:176|356:176|388:96|398:15,1,237.5
398,15,6992,1,0,0:0:0:0:
496,276,7292,6,0,B|387:256|387:256|361:266|361:266|262:246,1,237.5
268,248,8192,1,0,0:0:0:0:
56,316,8342,6,0,B|23:354|23:354|162:327,1,190
160,327,9092,6,0,L|176:256,2,71.25
88,152,9692,6,0,B|132:115|187:145|187:145|242:172|291:124|291:124|253:131|234:199|294:262|386:246|412:172|384:116|384:116|426:142|502:113|477:36,1,665
418,61,12092,5,0,0:0:0:0:
144,188,12692,1,0,0:0:0:0:
418,61,13292,5,0,0:0:0:0:
418,61,13592,1,0,0:0:0:0:
144,188,13892,1,0,0:0:0:0:
256,344,14492,5,0,0:0:0:0:
308,92,15092,1,0,0:0:0:0:
256,344,15542,5,0,0:0:0:0:
256,344,15692,1,0,0:0:0:0:
256,344,15917,1,0,0:0:0:0:
256,344,16142,1,0,0:0:0:0:
308,92,16292,1,0,0:0:0:0:
184,232,16442,5,0,0:0:0:0:
400,212,16592,1,0,0:0:0:0:
164,236,16742,1,0,0:0:0:0:
436,140,16892,6,0,P|472:184|468:260,1,95
236,120,17192,2,0,P|246:74|278:39,1,95
400,212,17492,1,0,0:0:0:0:
272,352,17642,1,0,0:0:0:0:
104,264,17792,2,0,L|10:279,1,95
68,96,18092,5,0,0:0:0:0:
98,131,18167,1,0,0:0:0:0:
139,155,18242,1,0,0:0:0:0:
186,163,18317,1,0,0:0:0:0:
232,155,18392,1,0,0:0:0:0:
274,132,18467,1,0,0:0:0:0:
305,96,18542,1,0,0:0:0:0:
322,52,18617,1,0,0:0:0:0:
323,5,18692,1,0,0:0:0:0:
323,5,18992,5,0,0:0:0:0:
372,360,19142,1,0,0:0:0:0:
256,192,19217,12,0,21392,0:0:0:0:
408,100,21692,6,0,B|336:92|336:92|292:112|292:112|200:100,1,190
223,103,22142,1,0,0:0:0:0:
384,180,22292,2,0,B|430:191|430:191|475:152,1,95
248,20,22592,2,0,L|144:32,1,95
24,124,22892,6,0,P|93:154|93:268,1,190
28,212,23342,1,0,0:0:0:0:
208,348,23492,2,0,P|205:257|284:213,1,190
280,296,23942,1,0,0:0:0:0:
100,258,24092,6,0,L|-8:276,1,95
248,108,24392,2,0,L|356:125,1,95
341,123,24692,1,0,0:0:0:0:
97,39,24842,5,0,0:0:0:0:
156,212,24992,1,0,0:0:0:0:
92,24,25142,1,0,0:0:0:0:
160,232,25292,2,0,B|205:241|205:241|246:214,1,95
124,128,25592,2,0,B|79:119|79:119|37:145,1,95
188,316,25892,2,0,B|260:328|260:328|280:364|280:364|356:376,1,190
512,200,26492,6,0,B|440:212|440:212|420:248|420:248|344:260,1,190
345,259,26942,1,0,0:0:0:0:
368,96,27092,2,0,L|472:116,1,95
512,352,27392,2,0,L|408:332,1,95
180,164,27692,6,0,B|298:137|298:137|354:177,1,190
204,80,28142,2,0,P|157:77|116:103,1,95
180,164,28442,1,0,0:0:0:0:
284,64,28592,2,0,P|263:22|220:0,1,95
40,244,28892,5,0,0:0:0:0:
160,224,29042,1,0,0:0:0:0:
144,340,29192,1,0,0:0:0:0:
264,320,29342,1,0,0:0:0:0:
264,320,29492,1,0,0:0:0:0:
392,144,29642,5,0,0:0:0:0:
256,104,29792,1,0,0:0:0:0:
290,242,29942,1,0,0:0:0:0:
488,44,30092,5,0,0:0:0:0:
440,49,30167,1,0,0:0:0:0:
393,54,30242,1,0,0:0:0:0:
346,59,30317,1,0,0:0:0:0:
299,64,30392,6,0,L|144:84,1,142.5
48,104,30692,6,0,L|203:124,1,142.5
157,82,30992,6,0,L|149:128,1,47.5
268,240,31142,2,0,L|260:193,1,47.5
16,288,31292,6,0,P|72:228|184:248,1,190
172,238,31742,1,0,0:0:0:0:
248,356,31892,2,0,L|153:367,1,95
260,193,32192,2,0,L|354:204,1,95
496,312,32492,6,0,B|524:352|524:352|380:332,1,190
300,320,32942,1,0,0:0:0:0:
196,156,33092,2,0,B|168:196|168:196|312:176,1,190
392,164,33542,1,0,0:0:0:0:
244,84,33692,6,0,B|203:62|203:62|147:77,1,95
136,260,33992,2,0,B|177:282|177:282|232:266,1,95
223,268,34292,1,0,0:0:0:0:
192,168,34442,5,0,0:0:0:0:
96,180,34592,1,0,0:0:0:0:
0,192,34742,1,0,0:0:0:0:
292,328,34892,6,0,B|314:287|314:287|298:231,1,95
284,44,35192,2,0,B|262:85|262:85|277:140,1,95
392,288,35492,2,0,L|488:300,1,95
360,96,35792,2,0,L|454:84,1,95
296,244,36092,6,0,B|192:216|220:292|104:264,1,190
24,168,36542,1,0,0:0:0:0:
113,266,36692,2,0,L|100:360,1,95
152,180,36992,2,0,L|139:85,1,95
253,24,37292,6,0,P|295:95|408:64,1,190
504,220,37742,2,0,P|461:210|409:201,1,95
343,367,38042,2,0,P|389:358|436:348,1,95
437,349,38342,1,0,0:0:0:0:
276,148,38492,5,0,0:0:0:0:
220,292,38642,1,0,0:0:0:0:
120,208,38792,1,0,0:0:0:0:
64,352,38942,1,0,0:0:0:0:
32,92,39092,5,0,0:0:0:0:
192,64,39242,1,0,0:0:0:0:
292,192,39392,1,0,0:0:0:0:
452,164,39542,1,0,0:0:0:0:
392,348,39692,5,0,0:0:0:0:
344,342,39767,1,0,0:0:0:0:
297,336,39842,1,0,0:0:0:0:
250,330,39917,1,0,0:0:0:0:
203,324,39992,2,0,L|136:316,1,47.5
0,240,40142,2,0,L|67:231,1,47.5
100,376,40292,1,0,0:0:0:0:
100,376,40592,1,0,0:0:0:0:
100,376,40892,6,0,L|88:312,1,47.5
212,244,41042,2,0,L|220:197,1,47.5
60,68,41192,6,0,B|51:106|51:106|74:137,1,71.2500027179719
212,244,41342,2,0,L|304:232,1,71.2500027179719
448,128,41492,6,0,B|402:118|402:118|379:123|379:123|315:109,1,123.499994346619
208,352,41792,6,0,B|294:334|294:334|339:343|339:343|443:321,1,228
508,308,42092,1,0,0:0:0:0:
372,200,42242,6,0,L|360:264,1,56.9999982604981
508,308,42392,1,0,0:0:0:0:
508,308,42542,1,0,0:0:0:0:
356,168,42692,6,0,L|332:296,1,85.4999973907472
512,124,42842,6,0,B|498:112|498:112|478:116,1,35.625001358986
260,288,42992,2,0,L|136:310,1,106.875004076958
154,307,43292,6,0,L|168:248,1,47.5
24,312,43442,2,0,L|34:358,1,47.5
224,176,43592,6,0,B|186:181|186:181|152:153,1,71.2500027179719
64,208,43742,2,0,B|38:228|38:228|0:223,1,71.2500027179719
104,64,43892,6,0,L|232:84,1,123.499994346619
309,359,44192,2,0,B|460:336,1,152
460,336,44492,5,0,0:0:0:0:
344,200,44642,6,0,L|328:275,1,56.9999982604981
216,240,44792,2,0,L|200:315,1,56.9999982604981
96,264,44942,2,0,L|80:339,1,56.9999982604981
344,200,45092,5,0,0:0:0:0:
88,244,45242,2,0,L|72:319,1,56.9999982604981
344,200,45392,5,0,0:0:0:0:
80,224,45542,2,0,L|64:299,1,56.9999982604981
320,380,45692,6,0,L|373:367,1,47.5
220,316,45842,2,0,L|173:304,1,47.5
400,220,45992,6,0,B|413:249|413:249|397:292,1,71.2500027179719
220,228,46142,2,0,L|208:128,1,71.2500027179719
296,48,46292,6,0,P|350:31|340:80,1,123.499994346619
124,40,46592,6,0,P|109:136|23:90,1,228
48,16,46892,1,0,0:0:0:0:
228,124,47042,6,0,L|216:199,1,56.9999982604981
48,16,47192,1,0,0:0:0:0:
48,16,47342,1,0,0:0:0:0:
240,140,47492,6,0,L|228:215,1,56.9999982604981
48,16,47642,1,0,0:0:0:0:
48,16,47792,5,0,0:0:0:0:
252,152,47942,2,0,L|246:189,1,35.625001358986
40,244,48092,6,0,L|117:230,1,47.5
200,364,48242,2,0,L|246:372,1,47.5
376,280,48392,2,0,B|409:247|409:247|280:269,1,142.500005435944
314,263,48692,6,0,L|336:160,1,61.7499971733095
448,324,48842,6,0,B|455:343|455:343|445:361,1,35.625001358986
204,232,48992,2,0,L|244:227,1,35.625001358986
344,376,49142,6,0,L|264:364,1,76
32,304,49292,6,0,B|72:311|72:311|109:285,1,76
228,132,49442,2,0,B|196:137|196:137|166:116,1,56.9999982604981
32,304,49592,6,0,B|72:297|72:297|109:323,1,76
228,132,49742,6,0,B|196:126|196:126|166:147,1,56.9999982604981
144,384,49892,1,0,0:0:0:0:
144,384,50192,1,0,0:0:0:0:
144,384,50492,6,0,L|128:312,2,63.3333333333333
224,336,50792,5,0,0:0:0:0:
255,340,50892,1,0,0:0:0:0:
287,344,50992,1,0,0:0:0:0:
392,288,51092,6,0,L|378:349,2,63.3333333333333
320,212,51392,5,0,0:0:0:0:
288,216,51492,1,0,0:0:0:0:
257,220,51592,1,0,0:0:0:0:
180,184,51692,5,0,0:0:0:0:
149,191,51792,1,0,0:0:0:0:
118,198,51892,1,0,0:0:0:0:
16,112,51992,5,0,0:0:0:0:
47,119,52092,1,0,0:0:0:0:
78,126,52192,1,0,0:0:0:0:
148,72,52292,5,0,0:0:0:0:
179,65,52392,1,0,0:0:0:0:
210,58,52492,1,0,0:0:0:0:
280,116,52592,5,0,0:0:0:0:
273,147,52692,1,0,0:0:0:0:
266,178,52792,1,0,0:0:0:0:
336,224,52892,5,0,0:0:0:0:
343,255,52992,1,0,0:0:0:0:
350,286,53092,1,0,0:0:0:0:
256,376,53192,5,0,0:0:0:0:
263,345,53292,1,0,0:0:0:0:
270,314,53392,1,0,0:0:0:0:
176,204,53492,5,0,0:0:0:0:
183,235,53592,1,0,0:0:0:0:
190,266,53692,1,0,0:0:0:0:
96,356,53792,5,0,0:0:0:0:
103,325,53892,1,0,0:0:0:0:
110,294,53992,1,0,0:0:0:0:
56,232,54092,5,0,0:0:0:0:
63,201,54192,1,0,0:0:0:0:
70,170,54292,1,0,0:0:0:0:
144,120,54392,5,0,0:0:0:0:
137,89,54492,1,0,0:0:0:0:
130,58,54592,1,0,0:0:0:0:
248,120,54692,5,0,0:0:0:0:
241,151,54792,1,0,0:0:0:0:
234,182,54892,1,0,0:0:0:0:
160,232,54992,5,0,0:0:0:0:
167,263,55092,1,0,0:0:0:0:
174,294,55192,1,0,0:0:0:0:
252,344,55292,5,0,0:0:0:0:
283,337,55392,1,0,0:0:0:0:
314,330,55492,1,0,0:0:0:0:
424,280,55592,5,0,0:0:0:0:
393,273,55692,1,0,0:0:0:0:
362,266,55792,1,0,0:0:0:0:
228,228,55892,5,0,0:0:0:0:
259,221,55992,1,0,0:0:0:0:
290,214,56092,1,0,0:0:0:0:
400,164,56192,5,0,0:0:0:0:
369,157,56292,1,0,0:0:0:0:
338,150,56392,1,0,0:0:0:0:
260,100,56492,6,0,L|246:38,2,63.3333333333333
400,164,56792,6,0,L|386:225,2,63.3333333333333
246,38,57092,6,0,L|184:51,2,63.3333333333333
386,225,57392,6,0,L|447:238,2,63.3333333333333
308,168,57692,5,0,0:0:0:0:
277,174,57792,1,0,0:0:0:0:
246,180,57892,1,0,0:0:0:0:
196,248,57992,5,0,0:0:0:0:
165,254,58092,1,0,0:0:0:0:
134,260,58192,1,0,0:0:0:0:
0,288,58292,5,0,0:0:0:0:
31,294,58392,1,0,0:0:0:0:
62,300,58492,1,0,0:0:0:0:
112,368,58592,5,0,0:0:0:0:
143,374,58692,1,0,0:0:0:0:
174,380,58792,1,0,0:0:0:0:
256,352,58892,6,0,L|317:339,2,63.3333333333333
168,232,59192,2,0,L|107:245,2,63.3333333333333
317,338,59492,6,0,L|378:351,2,63.3333333333333
106,245,59792,2,0,L|45:232,2,63.3333333333333
378,351,60092,6,0,L|365:290,2,63.3333333333333
44,231,60392,6,0,L|57:292,2,63.3333333333333
364,289,60692,6,0,L|303:276,2,63.3333333333333
57,292,60992,6,0,L|118:305,2,63.3333333333333
204,368,61292,5,0,0:0:0:0:
210,337,61392,1,0,0:0:0:0:
217,306,61492,1,0,0:0:0:0:
148,184,61592,5,0,0:0:0:0:
155,215,61692,1,0,0:0:0:0:
161,246,61792,1,0,0:0:0:0:
276,252,61892,5,0,0:0:0:0:
307,245,61992,1,0,0:0:0:0:
338,239,62092,1,0,0:0:0:0:
404,176,62192,5,0,0:0:0:0:
435,182,62292,1,0,0:0:0:0:
466,189,62392,1,0,0:0:0:0:
416,80,62492,5,0,0:0:0:0:
385,86,62592,1,0,0:0:0:0:
354,93,62692,1,0,0:0:0:0:
288,156,62792,5,0,0:0:0:0:
257,162,62892,1,0,0:0:0:0:
226,169,62992,1,0,0:0:0:0:
192,252,63092,5,0,0:0:0:0:
161,246,63192,1,0,0:0:0:0:
130,239,63292,1,0,0:0:0:0:
64,176,63392,5,0,0:0:0:0:
33,170,63492,1,0,0:0:0:0:
2,163,63592,1,0,0:0:0:0:
84,88,63692,5,0,0:0:0:0:
115,82,63792,1,0,0:0:0:0:
146,75,63892,1,0,0:0:0:0:
248,36,63992,5,0,0:0:0:0:
242,67,64092,1,0,0:0:0:0:
235,98,64192,1,0,0:0:0:0:
340,220,64292,5,0,0:0:0:0:
309,214,64392,1,0,0:0:0:0:
278,207,64492,1,0,0:0:0:0:
176,168,64592,5,0,0:0:0:0:
182,199,64692,1,0,0:0:0:0:
189,230,64792,1,0,0:0:0:0:
72,308,64892,5,0,0:0:0:0:
103,301,64992,1,0,0:0:0:0:
134,295,65092,1,0,0:0:0:0:
220,384,65192,5,0,0:0:0:0:
189,377,65292,1,0,0:0:0:0:
158,371,65392,1,0,0:0:0:0:
284,312,65492,6,0,L|423:282,2,142.5
284,312,66092,6,0,L|304:204,1,95
92,48,66392,2,0,L|109:141,1,95
301,218,66692,6,0,L|409:198,1,95
109,141,66992,2,0,L|15:123,1,95
356,100,67292,6,0,B|404:88|404:88|448:112,1,95
247,289,67592,2,0,B|199:301|199:301|159:279,1,95
420,17,67892,6,0,L|443:109,1,95
135,371,68192,2,0,L|158:278,1,95
512,264,68492,5,0,0:0:0:0:
464,267,68567,1,0,0:0:0:0:
417,270,68642,1,0,0:0:0:0:
369,274,68717,1,0,0:0:0:0:
296,224,68792,5,0,0:0:0:0:
300,192,68867,1,0,0:0:0:0:
305,161,68942,1,0,0:0:0:0:
310,130,69017,1,0,0:0:0:0:
252,64,69092,5,0,0:0:0:0:
204,60,69167,1,0,0:0:0:0:
157,57,69242,1,0,0:0:0:0:
109,54,69317,1,0,0:0:0:0:
24,28,69392,5,0,0:0:0:0:
29,59,69467,1,0,0:0:0:0:
34,90,69542,1,0,0:0:0:0:
38,122,69617,1,0,0:0:0:0:
84,192,69692,6,0,L|76:228,6,23.75
140,280,69992,2,0,L|134:303,6,23.75
256,384,70292,6,0,L|248:348,6,23.75
312,296,70592,2,0,L|306:272,6,23.75
368,208,70892,6,0,L|252:188,1,95
274,191,71192,1,0,0:0:0:0:
452,96,71342,1,0,0:0:0:0:
452,96,71792,6,0,L|456:123,1,23.75
344,56,72092,6,0,L|349:20,2,35.625001358986
328,132,72242,1,0,0:0:0:0:
216,336,72392,6,0,L|221:371,2,35.625001358986
200,260,72542,1,0,0:0:0:0:
24,104,72692,6,0,L|29:68,2,35.625001358986
12,180,72842,1,0,0:0:0:0:
47,176,72917,1,0,0:0:0:0:
82,172,72992,1,0,0:0:0:0:
64,316,73142,1,0,0:0:0:0:
152,92,73292,6,0,L|246:102,1,95
408,64,73517,1,0,0:0:0:0:
416,48,73592,2,0,B|376:67|376:67|319:50,1,95
327,52,73892,6,0,L|335:120,1,47.5
480,144,74042,2,0,L|474:191,1,47.5
284,240,74192,2,0,L|292:308,1,47.5
430,381,74342,2,0,P|515:314|392:312,1,285
399,292,74942,2,0,L|408:224,1,47.5
416,140,75092,1,0,0:0:0:0:
324,160,75242,6,0,B|332:185|332:185|356:199,1,47.5
452,56,75392,2,0,B|426:50|426:50|402:64,1,47.5
478,218,75542,2,0,B|495:198|495:198|495:170,1,47.5
316,72,75692,6,0,L|207:57,1,95
40,160,75917,1,0,0:0:0:0:
60,172,75992,2,0,L|169:157,1,95
260,272,76217,1,0,0:0:0:0:
240,284,76292,6,0,B|220:278|184:276|184:276|240:268|312:228,1,161.500003080368
368,328,76517,2,0,B|372:347|389:380|389:380|354:336|283:293,1,161.500003080368
343,196,76742,2,0,B|357:182|377:151|377:151|356:203|355:286,1,161.500003080368
96,364,77042,6,0,L|79:264,1,95
80,270,77342,1,0,0:0:0:0:
80,270,77492,2,0,L|33:262,1,47.5
180,336,77642,1,0,0:0:0:0:
226,328,77717,1,0,0:0:0:0:
273,320,77792,1,0,0:0:0:0:
320,312,77867,1,0,0:0:0:0:
367,304,77942,1,0,0:0:0:0:
414,296,78017,1,0,0:0:0:0:
460,288,78092,6,0,L|472:192,1,95
364,68,78317,1,0,0:0:0:0:
352,84,78392,2,0,B|331:128|331:128|364:168,1,95
360,163,78692,6,0,L|416:152,1,47.5
272,52,78842,2,0,L|216:63,1,47.5
196,256,78992,2,0,L|251:244,1,47.5
124,112,79142,6,0,P|28:103|90:185,1,246.999988693238
192,144,79592,6,0,L|202:29,1,106.875004076958
201,37,79892,6,0,B|272:24|272:24|288:32|288:32|368:16,1,161.500003080368
460,220,80117,2,0,B|389:205|389:205|373:213|373:213|303:200,1,161.500003080368
424,36,80342,1,0,0:0:0:0:
424,36,80492,6,0,B|466:21|466:21|507:49,1,95
336,132,80717,1,0,0:0:0:0:
318,116,80792,2,0,L|202:92,1,95
176,144,81017,2,0,L|60:120,1,95
34,172,81242,6,0,B|19:154|19:154|14:99,1,47.5
132,228,81392,2,0,B|155:224|155:224|205:247,1,47.5
34,284,81542,2,0,B|25:305|25:305|-19:337,1,47.5
68,228,81692,5,0,0:0:0:0:
68,228,81842,6,0,B|16:224|16:224|140:176,1,170.999994781494
336,292,82067,6,0,B|375:325|375:325|247:291,1,170.999994781494
156,82,82292,6,0,B|143:31|143:31|227:134,1,170.999994781494
178,357,82517,6,0,B|158:405|158:405|150:272,1,170.999994781494
321,121,82742,6,0,B|365:93|365:93|293:205,1,170.999994781494
460,352,83042,5,0,0:0:0:0:
476,336,83117,1,0,0:0:0:0:
492,320,83192,2,0,L|396:304,1,95
398,304,83492,2,0,L|387:247,1,47.5
500,148,83642,2,0,L|491:194,1,47.5
380,320,83792,2,0,L|371:273,1,47.5
276,112,83942,6,0,P|342:72|300:186,1,285
321,194,84542,2,0,L|372:208,1,47.5
464,232,84692,1,0,0:0:0:0:
376,76,84842,6,0,B|351:91|351:91|344:109,1,47.5
176,232,84992,2,0,B|202:245|202:245|220:242,1,47.5
412,328,85142,2,0,B|410:298|410:298|398:284,1,47.5
321,194,85292,6,0,L|212:184,1,95
216,56,85517,1,0,0:0:0:0:
196,72,85592,2,0,L|101:81,1,95
84,228,85817,1,0,0:0:0:0:
92,244,85892,6,0,P|72:200|156:204,1,161.500003080368
172,352,86117,2,0,P|143:391|105:316,1,161.500003080368
226,229,86342,2,0,P|274:233|228:304,1,161.500003080368
204,137,86642,6,0,L|228:16,1,95
222,43,86942,1,0,0:0:0:0:
222,43,87092,2,0,L|156:56,1,47.5
0,180,87242,1,0,0:0:0:0:
47,189,87317,1,0,0:0:0:0:
94,197,87392,1,0,0:0:0:0:
140,206,87467,1,0,0:0:0:0:
187,214,87542,1,0,0:0:0:0:
234,223,87617,1,0,0:0:0:0:
280,231,87692,5,0,0:0:0:0:
496,184,87842,1,0,0:0:0:0:
336,152,87992,5,0,0:0:0:0:
268,362,88142,1,0,0:0:0:0:
376,239,88292,5,0,0:0:0:0:
228,76,88442,1,0,0:0:0:0:
268,362,88592,5,0,0:0:0:0:
496,184,88742,1,0,0:0:0:0:
228,76,88892,5,0,0:0:0:0:
181,82,88967,1,0,0:0:0:0:
134,89,89042,1,0,0:0:0:0:
87,96,89117,1,0,0:0:0:0:
40,103,89192,6,0,B|106:49|106:49|60:236,1,242.250004620552
156,304,89492,6,0,B|194:335|194:335|167:227,1,161.500003080368
284,156,89717,6,0,B|322:124|322:124|295:232,1,161.500003080368
68,200,89942,1,0,0:0:0:0:
448,376,90092,5,0,0:0:0:0:
444,352,90167,1,0,0:0:0:0:
440,329,90242,1,0,0:0:0:0:
436,305,90317,1,0,0:0:0:0:
432,282,90392,1,0,0:0:0:0:
428,258,90467,1,0,0:0:0:0:
424,235,90542,1,0,0:0:0:0:
420,212,90617,1,0,0:0:0:0:
416,188,90692,6,0,L|408:128,1,47.5
312,232,90842,2,0,L|354:237,1,42.7499986953736
416,112,90992,6,0,L|421:74,1,38
508,296,91142,2,0,L|470:301,1,33.2499989852906
432,8,91292,5,0,0:0:0:0:
432,8,91442,1,0,0:0:0:0:
432,8,91742,1,0,0:0:0:0:
292,136,91892,2,0,B|263:128|263:128|236:144,2,56.9999982604981
292,136,92492,6,0,L|300:72,1,47.5
272,240,92642,6,0,B|260:274|260:274|285:308,1,71.2500027179719
292,136,92792,2,0,L|197:121,1,71.2500027179719
344,264,92942,2,0,L|414:252,1,71.2500027179719
496,88,93092,6,0,B|447:82|447:82|428:88|428:88|364:80,1,123.499994346619
200,360,93392,6,0,B|298:348|298:348|336:360|336:360|464:344,1,228
492,336,93692,1,0,0:0:0:0:
364,244,93842,6,0,B|342:264|342:264|362:294,1,56.9999982604981
492,336,93992,1,0,0:0:0:0:
492,336,94142,1,0,0:0:0:0:
360,236,94292,6,0,B|332:263|332:263|358:301,1,85.4999973907472
455,249,94442,6,0,L|450:202,1,35.625001358986
484,96,94592,2,0,L|370:83,1,106.875004076958
377,84,94892,6,0,L|368:28,1,47.5
296,68,95042,2,0,L|287:21,1,47.5
216,156,95192,6,0,L|206:212,1,47.5
134,172,95342,2,0,L|125:218,1,47.5
40,116,95492,6,0,B|6:104|6:104|92:90,1,123.499994346619
212,280,95792,6,0,B|274:257|274:257|115:233,1,228
48,224,96092,1,0,0:0:0:0:
228,112,96242,2,0,L|240:186,1,56.9999982604981
340,136,96392,2,0,L|352:210,1,56.9999982604981
452,160,96542,2,0,L|464:234,1,56.9999982604981
228,112,96692,5,0,0:0:0:0:
464,148,96842,2,0,L|476:222,1,56.9999982604981
228,112,96992,5,0,0:0:0:0:
472,136,97142,2,0,L|484:210,1,56.9999982604981
296,64,97292,6,0,L|305:7,1,47.5
372,56,97442,6,0,B|380:88|380:88|345:131,1,71.2500027179719
225,75,97592,2,0,L|295:63,1,71.2500027179719
372,196,97742,2,0,B|340:204|340:204|310:179,1,71.2500027179719
174,44,97892,6,0,L|306:65,1,123.499994346619
220,304,98192,2,0,L|445:267,1,228
512,252,98492,1,0,0:0:0:0:
384,136,98642,6,0,L|372:204,1,56.9999982604981
512,252,98792,1,0,0:0:0:0:
512,252,98942,1,0,0:0:0:0:
376,124,99092,6,0,L|364:192,1,56.9999982604981
512,252,99242,1,0,0:0:0:0:
412,44,99392,6,0,L|298:63,1,106.875004076958
306,62,99692,6,0,B|184:32|232:128|92:96,1,213.750008153916
40,126,99992,6,0,P|35:64|98:115,1,170.999994781494
196,224,100292,6,0,B|40:204|40:204|77:199|103:169,1,228
100,171,100592,6,0,L|92:128,1,35.625001358986
156,296,100742,2,0,L|148:330,1,35.625001358986
312,192,100892,5,0,0:0:0:0:
424,336,101042,2,0,L|361:323,1,56.9999982604981
312,192,101192,5,0,0:0:0:0:
367,180,101267,1,0,0:0:0:0:
423,168,101342,1,0,0:0:0:0:
248,340,101492,6,0,B|183:376|183:376|216:216,1,213.750008153916
124,172,101792,6,0,B|59:136|59:136|92:296,1,213.750008153916
87,272,102092,6,0,B|252:217|204:360|364:304,1,284.999991302491
354,307,103742,6,0,L|368:236,1,47.5
376,188,103892,1,0,0:0:0:0:
180,364,104042,1,0,0:0:0:0:
464,308,104192,1,0,0:0:0:0:
274,91,104342,1,0,0:0:0:0:
180,364,104492,6,0,L|288:376,1,95
200,248,104717,1,0,0:0:0:0:
188,268,104792,2,0,L|93:278,1,95
212,152,105017,1,0,0:0:0:0:
224,172,105092,6,0,P|283:148|252:72,1,161.500003080368
416,232,105317,2,0,P|365:192|315:257,1,161.500003080368
372,36,105542,2,0,P|363:99|444:110,1,161.500003080368
443,111,105842,1,0,0:0:0:0:
443,111,105992,1,0,0:0:0:0:
443,111,106292,6,0,L|452:56,1,47.5
284,16,106442,1,0,0:0:0:0:
236,21,106517,1,0,0:0:0:0:
189,27,106592,1,0,0:0:0:0:
142,33,106667,1,0,0:0:0:0:
95,38,106742,1,0,0:0:0:0:
48,44,106817,1,0,0:0:0:0:
1,50,106892,6,0,L|24:160,1,95
136,248,107117,1,0,0:0:0:0:
144,232,107192,2,0,B|162:188|162:188|133:140,1,95
137,147,107492,6,0,L|200:160,1,47.5
248,304,107642,2,0,L|294:294,1,47.5
360,120,107792,2,0,L|406:129,1,47.5
484,356,107942,5,0,0:0:0:0:
442,376,108017,1,0,0:0:0:0:
397,363,108092,1,0,0:0:0:0:
373,323,108167,1,0,0:0:0:0:
382,278,108242,1,0,0:0:0:0:
419,250,108317,1,0,0:0:0:0:
465,254,108392,1,0,0:0:0:0:
465,254,108542,2,0,L|460:287,2,23.75
468,180,108692,6,0,B|389:153|389:153|399:238,1,161.500003080368
340,376,108917,2,0,B|402:321|402:321|324:287,1,161.500003080368
234,167,109142,2,0,B|250:248|250:248|318:197,1,161.500003080368
312,74,109367,5,0,0:0:0:0:
288,76,109442,1,0,0:0:0:0:
264,78,109517,1,0,0:0:0:0:
240,80,109592,2,0,L|172:88,1,47.5
12,196,109742,1,0,0:0:0:0:
56,181,109817,1,0,0:0:0:0:
101,193,109892,1,0,0:0:0:0:
132,228,109967,1,0,0:0:0:0:
163,262,110042,1,0,0:0:0:0:
208,275,110117,1,0,0:0:0:0:
252,260,110192,2,0,L|244:208,1,47.5
384,280,110342,2,0,L|376:326,1,47.5
236,248,110492,6,0,L|228:196,1,47.5
344,116,110642,6,0,B|440:136|440:136|352:192,1,190
140,201,110867,6,0,B|74:129|74:129|178:135,1,190
355,252,111092,6,0,B|366:349|366:349|285:283,1,190
210,84,111317,6,0,B|259:0|259:0|285:100,1,190
229,305,111542,6,0,B|140:345|140:345|178:248,1,190
210,84,111767,6,0,B|259:0|259:0|285:100,1,190
355,252,111992,6,0,B|366:349|366:349|285:283,1,190
140,201,112217,6,0,B|74:129|74:129|178:135,1,190
344,116,112442,6,0,B|440:136|440:136|352:192,1,190
229,305,112667,6,0,B|140:345|140:345|178:248,1,190
264,192,112892,5,0,0:0:0:0:
295,195,112992,1,0,0:0:0:0:
326,199,113092,1,0,0:0:0:0:
380,264,113192,5,0,0:0:0:0:
412,261,113292,1,0,0:0:0:0:
443,257,113392,1,0,0:0:0:0:
496,196,113492,5,0,0:0:0:0:
500,165,113592,1,0,0:0:0:0:
503,133,113692,1,0,0:0:0:0:
412,28,113792,5,0,0:0:0:0:
415,60,113892,1,0,0:0:0:0:
419,91,113992,1,0,0:0:0:0:
344,124,114092,5,0,0:0:0:0:
313,120,114192,1,0,0:0:0:0:
281,117,114292,1,0,0:0:0:0:
224,56,114392,5,0,0:0:0:0:
186,60,114492,1,0,0:0:0:0:
148,65,114592,1,0,0:0:0:0:
88,152,114692,5,0,0:0:0:0:
133,156,114792,1,0,0:0:0:0:
179,162,114892,1,0,0:0:0:0:
156,256,114992,5,0,0:0:0:0:
102,260,115092,1,0,0:0:0:0:
46,268,115192,1,0,0:0:0:0:
46,268,115892,6,0,B|88:280|130:265|152:220|152:220|132:293|163:338|240:360|295:312|312:238|261:205|235:192|235:192|151:159|165:70|210:27|285:38|328:71|317:144,1,760
