osu file format v14

[General]
AudioFilename: audio.mp3
AudioLeadIn: 0
PreviewTime: 70892
Countdown: 1
SampleSet: None
StackLeniency: 0.7
Mode: 0
LetterboxInBreaks: 0
WidescreenStoryboard: 1

[Editor]
Bookmarks: 25817,32192,75992
DistanceSpacing: 1
BeatDivisor: 2
GridSize: 4
TimelineZoom: 3.699998

[Metadata]
Title:The Endless for Traveler
TitleUnicode:The Endless for Traveler
Artist:Se-U-Ra
ArtistUnicode:Se-U-Ra
Creator:[ Drop ]
Version:Easy
Source:Dynamix
Tags:
BeatmapID:1481766
BeatmapSetID:692962

[Difficulty]
HPDrainRate:1
CircleSize:3
OverallDifficulty:3
ApproachRate:3
SliderMultiplier:0.899999999999999
SliderTickRate:1

[Events]
//Background and Video events
0,0,"65807374_p0.jpg",0,0
//Break Periods
2,50692,59852
//Storyboard Layer 0 (Background)
//Storyboard Layer 1 (Fail)
//Storyboard Layer 2 (Pass)
//Storyboard Layer 3 (Foreground)
//Storyboard Sound Samples

[TimingPoints]
1592,300,4,1,0,5,1,0
2492,300,4,1,0,70,1,0

[HitObjects]
71,88,12092,6,0,B|176:56|146:152|272:104,1,180
412,52,13292,2,0,L|311:41,2,89.9999999999999
496,212,14492,6,0,B|391:180|421:276|295:228,1,180
244,280,15392,1,0,0:0:0:0:
164,320,15692,6,0,P|56:312|152:248,1,270
194,172,16892,6,0,P|260:186|306:168,1,89.9999999999999
352,124,17492,2,0,L|454:131,1,89.9999999999999
480,48,18092,6,0,L|296:36,1,180
224,88,18992,2,0,L|143:93,1,45
256,192,19292,12,0,20492,0:0:0:0:
104,140,21392,5,0,0:0:0:0:
167,203,21692,2,0,L|266:196,1,89.9999999999999
324,136,22292,2,0,P|368:136|409:154,1,89.9999999999999
444,236,22892,6,0,P|399:236|358:254,1,89.9999999999999
316,332,23492,2,0,L|226:325,1,89.9999999999999
176,252,24092,6,0,L|86:258,1,89.9999999999999
48,176,24692,2,0,L|137:169,1,89.9999999999999
228,172,25292,6,0,L|317:178,1,89.9999999999999
356,96,25892,2,0,L|266:89,1,89.9999999999999
186,48,26492,6,0,P|128:44|71:82,1,89.9999999999999
64,140,27092,2,0,P|122:144|179:106,1,89.9999999999999
220,188,27692,6,0,P|278:184|335:222,1,89.9999999999999
344,276,28292,2,0,L|433:272,1,89.9999999999999
492,204,28892,6,0,L|484:104,1,89.9999999999999
400,80,29492,2,0,L|408:180,1,89.9999999999999
328,212,30092,2,0,L|320:112,1,89.9999999999999
236,88,30692,2,0,L|244:188,1,89.9999999999999
176,236,31292,6,0,P|125:252|69:234,1,89.9999999999999
40,168,31892,2,0,P|91:152|147:170,1,89.9999999999999
176,236,32492,6,0,L|156:352,1,89.9999999999999
244,360,33092,2,0,L|264:244,1,89.9999999999999
344,300,33692,6,0,L|460:280,1,89.9999999999999
480,208,34292,2,0,L|364:188,1,89.9999999999999
316,140,34892,6,0,P|331:88|320:44,1,89.9999999999999
244,8,35492,2,0,P|229:60|240:104,1,89.9999999999999
180,164,36092,6,0,L|64:148,1,89.9999999999999
48,232,36692,2,0,L|164:248,1,89.9999999999999
216,288,37292,6,0,L|332:272,1,89.9999999999999
348,356,37892,2,0,L|232:372,1,89.9999999999999
168,380,38492,5,0,0:0:0:0:
192,292,38792,1,0,0:0:0:0:
220,208,39092,1,0,0:0:0:0:
244,120,39392,1,0,0:0:0:0:
268,32,39692,6,0,P|372:22|424:108,1,180
420,164,40592,1,0,0:0:0:0:
340,204,40892,6,0,B|193:153|240:286|76:224,1,270
66,138,42092,6,0,P|151:24|244:104,1,270
288,152,43292,6,0,P|289:271|412:168,1,360
312,52,45692,6,0,B|216:64|216:64|176:140|176:140|76:160,1,270
44,236,46892,6,0,B|140:248|140:248|180:324|180:324|280:344,1,270
350,370,48092,6,0,L|316:100,1,270
252,38,49292,6,0,P|152:42|120:116,1,180
120,196,50192,1,0,0:0:0:0:
196,152,50492,1,0,0:0:0:0:
84,48,61292,6,0,L|68:145,1,89.9999999999999
156,120,61892,2,0,L|140:217,1,89.9999999999999
212,264,62492,6,0,L|332:236,1,89.9999999999999
352,316,63092,2,0,L|439:295,1,89.9999999999999
488,220,63692,6,0,P|493:161|463:115,1,89.9999999999999
408,80,64292,2,0,P|366:94|322:87,1,89.9999999999999
240,48,64892,6,0,L|120:64,1,89.9999999999999
68,24,65492,6,0,L|41:225,1,180
96,276,66392,5,0,0:0:0:0:
180,240,66692,2,0,P|237:239|285:290,1,89.9999999999999
320,324,67292,6,0,P|377:325|425:274,1,89.9999999999999
444,228,67892,2,0,L|448:128,1,89.9999999999999
368,96,68492,6,0,B|320:88|276:108|276:108|228:36|228:36|186:61|130:50|130:50|100:128,2,360
444,200,71792,5,0,0:0:0:0:
395,275,72092,2,0,L|280:264,1,89.9999999999999
236,324,72692,2,0,L|121:313,1,89.9999999999999
64,356,73292,6,0,B|76:244|76:244|44:176|44:176|72:-8,1,360
148,52,74792,6,0,P|188:69|233:64,1,89.9999999999999
316,28,75392,1,0,0:0:0:0:
399,62,75692,6,0,L|376:252,1,180
356,364,76892,6,0,L|244:352,1,89.9999999999999
216,280,77492,2,0,L|126:289,1,89.9999999999999
52,240,78092,6,0,P|7:150|136:220,1,360
126,289,79592,1,0,0:0:0:0:
