osu file format v14

[General]
AudioFilename: audio.mp3
AudioLeadIn: 0
PreviewTime: 20607
Countdown: 0
SampleSet: Soft
StackLeniency: 0.7
Mode: 0
LetterboxInBreaks: 0
WidescreenStoryboard: 0

[Editor]
Bookmarks: 4210,12445,20681,32444,41855,51267,60679,70092,77150,85091,93914,100971,108031,116855
DistanceSpacing: 1.8
BeatDivisor: 4
GridSize: 4
TimelineZoom: 3.599998

[Metadata]
Title:Sekibaku no Maihime wa Kuraku Shizumu
TitleUnicode:寂寞の舞姫は昏く沈む
Artist:Se-U-Ra
ArtistUnicode:Se-U-Ra
Creator:Hinsvar
Version:Solitude
Source:
Tags:せゆーら seura Electronic Instrumental artcore Featured Artist FA Mappers' Guild MPG
BeatmapID:2730325
BeatmapSetID:1317826

[Difficulty]
HPDrainRate:6
CircleSize:4
OverallDifficulty:9
ApproachRate:9.5
SliderMultiplier:1.84
SliderTickRate:1

[Events]
//Background and Video events
0,0,"solitude.jpg",0,0
//Break Periods
2,70291,73095
//Storyboard Layer 0 (Background)
//Storyboard Layer 1 (Fail)
//Storyboard Layer 2 (Pass)
//Storyboard Layer 3 (Foreground)
//Storyboard Layer 4 (Overlay)
//Storyboard Sound Samples

[TimingPoints]
93,294.117647058823,7,2,10,50,1,0
2740,-100,7,2,10,50,0,0
4210,294.117647058823,7,2,2,60,1,0
4210,-250.000000000001,7,2,2,60,0,0
5386,-100,7,2,2,60,0,0
5607,-100,7,2,2,5,0,0
5680,-100,7,2,2,60,0,0
5974,-125,7,2,2,60,0,0
6268,-250.000000000001,7,2,2,60,0,0
7445,-100,7,2,2,60,0,0
8033,-125,7,2,2,60,0,0
8327,-166.666666666667,7,2,1,65,0,0
9798,-83.3333333333333,7,2,1,65,0,0
9871,-83.3333333333333,7,2,1,5,0,0
9945,-83.3333333333333,7,2,1,65,0,0
10018,-83.3333333333333,7,2,1,5,0,0
10092,-125,7,2,1,65,0,0
10386,-250,7,2,1,60,0,0
10680,-250,7,2,1,5,0,0
10974,-500,7,2,1,50,0,0
11268,-666.666666666667,7,2,1,5,0,0
11562,-83.3333333333333,7,2,1,65,0,0
11783,-83.3333333333333,7,2,1,5,0,0
11857,-83.3333333333333,7,2,1,65,0,0
11930,-83.3333333333333,7,2,1,5,0,0
12004,-83.3333333333333,7,2,1,65,0,0
12077,-83.3333333333333,7,2,1,5,0,0
12151,-125,7,2,1,65,0,0
12371,-125,7,2,1,5,0,0
12445,-125,7,2,1,70,0,0
13621,-83.3333333333333,7,2,1,70,0,0
13989,-83.3333333333333,7,2,1,5,0,0
14062,-83.3333333333333,7,2,1,70,0,0
14136,-83.3333333333333,7,2,1,5,0,0
14209,-166.666666666667,7,2,1,70,0,0
14504,-125,7,2,1,70,0,0
16268,-166.666666666667,7,2,1,70,0,0
16562,-100,7,2,1,70,0,0
19062,-83.3333333333333,7,2,1,70,0,0
19136,-83.3333333333333,7,2,1,5,0,0
19209,-125,7,2,1,70,0,0
19430,-125,7,2,1,5,0,0
19504,-62.5,7,2,1,75,0,0
19577,-62.5,7,2,1,5,0,0
19651,-166.666666666667,7,2,1,75,0,0
20092,-83.3333333333333,7,2,1,75,0,0
20386,-83.3333333333333,7,2,1,65,0,0
20680,294.117647058823,4,2,1,85,1,1
20680,-76.9230769230769,4,2,1,85,0,1
20827,-76.9230769230769,4,2,1,5,0,1
20900,-76.9230769230769,4,2,1,85,0,1
21047,-76.9230769230769,4,2,1,5,0,1
21121,-76.9230769230769,4,2,1,85,0,1
21194,-76.9230769230769,4,2,1,5,0,1
21268,-125,4,2,1,85,0,1
21562,-62.5,4,2,1,85,0,1
21856,-76.9230769230769,4,2,1,85,0,1
22003,-76.9230769230769,4,2,1,5,0,1
22077,-76.9230769230769,4,2,1,85,0,1
22224,-76.9230769230769,4,2,1,5,0,1
22297,-76.9230769230769,4,2,1,85,0,1
22444,-250,4,2,1,85,0,1
23032,-76.9230769230769,4,2,1,85,0,1
23179,-76.9230769230769,4,2,1,5,0,1
23253,-76.9230769230769,4,2,1,85,0,1
23400,-76.9230769230769,4,2,1,5,0,1
23474,-76.9230769230769,4,2,1,85,0,1
23547,-76.9230769230769,4,2,1,5,0,1
23621,-166.666666666667,4,2,1,85,0,1
24356,-58.8235294117647,4,2,1,85,0,1
24429,-58.8235294117647,4,2,1,5,0,1
24503,-58.8235294117647,4,2,1,85,0,1
24577,-58.8235294117647,4,2,1,5,0,1
24650,-58.8235294117647,4,2,1,85,0,1
24724,-58.8235294117647,4,2,1,5,0,1
24797,-166.666666666667,4,2,1,85,0,1
25091,-166.666666666667,4,2,1,5,0,1
25238,-166.666666666667,4,2,1,85,0,1
25385,-76.9230769230769,4,2,1,85,0,1
25532,-76.9230769230769,4,2,1,5,0,1
25606,-76.9230769230769,4,2,1,85,0,1
25753,-76.9230769230769,4,2,1,5,0,1
25827,-76.9230769230769,4,2,1,85,0,1
25900,-76.9230769230769,4,2,1,5,0,1
25974,-125,4,2,1,85,0,1
26268,-62.5,4,2,1,85,0,1
26562,-76.9230769230769,4,2,1,85,0,1
26709,-76.9230769230769,4,2,1,5,0,1
26782,-76.9230769230769,4,2,1,85,0,1
26929,-76.9230769230769,4,2,1,5,0,1
27003,-76.9230769230769,4,2,1,85,0,1
27150,-166.666666666667,4,2,1,85,0,1
27591,-83.3333333333333,4,2,1,85,0,1
27738,-83.3333333333333,4,2,1,75,0,1
28915,-55.5555555555556,4,2,1,85,0,1
29503,-166.666666666667,4,2,1,75,0,0
29797,-166.666666666667,4,2,10,55,0,0
30091,-250,4,2,2,75,0,0
30679,-125,4,2,2,75,0,0
31268,-250,4,2,2,75,0,0
31856,-83.3333333333333,4,2,1,75,0,0
31929,-83.3333333333333,4,2,1,5,0,0
32003,-83.3333333333333,4,2,1,75,0,0
32444,294.117647058823,4,2,1,65,1,0
32444,-125,4,2,1,65,0,0
32665,-125,4,2,1,5,0,0
32739,-125,4,2,1,65,0,0
34796,-125,4,2,1,65,0,0
35017,-125,4,2,1,5,0,0
35091,-125,4,2,1,65,0,0
35899,-125,4,2,1,5,0,0
36120,-125,4,2,1,65,0,0
36193,-125,4,2,1,5,0,0
36414,-125,4,2,1,65,0,0
36488,-125,4,2,1,5,0,0
36708,-250,4,2,1,65,0,0
37149,-125,4,2,1,65,0,0
37370,-125,4,2,1,5,0,0
37443,-125,4,2,1,65,0,0
39502,-125,4,2,1,65,0,0
39723,-125,4,2,1,5,0,0
39796,-125,4,2,1,65,0,0
40752,-125,4,2,1,5,0,0
40826,-125,4,2,1,65,0,0
40899,-125,4,2,1,5,0,0
41120,-125,4,2,1,65,0,0
41193,-125,4,2,1,5,0,0
41267,-125,4,2,0,65,0,0
41414,-125,4,2,1,70,0,0
41855,-111.111111111111,4,2,1,75,0,0
42591,-111.111111111111,4,2,1,5,0,0
42664,-111.111111111111,4,2,1,75,0,0
42811,-111.111111111111,4,2,1,5,0,0
42885,-111.111111111111,4,2,1,75,0,0
44355,-111.111111111111,4,2,1,5,0,0
44429,-111.111111111111,4,2,1,75,0,0
44576,-111.111111111111,4,2,1,5,0,0
44649,-111.111111111111,4,2,1,75,0,0
44943,-111.111111111111,4,2,1,5,0,0
45017,-111.111111111111,4,2,1,75,0,0
45164,-111.111111111111,4,2,1,5,0,0
45238,-111.111111111111,4,2,1,75,0,0
45458,-111.111111111111,4,2,1,5,0,0
45532,-111.111111111111,4,2,1,75,0,0
46046,-111.111111111111,4,2,1,5,0,0
46120,-111.111111111111,4,2,1,75,0,0
46561,-111.111111111111,4,2,1,65,0,0
46708,-111.111111111111,4,2,1,5,0,0
46782,-111.111111111111,4,2,1,65,0,0
46929,-111.111111111111,4,2,1,5,0,0
47002,-111.111111111111,4,2,1,65,0,0
47076,-111.111111111111,4,2,1,5,0,0
47149,-111.111111111111,4,2,1,65,0,0
48914,-100,4,2,1,70,0,0
48988,-100,4,2,1,5,0,0
49061,-100,4,2,1,70,0,0
49135,-100,4,2,1,5,0,0
49208,-100,4,2,1,70,0,0
49282,-100,4,2,1,5,0,0
49355,-100,4,2,1,70,0,0
49429,-100,4,2,1,5,0,0
49502,-62.5,4,2,1,65,0,0
49943,-62.5,4,2,1,75,0,0
50164,-62.5,4,2,1,5,0,0
50238,-125,4,2,1,75,0,0
50458,-125,4,2,1,5,0,0
50532,-125,4,2,1,75,0,0
50752,-125,4,2,1,5,0,0
50826,-83.3333333333333,4,2,1,70,0,0
51267,-83.3333333333333,4,2,2,70,0,0
51708,-83.3333333333333,4,2,2,70,0,0
52149,-166.666666666667,4,2,2,70,0,0
52296,-166.666666666667,4,2,2,5,0,0
52370,-166.666666666667,4,2,2,70,0,0
52517,-166.666666666667,4,2,2,5,0,0
52591,-166.666666666667,4,2,2,70,0,0
53620,-100,4,2,2,70,0,0
54061,-71.4285714285714,4,2,2,70,0,0
54502,-166.666666666667,4,2,2,70,0,0
54649,-166.666666666667,4,2,2,5,0,0
54723,-166.666666666667,4,2,2,70,0,0
54870,-166.666666666667,4,2,2,5,0,0
54943,-166.666666666667,4,2,2,70,0,0
55385,-250.000000000001,4,2,10,70,0,0
55973,-71.4285714285714,4,2,2,70,0,0
56414,-100,4,2,2,70,0,0
56855,-166.666666666667,4,2,2,70,0,0
57002,-166.666666666667,4,2,2,5,0,0
57076,-166.666666666667,4,2,2,70,0,0
57223,-166.666666666667,4,2,2,5,0,0
57296,-166.666666666667,4,2,2,70,0,0
58473,-250.000000000001,4,2,2,70,0,0
60238,-100,4,2,2,75,0,0
60458,-125,4,2,2,5,0,0
60532,-83.3333333333333,4,2,2,75,0,0
60605,-83.3333333333333,4,2,2,5,0,0
60679,-100,4,2,2,75,0,0
60899,-100,4,2,1,5,0,0
60973,-100,4,2,1,75,0,0
61708,-83.3333333333333,4,2,1,75,0,0
61782,-83.3333333333333,4,2,1,5,0,0
62002,-83.3333333333333,4,2,1,75,0,0
62223,-83.3333333333333,4,2,1,5,0,0
62296,-83.3333333333333,4,2,1,75,0,0
62517,-83.3333333333333,4,2,1,5,0,0
62591,-83.3333333333333,4,2,1,75,0,0
62664,-83.3333333333333,4,2,1,5,0,0
62738,-250,4,2,1,75,0,0
62958,-250,4,2,1,5,0,0
63032,-71.4285714285714,4,2,1,75,0,0
64208,-83.3333333333333,4,2,1,75,0,0
64282,-83.3333333333333,4,2,1,5,0,0
64355,-62.5,4,2,1,75,0,0
64576,-62.5,4,2,1,5,0,0
64649,-83.3333333333333,4,2,1,75,0,0
64723,-83.3333333333333,4,2,1,5,0,0
64943,-83.3333333333333,4,2,1,75,0,0
65017,-83.3333333333333,4,2,1,5,0,0
65091,-83.3333333333333,4,2,1,75,0,0
65164,-83.3333333333333,4,2,1,5,0,0
65238,-83.3333333333333,4,2,1,75,0,0
65311,-83.3333333333333,4,2,1,5,0,0
65385,-83.3333333333333,4,2,1,75,0,0
66708,-166.666666666667,4,2,1,75,0,0
67149,-83.3333333333333,4,2,1,75,0,0
67738,-166.666666666667,4,2,1,70,0,0
68620,-83.3333333333333,4,2,1,75,0,0
68988,-83.3333333333333,4,2,1,5,0,0
69061,-83.3333333333333,4,2,1,75,0,0
69135,-83.3333333333333,4,2,1,5,0,0
69208,-83.3333333333333,4,2,1,75,0,0
69502,-83.3333333333333,4,2,1,75,0,0
70091,294.117647058823,3,2,1,60,1,0
73620,-166.666666666667,3,2,1,65,0,0
77149,-125,3,2,1,70,0,0
78546,-125,3,2,1,5,0,0
78620,-125,3,2,1,70,0,0
81561,-111.111111111111,3,2,1,75,0,0
83326,-166.666666666667,3,2,10,80,0,0
83693,-166.666666666667,3,2,10,5,0,0
83767,-166.666666666667,3,2,10,80,0,0
84135,-166.666666666667,3,2,10,5,0,0
84208,-83.3333333333333,3,2,10,80,0,0
84576,-83.3333333333333,3,2,10,5,0,0
84649,-83.3333333333333,3,2,1,80,0,0
84723,-83.3333333333333,3,2,1,5,0,0
84796,-83.3333333333333,3,2,1,80,0,0
84870,-83.3333333333333,3,2,1,5,0,0
84943,-83.3333333333333,3,2,1,80,0,0
85016,-83.3333333333333,3,2,1,5,0,0
85090,294.117647058823,3,2,1,85,1,1
85090,-90.9090909090909,3,2,1,85,0,1
86487,-90.9090909090909,3,2,1,5,0,1
86560,-90.9090909090909,3,2,1,85,0,1
87737,-71.4285714285714,3,2,1,85,0,1
88619,-90.9090909090909,3,2,1,85,0,1
90016,-90.9090909090909,3,2,1,5,0,1
90089,-90.9090909090909,3,2,1,85,0,1
91266,-71.4285714285714,3,2,1,85,0,1
91339,-71.4285714285714,3,2,1,5,0,1
91413,-71.4285714285714,3,2,1,85,0,1
91487,-71.4285714285714,3,2,1,5,0,1
91560,-71.4285714285714,3,2,1,85,0,1
91634,-71.4285714285714,3,2,1,5,0,1
91707,-71.4285714285714,3,2,1,85,0,1
91781,-71.4285714285714,3,2,1,5,0,1
91854,-71.4285714285714,3,2,1,85,0,1
92222,-71.4285714285714,3,2,1,5,0,1
92295,-71.4285714285714,3,2,1,85,0,1
92369,-71.4285714285714,3,2,1,5,0,1
92442,-71.4285714285714,3,2,1,85,0,1
92516,-71.4285714285714,3,2,1,5,0,1
92589,-71.4285714285714,3,2,1,85,0,1
92663,-71.4285714285714,3,2,1,5,0,1
92737,-71.4285714285714,3,2,1,85,0,1
93104,-71.4285714285714,3,2,1,5,0,1
93178,-71.4285714285714,3,2,1,85,0,1
93472,-55.5555555555556,3,2,1,85,0,1
93545,-55.5555555555556,3,2,1,5,0,1
93619,-55.5555555555556,3,2,1,85,0,1
93913,294.117647058823,3,2,1,90,1,1
93913,-142.857142857143,3,2,1,90,0,1
94354,-71.4285714285714,3,2,1,90,0,1
94795,-142.857142857143,3,2,1,90,0,1
96560,-83.3333333333333,3,2,1,90,0,1
97001,-55.5555555555556,3,2,1,90,0,1
97442,-142.857142857143,3,2,1,90,0,1
97883,-71.4285714285714,3,2,1,90,0,1
98324,-142.857142857143,3,2,1,90,0,1
99207,-62.5,3,2,1,90,0,1
100089,-83.3333333333333,3,2,1,90,0,1
100971,-142.857142857143,3,2,1,90,0,1
101412,-71.4285714285714,3,2,1,90,0,1
101854,-142.857142857143,3,2,1,90,0,1
103471,-71.4285714285714,3,2,1,90,0,1
103839,-71.4285714285714,3,2,1,5,0,1
103912,-71.4285714285714,3,2,1,90,0,1
104060,-55.5555555555556,3,2,1,90,0,1
104942,-71.4285714285714,3,2,1,90,0,1
106854,-50,3,2,1,90,0,1
107148,-71.4285714285714,3,2,1,90,0,1
107515,-71.4285714285714,3,2,1,5,0,1
107589,-142.857142857143,3,2,1,90,0,1
107810,-142.857142857143,3,2,1,5,0,1
107883,-71.4285714285714,3,2,1,90,0,1
108030,-71.4285714285714,3,2,1,80,0,0
108104,-71.4285714285714,3,2,1,5,0,0
108177,-142.857142857143,3,2,1,80,0,0
108398,-142.857142857143,3,2,1,5,0,0
108471,-55.5555555555556,3,2,1,85,0,0
108545,-55.5555555555556,3,2,1,5,0,0
108618,-111.111111111111,3,2,1,85,0,0
108839,-111.111111111111,3,2,1,5,0,0
108912,-71.4285714285714,3,2,1,75,0,0
108986,-71.4285714285714,3,2,1,5,0,0
109060,-142.857142857143,3,2,1,75,0,0
109280,-142.857142857143,3,2,1,5,0,0
109354,-83.3333333333333,3,2,1,70,0,0
109427,-83.3333333333333,3,2,1,5,0,0
109501,-166.666666666667,3,2,1,70,0,0
109721,-166.666666666667,3,2,1,5,0,0
109795,-100,3,2,1,65,0,0
109868,-100,3,2,1,5,0,0
109942,-200,3,2,1,65,0,0
110162,-200,3,2,1,5,0,0
110236,-71.4285714285714,3,2,1,75,0,0
110310,-71.4285714285714,3,2,1,5,0,0
110383,-142.857142857143,3,2,1,75,0,0
110604,-142.857142857143,3,2,1,5,0,0
110677,-100,3,2,1,70,0,0
110751,-100,3,2,1,5,0,0
110824,-125,3,2,1,70,0,0
110971,-125,3,2,0,70,0,0
111118,-250,3,2,1,65,0,0
111560,-166.666666666667,3,2,1,70,0,0
112001,-90.9090909090909,3,2,1,75,0,0
112442,-62.5,3,2,1,80,0,0
112883,-50,3,2,1,85,0,0
114207,-62.5,3,2,1,80,0,0
115089,-62.5,3,2,1,90,0,1
115162,-62.5,3,2,1,5,0,1
115236,-62.5,3,2,1,90,0,1
115604,-62.5,3,2,1,5,0,1
115677,-62.5,3,2,1,90,0,1
116118,-62.5,3,2,1,5,0,1
116192,-62.5,3,2,1,90,0,1
116339,-62.5,3,2,1,5,0,1
116412,-62.5,3,2,1,90,0,1
116486,-62.5,3,2,1,5,0,1
116560,-62.5,3,2,1,90,0,1
116854,-142.857142857143,3,2,10,80,0,0
117736,-142.857142857143,3,2,10,60,0,0

[Colours]
Combo1 : 125,188,251
Combo2 : 46,252,232
Combo3 : 19,217,163
Combo4 : 49,168,193

[HitObjects]
256,192,2740,5,2,0:0:0:0:
256,192,2887,12,0,4063,0:0:0:0:
425,45,4210,6,0,P|433:65|433:95,1,36.8,4|0,3:2|0:0,0:0:0:0:
377,184,4504,2,0,P|369:164|369:134,2,36.8,2|0|0,0:0|0:0|0:0,0:0:0:0:
461,282,4945,1,2,0:0:0:0:
361,343,5092,2,0,P|385:346|408:330,1,36.8,10|0,0:0|0:0,0:0:0:0:
271,196,5386,6,0,P|178:172|109:166,1,138,2|0,3:2|0:0,0:0:0:0:
80,228,5680,1,0,3:0:0:0:
190,74,5827,1,0,3:0:0:0:
268,287,5974,2,0,P|278:325|281:375,1,73.6,2|8,3:2|0:0,0:0:0:0:
386,211,6268,6,0,P|398:193|418:183,1,36.8,0|0,3:0|0:0,0:0:0:0:
303,130,6562,2,0,P|286:115|264:111,2,36.8,10|0|0,0:0|0:0|0:0,0:0:0:0:
194,231,7004,1,2,0:0:0:0:
262,336,7151,2,0,P|260:311|249:292,1,36.8,10|2,0:0|0:0,0:0:0:0:
116,162,7445,5,0,3:0:0:0:
88,114,7518,1,0,3:0:0:0:
116,66,7592,1,0,3:0:0:0:
297,11,7739,5,2,3:2:0:0:
194,231,7886,1,0,0:0:0:0:
353,157,8033,2,0,P|367:121|366:81,1,73.6,0|10,3:0|0:0,0:0:0:0:
272,283,8327,6,0,P|274:310|288:349,1,55.1999983154297,0|0,3:0|0:0,0:0:0:0:
156,176,8621,2,0,B|138:159|138:159|101:153,2,55.1999983154297,10|0|0,0:0|0:0|3:0,0:0:0:0:
27,268,9062,1,0,0:0:0:0:
169,335,9209,2,0,P|148:351|112:359,1,55.1999983154297,10|0,0:0|0:0,0:0:0:0:
304,205,9504,5,2,3:2:0:0:
314,208,9577,1,0,3:0:0:0:
324,211,9651,1,0,3:0:0:0:
334,214,9724,1,0,3:0:0:0:
344,217,9798,6,0,L|332:154,1,55.1999983154297,8|0,0:0|0:0,0:0:0:0:
375,224,9945,2,0,L|363:161,1,55.1999983154297,8|0,0:0|0:0,0:0:0:0:
183,83,10092,5,2,3:2:0:0:
329,13,10239,1,8,0:0:0:0:
122,229,10386,6,0,P|108:169|76:102,1,128.8,4|0,3:2|0:0,0:0:0:0:
90,99,10974,6,0,P|62:74|32:64,1,64.4,2|0,0:0|0:0,0:0:0:0:
37,64,11562,6,0,P|135:67|209:29,1,165.599994946289,2|0,3:2|0:0,0:0:0:0:
111,157,11857,2,0,P|118:128|146:94,1,55.1999983154297,10|0,0:0|0:0,0:0:0:0:
24,210,12004,2,0,P|9:186|2:160,1,55.1999983154297,2|0,3:2|0:0,0:0:0:0:
205,252,12151,6,0,B|238:210|238:210|215:150,1,110.4,8|0,3:2|0:0,0:0:0:0:
119,28,12445,5,4,3:2:0:0:
299,108,12592,1,0,3:0:0:0:
299,108,12665,1,0,3:0:0:0:
299,108,12739,2,0,P|314:81|326:32,1,73.6,8|0,0:0|0:0,0:0:0:0:
442,197,13033,2,0,P|438:166|420:119,1,73.6,2|0,3:2|0:0,0:0:0:0:
279,331,13327,2,0,B|262:295|262:295|276:257,1,73.6,8|0,0:0|0:0,0:0:0:0:
133,100,13621,5,2,3:2:0:0:
120,111,13695,1,0,3:0:0:0:
112,125,13768,1,0,3:0:0:0:
106,140,13842,1,0,3:0:0:0:
105,156,13915,6,0,P|132:156|159:141,1,55.1999983154297,10|0,0:0|0:0,0:0:0:0:
140,11,14062,2,0,P|113:11|86:26,1,55.1999983154297,10|0,0:0|0:0,0:0:0:0:
99,173,14209,5,0,3:0:0:0:
198,222,14357,1,10,0:0:0:0:
347,32,14504,5,4,3:2:0:0:
422,158,14651,2,0,P|420:125|440:83,2,73.6,0|8|0,0:0|0:0|0:0,0:0:0:0:
238,24,15092,2,0,P|239:56|262:95,1,73.6,0|2,3:0|0:0,0:0:0:0:
401,285,15386,2,0,B|377:256|377:256|320:246,1,73.6,10|2,0:0|0:0,0:0:0:0:
96,330,15680,5,0,3:0:0:0:
105,293,15754,1,0,3:0:0:0:
114,258,15827,1,0,3:0:0:0:
30,49,15974,1,2,3:2:0:0:
190,192,16121,1,2,3:2:0:0:
79,129,16268,2,0,P|109:127|142:112,1,55.1999983154297,8|2,0:0|0:0,0:0:0:0:
389,23,16562,5,4,3:2:0:0:
322,86,16709,1,0,3:0:0:0:
364,167,16857,1,0,3:0:0:0:
122,29,17004,5,10,0:0:0:0:
237,143,17151,1,0,3:0:0:0:
158,175,17298,1,0,3:0:0:0:
297,304,17445,1,10,0:0:0:0:
151,191,17592,1,0,3:0:0:0:
27,356,17739,5,0,3:0:0:0:
38,321,17812,1,0,3:0:0:0:
50,286,17886,1,10,0:0:0:0:
159,118,18033,1,2,3:2:0:0:
260,153,18180,1,2,3:2:0:0:
64,7,18327,2,0,P|91:13|119:26,1,46,10|0,0:0|0:0,0:0:0:0:
182,218,18474,1,2,0:0:0:0:
412,19,18621,5,4,3:2:0:0:
428,28,18695,1,0,3:0:0:0:
439,43,18768,1,0,3:0:0:0:
448,59,18842,1,0,3:0:0:0:
452,77,18915,1,0,3:0:0:0:
453,96,18989,1,0,3:0:0:0:
450,115,19062,2,0,B|421:125|421:125|388:154,1,55.1999983154297,10|0,0:0|0:0,0:0:0:0:
302,263,19209,6,0,P|246:262|190:205,1,110.4,10|0,0:0|0:0,0:0:0:0:
327,74,19504,6,0,P|313:108|305:145,1,73.6,6|0,3:2|0:0,0:0:0:0:
382,314,19651,6,0,P|418:309|442:290,1,55.1999983154297,2|2,3:2|0:0,0:0:0:0:
479,197,19945,1,2,3:2:0:0:
243,329,20092,6,0,P|217:291|233:217,1,110.399996630859,6|2,3:2|0:0,0:0:0:0:
74,39,20386,1,10,0:0:0:0:
68,48,20459,1,2,0:0:0:0:
68,59,20533,1,2,0:0:0:0:
73,68,20607,1,2,0:0:0:0:
90,95,20680,6,0,P|132:68|221:64,1,119.599994525147,6|0,0:0|0:0,0:0:0:0:
370,133,20900,1,2,0:0:0:0:
387,117,20974,2,0,P|399:76|398:44,1,59.7999972625734,0|0,3:0|0:0,0:0:0:0:
269,224,21121,2,0,P|258:188|257:154,1,59.7999972625734,2|0,0:0|0:0,0:0:0:0:
413,291,21268,6,0,P|405:253|375:222,1,73.6,0|2,3:0|0:0,0:0:0:0:
97,333,21562,2,0,P|98:254|164:191,1,147.2,0|2,3:0|0:0,0:0:0:0:
345,24,21856,6,0,P|329:82|323:175,1,119.599994525147,2|0,3:2|0:0,0:0:0:0:
237,315,22077,1,2,0:0:0:0:
253,297,22150,2,0,P|246:257|231:225,1,59.7999972625734,0|0,3:0|0:0,0:0:0:0:
61,115,22297,1,2,0:0:0:0:
209,150,22444,6,0,P|184:167|149:168,1,55.2,2|0,3:2|0:0,0:0:0:0:
54,120,22738,1,2,3:2:0:0:
48,129,22812,1,2,0:0:0:0:
44,139,22885,1,2,0:0:0:0:
43,150,22959,1,2,0:0:0:0:
47,159,23032,6,0,P|91:105|92:35,1,119.599994525147,2|0,3:2|0:0,0:0:0:0:
240,177,23253,1,2,0:0:0:0:
230,195,23327,2,0,P|200:160|192:124,1,59.7999972625734,0|0,3:0|0:0,0:0:0:0:
280,25,23474,2,0,P|317:29|349:50,1,59.7999972625734,2|0,0:0|0:0,0:0:0:0:
463,204,23621,6,0,P|482:186|490:140,1,55.1999983154297,0|0,3:0|0:0,0:0:0:0:
428,14,23915,1,2,0:0:0:0:
324,271,24062,1,2,0:0:0:0:
324,271,24356,6,0,P|276:286|243:312,1,78.2000014915467,2|0,3:2|0:0,0:0:0:0:
117,171,24503,2,0,P|156:201|178:243,1,78.2000014915467,2|0,3:2|0:0,0:0:0:0:
292,60,24650,2,0,P|264:102|259:149,1,78.2000014915467,2|0,3:2|0:0,0:0:0:0:
417,239,24797,6,0,P|442:224|455:125,1,137.999995788574,2|0,3:2|0:0,0:0:0:0:
320,243,25238,1,2,0:0:0:0:
310,257,25312,1,0,0:0:0:0:
319,274,25385,6,0,P|380:287|441:328,1,119.599994525147,6|0,0:0|0:0,0:0:0:0:
375,149,25606,1,2,0:0:0:0:
364,165,25679,2,0,P|332:158|293:128,1,59.7999972625734,0|0,3:0|0:0,0:0:0:0:
231,323,25827,2,0,P|229:290|208:248,1,59.7999972625734,2|0,0:0|0:0,0:0:0:0:
116,125,25974,6,0,P|118:83|137:41,1,73.6,0|2,3:0|0:0,0:0:0:0:
84,317,26268,2,0,P|21:241|7:163,1,147.2,0|2,3:0|0:0,0:0:0:0:
293,26,26562,6,0,P|368:27|419:57,1,119.599994525147,6|0,0:0|0:0,0:0:0:0:
312,160,26782,1,2,0:0:0:0:
326,178,26856,2,0,P|365:171|391:159,1,59.7999972625734,0|0,3:0|0:0,0:0:0:0:
203,80,27003,1,2,0:0:0:0:
75,231,27150,6,0,P|97:205|113:151,1,82.7999974731446,0|0,3:0|0:0,0:0:0:0:
81,19,27444,5,2,0:0:0:0:
48,24,27518,1,2,0:0:0:0:
28,50,27591,2,0,P|29:69|50:107,1,55.1999983154297,2|0,0:0|0:0,0:0:0:0:
201,216,27738,5,6,3:2:0:0:
217,227,27812,1,0,3:0:0:0:
239,225,27885,1,0,3:0:0:0:
259,212,27959,1,0,3:0:0:0:
267,192,28032,1,0,3:0:0:0:
267,170,28106,1,0,3:0:0:0:
253,149,28179,2,0,P|223:130|188:126,1,55.1999983154297,0|0,3:0|3:0,0:0:0:0:
103,286,28327,5,4,3:2:0:0:
84,298,28400,1,0,3:0:0:0:
61,296,28474,1,0,3:0:0:0:
42,283,28547,1,0,3:0:0:0:
34,262,28621,1,0,3:0:0:0:
34,240,28694,1,0,3:0:0:0:
47,221,28768,2,0,P|74:203|110:199,1,55.1999983154297,8|0,3:0|3:0,0:0:0:0:
370,332,28915,6,0,B|423:264|423:264|385:176,1,165.599994946289,14|0,0:0|0:0,0:0:0:0:
214,16,29209,2,0,B|161:84|161:84|199:172,1,165.599994946289,12|2,0:0|0:0,0:0:0:0:
242,350,29503,6,0,P|258:306|274:241,1,110.399996630859,6|2,3:2|0:0,0:0:0:0:
204,39,30091,5,4,3:2:0:0:
118,130,30238,2,0,P|145:119|163:118,1,36.8,8|0,0:0|0:0,0:0:0:0:
310,177,30532,1,0,3:0:0:0:
349,38,30679,2,0,P|381:85|392:259,1,220.8,2|2,0:0|0:0,0:0:0:0:
204,363,31268,6,0,P|193:343|188:318,1,36.8,4|8,3:2|0:0,0:0:0:0:
283,235,31562,1,2,0:0:0:0:
138,50,31709,5,0,3:0:0:0:
105,89,31782,1,0,3:0:0:0:
114,142,31856,2,0,B|140:157|140:157|174:164,1,55.1999983154297,10|0,0:0|0:0,0:0:0:0:
345,31,32003,1,2,3:2:0:0:
345,31,32297,1,2,3:2:0:0:
329,36,32371,1,2,3:2:0:0:
313,41,32444,6,0,P|378:47|416:3,1,110.4,6|0,3:2|0:0,0:0:0:0:
499,12,32738,2,0,P|487:50|479:99,1,73.6,0|0,3:0|0:0,0:0:0:0:
504,262,33032,1,0,3:0:0:0:
340,145,33179,2,0,P|376:151|431:173,1,73.6,2|0,0:0|0:0,0:0:0:0:
242,27,33473,2,0,P|207:73|103:56,1,147.2,2|0,0:0|0:0,0:0:0:0:
247,216,33914,1,0,3:0:0:0:
330,51,34061,1,2,0:0:0:0:
87,177,34208,5,2,3:2:0:0:
78,167,34649,1,2,0:0:0:0:
164,281,34796,6,0,P|214:277|266:246,1,110.4
245,161,35091,2,0,P|262:183|279:236,1,73.6,2|0,3:2|0:0,0:0:0:0:
209,369,35385,1,0,3:0:0:0:
326,318,35532,2,0,P|358:316|410:335,1,73.6,2|0,0:0|0:0,0:0:0:0:
495,193,35826,6,0,P|482:203|450:210,1,36.8,2|0,0:0|0:0,0:0:0:0:
287,136,36120,2,0,P|270:138|240:126,1,36.8,2|0,0:0|0:0,0:0:0:0:
85,32,36414,2,0,P|69:25|53:4,1,36.8,2|0,0:0|0:0,0:0:0:0:
26,22,36708,6,0,P|49:48|98:61,1,73.6,2|0,0:0|0:0,0:0:0:0:
196,292,37149,6,0,P|187:226|207:176,1,110.4,2|0,3:2|0:0,0:0:0:0:
253,117,37443,2,0,P|252:87|216:54,1,73.6,0|0,3:0|0:0,0:0:0:0:
339,262,37738,1,0,3:0:0:0:
478,189,37885,2,0,P|440:188|390:166,1,73.6,2|0,0:0|3:0,0:0:0:0:
268,76,38179,2,0,P|227:168|218:213,1,147.2,2|0,0:0|0:0,0:0:0:0:
55,102,38620,2,0,P|81:128|107:175,1,73.6,2|2,3:2|0:0,0:0:0:0:
113,315,38914,5,2,3:2:0:0:
120,297,39355,1,2,0:0:0:0:
326,340,39502,6,0,P|314:303|247:250,1,110.4,2|0,3:2|0:0,0:0:0:0:
277,145,39796,2,0,P|255:167|216:185,1,73.6,2|0,3:2|0:0,0:0:0:0:
160,56,40091,1,0,3:0:0:0:
9,143,40238,2,0,P|21:116|23:57,1,73.6,2|0,0:0|3:0,0:0:0:0:
97,298,40532,6,0,P|152:289|190:235,1,110.4,2|0,0:0|0:0,0:0:0:0:
185,249,40826,2,0,P|187:224|195:202,1,36.8,2|0,0:0|0:0,0:0:0:0:
385,352,41120,2,0,P|373:329|369:310,1,36.8,2|0,0:0|0:0,0:0:0:0:
370,318,41267,1,8,0:0:0:0:
250,329,41414,5,0,3:0:0:0:
170,170,41561,1,0,3:0:0:0:
296,113,41708,1,0,3:0:0:0:
19,220,41855,5,8,0:0:0:0:
59,230,41929,1,8,0:0:0:0:
98,240,42002,1,8,0:0:0:0:
138,250,42076,1,8,0:0:0:0:
177,260,42149,2,0,B|147:287|147:287|102:297,1,82.7999974731446,4|2,3:2|0:0,0:0:0:0:
243,64,42443,6,0,P|239:106|280:138,1,82.7999974731446,0|0,3:0|0:0,0:0:0:0:
375,93,42664,2,0,P|378:50|337:18,1,82.7999974731446,2|0,0:0|0:0,0:0:0:0:
348,185,42885,5,2,0:0:0:0:
276,222,43032,1,0,3:0:0:0:
137,132,43179,1,2,0:0:0:0:
368,194,43326,5,10,0:0:0:0:
278,312,43473,1,2,0:0:0:0:
194,58,43620,1,2,3:2:0:0:
388,178,43767,5,2,0:0:0:0:
371,182,44061,1,2,0:0:0:0:
248,150,44208,6,0,P|209:147|155:169,1,82.7999974731446,2|0,3:2|0:0,0:0:0:0:
70,251,44429,2,0,P|109:254|163:232,1,82.7999974731446,2|0,0:0|0:0,0:0:0:0:
151,241,44649,1,2,0:0:0:0:
79,80,44796,6,0,P|73:37|101:7,1,82.7999974731446,0|0,3:0|0:0,0:0:0:0:
112,27,45017,2,0,P|118:70|90:100,1,82.7999974731446,2|0,0:0|0:0,0:0:0:0:
9,208,45238,6,0,P|50:193|152:184,1,124.199996209717,2|0,0:0|0:0,0:0:0:0:
197,240,45532,1,2,0:0:0:0:
318,83,45679,1,8,0:0:0:0:
215,253,45826,2,0,P|232:206|214:130,1,124.199996209717,2|0,0:0|0:0,0:0:0:0:
173,69,46120,5,2,0:0:0:0:
359,176,46267,1,8,0:0:0:0:
490,8,46414,1,0,3:0:0:0:
291,94,46561,6,0,B|263:63|263:63|290:22,1,82.7999974731446,10|0,0:0|0:0,0:0:0:0:
443,138,46782,1,2,0:0:0:0:
460,120,46855,2,0,B|466:94|466:94|448:71,1,41.3999987365723,8|0,0:0|0:0,0:0:0:0:
342,222,47002,2,0,B|332:210|332:210|338:184,1,41.3999987365723,2|0,0:0|0:0,0:0:0:0:
495,348,47149,6,0,B|453:301|453:301|394:326,1,124.199996209717,10|2,0:0|0:0,0:0:0:0:
397,325,47443,1,8,0:0:0:0:
303,272,47591,5,2,0:0:0:0:
229,132,47738,1,8,0:0:0:0:
278,65,47885,1,2,0:0:0:0:
103,308,48032,5,8,0:0:0:0:
172,231,48179,1,2,0:0:0:0:
67,66,48326,1,10,0:0:0:0:
10,160,48473,5,2,0:0:0:0:
28,154,48767,1,2,0:0:0:0:
166,97,48914,6,0,L|114:80,1,46,8|0,0:0|0:0,0:0:0:0:
179,69,49061,2,0,L|127:52,1,46,8|0,0:0|0:0,0:0:0:0:
290,158,49208,2,0,L|238:175,1,46,10|0,0:0|0:0,0:0:0:0:
303,186,49355,2,0,L|251:203,1,46,8|0,0:0|0:0,0:0:0:0:
31,242,49502,1,8,0:0:0:0:
67,238,49576,1,8,0:0:0:0:
100,252,49649,1,8,0:0:0:0:
120,283,49723,1,8,0:0:0:0:
123,319,49796,1,8,0:0:0:0:
107,352,49870,1,8,0:0:0:0:
75,370,49943,6,0,P|101:221|158:184,1,220.8,6|0,3:2|0:0,0:0:0:0:
49,359,50238,6,0,P|39:307|63:236,1,110.4,4|0,3:2|0:0,0:0:0:0:
67,128,50532,2,0,P|96:171|163:205,1,110.4,6|0,3:2|0:0,0:0:0:0:
190,346,50826,6,0,P|226:341|247:324,1,55.1999983154297,10|0,0:0|0:0,0:0:0:0:
298,178,50973,1,10,0:0:0:0:
313,172,51046,1,10,0:0:0:0:
327,170,51120,1,2,3:2:0:0:
342,173,51193,1,2,3:2:0:0:
356,181,51267,6,0,P|386:240|379:296,1,110.399996630859,6|2,3:2|0:0,0:0:0:0:
262,366,51561,1,2,0:0:0:0:
464,333,51708,2,0,P|493:278|503:225,2,110.399996630859,2|2|2,0:0|0:0|0:0,0:0:0:0:
375,123,52149,6,0,P|360:93|364:59,1,55.1999983154297,2|0,3:2|0:0,0:0:0:0:
379,51,52370,2,0,P|394:81|390:115,1,55.1999983154297,2|0,3:2|0:0,0:0:0:0:
333,199,52591,5,0,3:0:0:0:
226,141,52738,1,0,3:0:0:0:
119,82,52885,1,0,3:0:0:0:
230,29,53032,5,10,0:0:0:0:
63,164,53179,1,2,3:2:0:0:
58,177,53252,1,0,3:0:0:0:
53,190,53326,2,0,P|49:155|35:131,1,55.1999983154297,0|10,3:0|0:0,0:0:0:0:
164,307,53620,6,0,P|167:259|191:204,2,92,2|2|0,0:0|0:0|0:0,0:0:0:0:
393,146,54061,2,0,P|396:77|359:13,1,128.799996069336,2|2,0:0|0:0,0:0:0:0:
139,127,54355,1,2,3:2:0:0:
270,269,54502,6,0,P|297:267|326:245,1,55.1999983154297,2|0,3:2|0:0,0:0:0:0:
326,280,54723,2,0,P|302:294|275:296,1,55.1999983154297,2|0,3:2|0:0,0:0:0:0:
189,240,54943,1,2,3:2:0:0:
399,147,55091,1,2,3:2:0:0:
407,157,55164,1,0,3:0:0:0:
412,169,55238,1,0,3:0:0:0:
410,182,55311,1,0,3:0:0:0:
402,190,55385,6,0,L|361:182,1,36.8,8|2,0:0|3:2,0:0:0:0:
288,96,55605,1,0,3:0:0:0:
283,87,55679,2,0,L|242:95,1,36.8,8|2,0:0|3:2,0:0:0:0:
138,337,55973,6,0,P|108:272|105:189,2,128.799996069336,6|0|0,3:2|0:0|0:0,0:0:0:0:
6,122,56414,2,0,P|37:82|77:54,1,92,2|2,0:0|0:0,0:0:0:0:
178,182,56708,1,2,3:2:0:0:
300,53,56855,6,0,P|311:76|309:109,1,55.1999983154297,2|0,3:2|0:0,0:0:0:0:
292,126,57076,2,0,P|281:103|283:70,1,55.1999983154297,2|0,3:2|0:0,0:0:0:0:
375,19,57296,1,2,3:2:0:0:
483,111,57443,1,0,3:0:0:0:
308,208,57591,1,2,3:2:0:0:
477,348,57738,5,10,0:0:0:0:
356,280,57885,1,0,3:0:0:0:
364,285,57958,1,0,3:0:0:0:
374,289,58032,2,0,P|387:257|391:228,1,55.1999983154297,2|8,3:2|0:0,0:0:0:0:
352,94,58326,5,0,3:0:0:0:
289,166,58473,2,0,P|265:164|238:158,2,36.8,2|2|2,0:0|0:0|0:0,0:0:0:0:
298,196,59061,5,0,3:0:0:0:
211,88,59208,1,0,3:0:0:0:
95,257,59355,1,2,3:2:0:0:
312,210,59649,5,0,3:0:0:0:
186,79,59796,1,0,3:0:0:0:
90,284,59943,1,2,3:2:0:0:
101,292,60238,6,0,P|128:245|70:206,1,138,2|0,3:2|0:0,0:0:0:0:
111,302,60532,2,0,P|140:281|149:251,1,55.1999983154297,2|0,3:2|0:0,0:0:0:0:
88,125,60679,6,0,P|101:58|159:14,1,138,4|0,3:2|0:0,0:0:0:0:
209,83,60973,1,0,3:0:0:0:
332,243,61120,2,0,P|375:236|432:192,1,92,2|0,0:0|3:0,0:0:0:0:
457,20,61414,1,0,0:0:0:0:
349,155,61561,1,0,3:0:0:0:
175,34,61708,6,0,P|144:20|116:13,1,55.1999983154297,2|0,3:2|0:0,0:0:0:0:
187,72,62002,6,0,P|97:27|1:25,1,165.599994946289,4|0,3:2|0:0,0:0:0:0:
153,174,62296,2,0,P|56:200|-17:263,1,165.599994946289,4|0,3:2|0:0,0:0:0:0:
196,273,62591,2,0,P|171:297|153:323,1,55.1999983154297,2|0,3:2|0:0,0:0:0:0:
276,378,62738,6,0,P|295:360|293:331,1,55.2,4|0,3:2|0:0,0:0:0:0:
266,192,63032,5,4,3:2:0:0:
406,317,63179,2,0,B|476:329|476:329|525:265,2,128.799996069336,2|2|0,0:0|3:2|0:0,0:0:0:0:
512,87,63620,2,0,B|476:41|476:41|406:53,1,128.799996069336,2|0,3:2|0:0,0:0:0:0:
262,186,63914,1,2,0:0:0:0:
268,186,63988,1,2,0:0:0:0:
274,186,64061,1,2,0:0:0:0:
280,186,64135,1,2,0:0:0:0:
285,186,64208,6,0,L|219:212,1,55.1999983154297,2|0,3:2|0:0,0:0:0:0:
154,165,64355,2,0,L|390:240,1,220.8,2|0,3:2|0:0,0:0:0:0:
405,359,64649,6,0,L|425:296,1,55.1999983154297,2|0,3:2|0:0,0:0:0:0:
427,381,64943,2,0,L|447:318,1,55.1999983154297,2|0,3:2|0:0,0:0:0:0:
364,231,65091,2,0,L|408:182,1,55.1999983154297,2|0,3:2|0:0,0:0:0:0:
335,84,65238,2,0,L|393:53,1,55.1999983154297,2|0,3:2|0:0,0:0:0:0:
280,188,65385,5,4,3:2:0:0:
202,151,65532,1,2,3:2:0:0:
171,69,65679,1,2,3:2:0:0:
18,168,65826,2,0,P|43:190|74:206,1,55.1999983154297,0|0,3:0|0:0,0:0:0:0:
211,236,65973,5,2,3:2:0:0:
75,95,66120,1,0,3:0:0:0:
21,283,66267,1,0,3:0:0:0:
185,156,66414,1,2,3:2:0:0:
336,358,66561,5,8,0:0:0:0:
386,249,66708,2,0,P|417:233|447:229,1,55.1999983154297,2|0,3:2|3:0,0:0:0:0:
254,310,67002,1,0,3:0:0:0:
239,293,67076,1,0,3:0:0:0:
231,272,67149,6,0,P|233:219|257:153,1,110.399996630859,2|0,3:2|3:0,0:0:0:0:
391,54,67370,1,2,3:2:0:0:
401,70,67443,2,0,P|383:85|344:91,1,55.1999983154297,0|0,3:0|0:0,0:0:0:0:
166,14,67591,1,10,0:0:0:0:
44,109,67738,6,0,P|18:96|8:60,2,55.1999983154297,4|0|2,3:2|0:0|0:0,0:0:0:0:
124,191,68179,2,0,P|111:197|98:200,2,27.5999991577149,2|2|2,0:0|0:0|0:0,0:0:0:0:
160,107,68473,1,8,0:0:0:0:
60,307,68620,5,10,0:0:0:0:
255,209,68767,1,2,0:0:0:0:
261,224,68841,1,2,0:0:0:0:
255,239,68914,2,0,P|225:233|186:235,1,55.1999983154297,2|0,3:2|0:0,0:0:0:0:
145,377,69061,2,0,P|174:371|210:357,1,55.1999983154297,0|0,3:0|0:0,0:0:0:0:
343,268,69208,6,0,P|377:276|447:308,1,110.399996630859,6|0,3:2|3:0,0:0:0:0:
295,102,69502,1,2,3:2:0:0:
316,152,69576,1,0,3:0:0:0:
362,182,69649,1,0,3:0:0:0:
417,174,69723,1,0,3:0:0:0:
453,133,69796,2,0,P|461:99|463:67,1,55.1999983154297,4|0,3:2|0:0,0:0:0:0:
343,13,69943,5,2,3:2:0:0:
336,21,70017,1,2,3:2:0:0:
339,32,70091,1,4,3:2:0:0:
205,189,73620,5,4,3:2:0:0:
340,88,73767,1,2,0:0:0:0:
403,148,73914,1,2,0:0:0:0:
375,231,74061,1,2,0:0:0:0:
296,271,74208,1,0,1:0:0:0:
288,268,74282,1,0,1:0:0:0:
280,265,74355,1,0,1:0:0:0:
272,262,74429,1,0,1:0:0:0:
264,259,74502,5,2,1:2:0:0:
360,352,74649,2,0,P|376:351|401:339,2,27.5999991577149,2|0|0,1:2|1:0|1:0,0:0:0:0:
464,297,74943,1,2,0:0:0:0:
354,200,75090,1,0,1:0:0:0:
350,192,75164,1,0,1:0:0:0:
346,184,75238,1,0,1:0:0:0:
342,176,75311,1,0,1:0:0:0:
339,168,75385,6,0,P|342:140|359:106,2,55.1999983154297,6|0|0,3:2|0:0|0:0,0:0:0:0:
215,31,75826,2,0,P|231:59|236:94,1,55.1999983154297,2|0,3:2|0:0,0:0:0:0:
226,101,76267,1,10,0:0:0:0:
342,28,76414,2,0,P|362:20|386:16,2,27.5999991577149,0|0|2,1:0|1:0|1:2,0:0:0:0:
252,182,76708,2,0,P|272:189|296:193,1,27.5999991577149,2|0,1:2|1:0,0:0:0:0:
409,158,76855,5,2,0:0:0:0:
456,214,76953,5,2,0:0:0:0:
456,287,77051,5,2,0:0:0:0:
402,337,77149,6,0,P|362:330|329:285,1,73.6,4|2,3:2|0:0,0:0:0:0:
239,100,77443,2,0,P|207:111|173:151,1,73.6,0|0,3:0|0:0,0:0:0:0:
113,366,77738,1,10,0:0:0:0:
75,218,77885,1,0,3:0:0:0:
7,317,78032,1,0,3:0:0:0:
176,271,78179,1,0,3:0:0:0:
49,97,78326,2,0,P|94:124|165:120,1,110.4,2|0,3:2|0:0,0:0:0:0:
224,18,78620,1,8,0:0:0:0:
209,43,78693,1,8,0:0:0:0:
220,70,78767,1,0,3:0:0:0:
397,245,78914,6,0,P|418:218|428:160,2,73.6,2|0|0,3:2|0:0|3:0,0:0:0:0:
298,158,79355,1,2,0:0:0:0:
193,364,79502,1,8,0:0:0:0:
269,317,79649,1,0,3:0:0:0:
114,123,79796,1,2,3:2:0:0:
36,310,79943,2,0,P|23:273|46:222,1,73.6,8|0,0:0|3:0,0:0:0:0:
39,251,80385,5,10,0:0:0:0:
249,201,80532,1,0,3:0:0:0:
262,205,80605,1,0,3:0:0:0:
276,209,80679,1,2,3:2:0:0:
191,350,80826,1,0,3:0:0:0:
162,259,80973,1,0,3:0:0:0:
347,312,81120,1,8,0:0:0:0:
198,121,81267,1,2,3:2:0:0:
239,106,81340,1,2,3:2:0:0:
280,92,81414,1,2,3:2:0:0:
473,294,81561,5,4,3:2:0:0:
487,211,81708,1,0,3:0:0:0:
363,359,81855,1,8,0:0:0:0:
321,287,82002,1,0,3:0:0:0:
298,112,82149,5,4,3:2:0:0:
291,126,82223,1,0,3:0:0:0:
289,142,82296,1,0,3:0:0:0:
295,157,82370,1,0,3:0:0:0:
321,193,82443,5,6,3:2:0:0:
363,175,82517,1,0,3:0:0:0:
383,134,82590,1,0,3:0:0:0:
383,88,82664,1,0,3:0:0:0:
358,49,82738,1,4,3:2:0:0:
319,25,82811,1,0,3:0:0:0:
274,25,82885,2,0,P|253:34|228:55,1,41.3999987365723,2|0,3:2|3:0,0:0:0:0:
120,269,83032,5,2,3:2:0:0:
71,238,83105,1,0,3:0:0:0:
55,181,83179,1,0,3:0:0:0:
80,129,83252,1,0,3:0:0:0:
134,111,83326,6,0,P|188:146|271:136,1,137.999995788574,2|0,3:2|0:0,0:0:0:0:
358,123,83767,2,0,P|310:156|266:230,1,137.999995788574,2|0,3:2|0:0,0:0:0:0:
272,324,84208,6,0,P|252:102|237:30,1,275.999991577149,2|0,3:2|0:0,0:0:0:0:
173,171,84649,6,0,L|108:159,1,55.1999983154297,2|0,3:2|0:0,0:0:0:0:
356,182,84796,2,0,L|421:170,1,55.1999983154297,2|0,3:2|0:0,0:0:0:0:
168,196,84943,2,0,L|103:184,1,55.1999983154297,2|0,3:2|0:0,0:0:0:0:
336,104,85090,5,0,3:0:0:0:
427,254,85237,1,2,3:2:0:0:
489,39,85384,1,2,3:2:0:0:
275,179,85531,2,0,P|210:92|240:5,1,202.400006176758,10|2,0:0|3:2,0:0:0:0:
418,99,85972,5,0,3:0:0:0:
352,314,86119,1,2,3:2:0:0:
489,244,86266,1,10,0:0:0:0:
275,179,86413,2,0,P|246:184|216:200,1,50.6000015441895,2|0,3:2|0:0,0:0:0:0:
156,316,86560,1,0,3:0:0:0:
141,266,86634,1,0,3:0:0:0:
108,227,86707,1,2,3:2:0:0:
246,19,86854,5,0,3:0:0:0:
149,96,87001,1,2,3:2:0:0:
330,248,87148,1,10,0:0:0:0:
251,129,87295,1,2,3:2:0:0:
246,148,87369,1,0,3:0:0:0:
241,167,87442,1,0,3:0:0:0:
458,32,87590,5,2,0:0:0:0:
485,74,87663,1,2,0:0:0:0:
464,119,87737,2,0,P|401:152|334:163,1,128.799996069336,2|2,3:2|0:0,0:0:0:0:
90,55,88031,5,2,0:0:0:0:
83,60,88080,5,2,0:0:0:0:
77,66,88129,5,2,0:0:0:0:
73,73,88178,6,0,B|63:138|63:138|113:211,1,128.799996069336,8|2,0:0|0:0,0:0:0:0:
257,350,88472,1,2,3:2:0:0:
265,326,88545,1,0,3:0:0:0:
253,309,88619,5,4,3:2:0:0:
145,343,88766,1,2,3:2:0:0:
371,309,88913,1,2,3:2:0:0:
174,235,89060,2,0,P|140:148|190:54,1,202.400006176758,10|2,0:0|3:2,0:0:0:0:
376,336,89501,5,0,3:0:0:0:
272,219,89648,1,2,3:2:0:0:
62,356,89795,1,2,3:2:0:0:
12,180,89942,2,0,P|44:188|67:208,1,50.6000015441895,10|0,0:0|0:0,0:0:0:0:
154,339,90089,1,0,3:0:0:0:
201,358,90163,1,0,3:0:0:0:
229,315,90237,1,2,0:0:0:0:
243,312,90310,1,2,0:0:0:0:
256,308,90384,6,0,P|270:258|276:209,1,101.200003088379,2|0,3:2|3:0,0:0:0:0:
128,26,90678,1,2,3:2:0:0:
324,112,90825,1,0,3:0:0:0:
277,94,90898,1,0,3:0:0:0:
237,126,90972,1,2,3:2:0:0:
338,357,91119,1,0,3:0:0:0:
194,206,91266,6,0,P|226:208|271:222,1,64.399998034668,2|0,3:2|0:0,0:0:0:0:
405,262,91413,2,0,P|373:260|328:246,1,64.399998034668,2|0,3:2|0:0,0:0:0:0:
193,222,91560,2,0,P|225:224|270:238,1,64.399998034668,2|0,3:2|0:0,0:0:0:0:
404,278,91707,2,0,P|372:276|327:262,1,64.399998034668,2|0,3:2|0:0,0:0:0:0:
251,137,91854,1,0,3:0:0:0:
230,96,91928,1,0,3:0:0:0:
240,52,92001,1,0,3:0:0:0:
277,26,92075,1,0,3:0:0:0:
321,18,92148,6,0,P|344:40|361:80,1,64.399998034668,2|0,3:2|0:0,0:0:0:0:
472,143,92295,2,0,P|463:173|436:207,1,64.399998034668,2|0,3:2|0:0,0:0:0:0:
355,5,92442,2,0,P|371:32|377:75,1,64.399998034668,2|0,3:2|0:0,0:0:0:0:
500,168,92589,2,0,P|483:195|448:220,1,64.399998034668,2|0,3:2|0:0,0:0:0:0:
270,108,92737,1,0,3:0:0:0:
230,130,92810,1,0,3:0:0:0:
205,169,92884,1,0,3:0:0:0:
205,214,92957,1,0,3:0:0:0:
227,254,93031,6,0,P|253:273|297:272,1,64.399998034668,2|0,3:2|0:0,0:0:0:0:
373,168,93178,1,0,3:0:0:0:
378,156,93251,1,0,3:0:0:0:
365,159,93325,1,0,3:0:0:0:
207,346,93472,6,0,P|171:366|121:352,1,82.7999974731446,2|0,3:2|0:0,0:0:0:0:
39,226,93619,1,2,3:2:0:0:
52,178,93692,1,0,3:0:0:0:
89,144,93766,1,0,3:0:0:0:
138,138,93839,1,0,3:0:0:0:
184,167,93913,6,0,P|220:185|256:189,1,64.399998034668,4|2,3:2|0:0,0:0:0:0:
333,104,94207,1,2,0:0:0:0:
211,285,94354,6,0,B|257:333|343:258|330:245|405:205|444:247,1,257.599992138672,10|2,0:0|0:0,0:0:0:0:
451,258,94795,6,0,P|461:213|482:183,1,64.399998034668,0|2,0:0|0:0,0:0:0:0:
240,33,95089,1,2,3:2:0:0:
339,201,95236,1,10,0:0:0:0:
464,59,95383,1,0,3:0:0:0:
442,65,95457,1,0,3:0:0:0:
414,75,95530,1,2,3:2:0:0:
221,222,95677,6,0,P|234:184|235:153,1,64.399998034668,4|2,3:2|0:0,0:0:0:0:
29,23,95971,1,2,3:2:0:0:
145,173,96118,1,10,0:0:0:0:
3,240,96265,1,2,3:2:0:0:
172,366,96413,5,0,3:0:0:0:
204,330,96486,1,0,3:0:0:0:
191,291,96560,2,0,P|164:256|105:276,1,110.399996630859,0|2,3:0|0:0,0:0:0:0:
305,185,96854,5,2,0:0:0:0:
309,190,96903,5,2,0:0:0:0:
311,197,96952,5,2,0:0:0:0:
309,203,97001,6,0,P|239:192|176:105,1,165.599994946289,4|2,3:2|0:0,0:0:0:0:
452,28,97295,1,0,3:3:0:0:
467,44,97368,1,0,3:3:0:0:
474,69,97442,6,0,P|462:95|432:127,1,64.399998034668,4|2,3:2|3:2,0:3:0:0:
293,10,97736,1,2,3:2:0:0:
398,304,97883,6,0,P|333:192|196:161,1,257.599992138672,10|2,0:0|3:2,0:0:0:0:
208,354,98324,6,0,P|242:344|281:323,1,64.399998034668,0|2,3:0|0:0,0:0:0:0:
385,177,98618,1,2,3:2:0:0:
134,61,98765,1,10,0:0:0:0:
203,252,98912,1,0,3:0:0:0:
223,204,98986,1,0,3:0:0:0:
193,161,99060,1,2,3:2:0:0:
208,157,99133,1,2,0:0:0:0:
224,154,99207,6,0,P|267:87|242:18,1,147.2,2|8,3:2|0:0,0:0:0:0:
450,220,99501,1,2,3:2:0:0:
370,58,99648,1,0,3:0:0:0:
384,61,99721,1,0,3:0:0:0:
397,64,99795,2,0,B|462:96|462:96|388:121,1,147.2,10|0,0:0|0:0,0:0:0:0:
259,325,100089,6,0,P|253:296|232:259,1,55.1999983154297,2|0,3:2|0:0,0:0:0:0:
150,183,100236,1,0,3:0:0:0:
277,342,100383,6,0,P|283:313|304:276,1,55.1999983154297,2|0,3:2|0:0,0:0:0:0:
225,116,100530,2,0,P|244:93|281:72,1,55.1999983154297,10|0,0:0|0:0,0:0:0:0:
476,175,100677,1,10,0:0:0:0:
480,192,100751,1,0,3:0:0:0:
459,236,100824,1,2,3:2:0:0:
409,242,100898,1,2,3:2:0:0:
368,209,100971,6,0,P|346:196|294:184,1,64.399998034668,4|2,3:2|0:0,0:0:0:0:
154,365,101265,1,2,3:2:0:0:
66,163,101412,6,0,B|129:151|179:204|169:243|215:285|293:276,1,257.599992138672,10|2,0:0|3:2,0:0:0:0:
287,300,101854,6,0,P|298:276|330:250,1,64.399998034668,0|2,3:0|3:2,0:0:0:0:
239,121,102148,1,2,3:2:0:0:
134,353,102295,1,10,0:0:0:0:
32,243,102442,1,0,3:0:0:0:
55,252,102515,1,0,3:0:0:0:
79,261,102589,1,2,3:2:0:0:
296,214,102736,6,0,P|313:191|324:142,1,64.399998034668,0|2,3:0|0:0,0:0:0:0:
261,6,103030,1,10,0:0:0:0:
443,75,103177,1,2,3:2:0:0:
418,83,103251,1,0,3:0:0:0:
391,89,103324,1,0,3:0:0:0:
246,238,103471,6,0,P|227:235|178:188,1,64.399998034668,0|0,3:0|0:0,0:0:0:0:
140,66,103618,1,0,3:0:0:0:
179,34,103692,1,0,3:0:0:0:
229,25,103765,2,0,P|248:28|297:75,1,64.399998034668,10|0,0:0|0:0,0:0:0:0:
403,195,103912,5,2,0:0:0:0:
409,198,103962,5,2,0:0:0:0:
415,198,104011,5,2,0:0:0:0:
421,196,104060,6,0,P|442:124|481:26,1,165.599994946289,0|10,3:0|0:0,0:0:0:0:
286,135,104354,1,0,3:0:0:0:
315,166,104427,1,0,3:0:0:0:
324,126,104501,5,14,0:0:0:0:
213,204,104648,1,8,0:0:0:0:
388,366,104795,1,8,0:0:0:0:
222,298,104942,2,0,P|323:280|462:205,1,257.599992138672,10|0,0:0|3:0,0:0:0:0:
278,17,105383,5,14,0:0:0:0:
90,248,105530,1,10,0:0:0:0:
44,98,105677,1,10,0:0:0:0:
231,203,105824,1,10,0:0:0:0:
169,56,105971,1,8,0:0:0:0:
173,90,106045,1,8,0:0:0:0:
198,67,106118,1,10,0:0:0:0:
435,294,106265,6,0,P|444:212|465:153,1,128.799996069336,4|2,3:2|0:0,0:0:0:0:
230,346,106560,2,0,P|211:310|182:284,1,64.399998034668,10|2,0:0|3:2,0:0:0:0:
95,221,106707,1,2,3:2:0:0:
350,341,106854,1,2,3:2:0:0:
354,353,106927,1,0,3:0:0:0:
341,358,107001,2,0,P|318:306|309:263,1,92,2|0,3:2|3:0,0:0:0:0:
368,125,107148,5,10,0:0:0:0:
351,69,107221,1,8,0:0:0:0:
308,29,107295,1,8,0:0:0:0:
250,22,107368,1,8,0:0:0:0:
194,39,107442,2,0,P|170:61|155:88,1,64.399998034668,8|0,0:0|0:0,0:0:0:0:
208,244,107589,6,0,P|220:204|191:231,1,96.599997052002,2|0,3:2|0:0,0:0:0:0:
137,344,107883,1,0,3:0:0:0:
156,341,107957,1,0,3:0:0:0:
174,338,108030,6,0,L|244:325,1,64.399998034668,6|0,3:2|0:0,0:0:0:0:
380,191,108177,2,0,L|488:216,1,96.599997052002,2|0,3:2|0:0,0:0:0:0:
435,349,108471,6,0,P|393:358|363:317,1,82.7999974731446,2|0,3:2|0:0,0:0:0:0:
247,184,108618,2,0,P|193:162|118:198,1,124.199996209717,2|0,3:2|0:0,0:0:0:0:
58,354,108912,6,0,P|48:335|45:280,1,64.399998034668,2|0,3:2|0:0,0:0:0:0:
56,119,109060,2,0,P|109:73|140:61,1,96.599997052002,2|0,3:2|0:0,0:0:0:0:
82,342,109354,6,0,P|72:323|69:272,1,55.1999983154297,2|0,3:2|0:0,0:0:0:0:
77,142,109501,2,0,P|106:111|161:84,1,82.7999974731446,2|0,3:2|0:0,0:0:0:0:
112,329,109795,6,0,P|101:311|98:266,1,46,2|0,3:2|0:0,0:0:0:0:
101,168,109942,2,0,P|130:137|164:118,1,69,2|0,3:2|0:0,0:0:0:0:
352,45,110236,6,0,P|322:33|290:28,1,64.399998034668,2|0,3:2|0:0,0:0:0:0:
393,159,110383,2,0,P|346:148|304:123,1,96.599997052002,2|0,3:2|0:0,0:0:0:0:
100,20,110677,6,0,P|83:40|77:77,1,46,0|0,3:2|0:0,0:0:0:0:
194,253,110824,2,0,P|217:232|236:175,1,73.6,2|8,3:2|0:0,0:0:0:0:
146,128,111118,6,0,P|165:122|187:108,2,36.8,2|2|0,0:0|0:0|3:0,0:0:0:0:
371,11,111560,5,6,3:2:0:0:
486,78,111707,2,0,P|481:104|448:105,1,55.1999983154297,2|0,3:2|0:0,0:0:0:0:
365,24,112001,5,6,3:2:0:0:
247,129,112148,2,0,P|260:163|323:173,1,101.200003088379,2|0,3:2|0:0,0:0:0:0:
375,35,112442,5,6,3:2:0:0:
493,277,112589,2,0,P|448:321|365:293,1,147.2,2|0,3:2|0:0,0:0:0:0:
381,46,112883,5,6,3:2:0:0:
247,256,113030,1,2,3:2:0:0:
143,35,113177,1,0,3:0:0:0:
370,129,113324,5,6,3:2:0:0:
109,254,113471,2,0,P|39:189|61:101,1,184,6|0,3:2|0:0,0:0:0:0:
193,326,113765,5,2,3:2:0:0:
269,57,113912,1,2,3:2:0:0:
422,213,114060,1,0,3:0:0:0:
425,190,114133,1,0,3:0:0:0:
407,201,114207,5,6,3:2:0:0:
270,224,114354,1,2,3:2:0:0:
134,247,114501,1,2,3:2:0:0:
377,116,114648,5,6,3:2:0:0:
283,320,114795,1,2,3:2:0:0:
152,146,114942,1,0,3:0:0:0:
139,122,115015,1,0,3:0:0:0:
161,128,115089,6,0,P|182:88|190:37,1,73.6,2|0,3:2|0:0,0:0:0:0:
381,212,115236,1,2,3:2:0:0:
381,212,115530,2,0,P|357:162|354:116,1,73.6,2|0,3:2|0:0,0:0:0:0:
183,309,115677,1,2,3:2:0:0:
183,309,115971,6,0,P|176:238|206:157,1,147.2,2|0,3:2|0:0,0:0:0:0:
150,323,116192,2,0,P|107:264|101:176,1,147.2,2|0,3:2|0:0,0:0:0:0:
133,354,116412,2,0,P|86:349|50:324,1,73.6,2|0,3:2|0:0,0:0:0:0:
48,118,116560,5,2,3:2:0:0:
268,244,116707,1,2,3:2:0:0:
465,32,116854,6,0,B|312:84|316:212|421:269|533:163|416:107,1,386.399988208008,4|2,3:2|0:0,0:0:0:0:
