osu file format v14

[General]
AudioFilename: audio.mp3
AudioLeadIn: 0
PreviewTime: 20607
Countdown: 0
SampleSet: Soft
StackLeniency: 0.7
Mode: 0
LetterboxInBreaks: 0
WidescreenStoryboard: 1

[Editor]
Bookmarks: 4210,12445,20681,32445,41857,51267,60679,70092,77150,85091,93914,100972,108031,116855
DistanceSpacing: 1
BeatDivisor: 2
GridSize: 4
TimelineZoom: 1.299999

[Metadata]
Title:Sekibaku no Maihime wa Kuraku Shizumu
TitleUnicode:寂寞の舞姫は昏く沈む
Artist:Se-U-Ra
ArtistUnicode:Se-U-Ra
Creator:Hinsvar
Version:Normal
Source:
Tags:せゆーら seura Electronic Instrumental artcore Featured Artist FA Mappers' Guild MPG
BeatmapID:2740608
BeatmapSetID:1317826

[Difficulty]
HPDrainRate:4
CircleSize:3
OverallDifficulty:4.5
ApproachRate:6
SliderMultiplier:1.12
SliderTickRate:1

[Events]
//Background and Video events
0,0,"solitude.jpg",0,0
//Break Periods
2,70291,72570
//Storyboard Layer 0 (Background)
//Storyboard Layer 1 (Fail)
//Storyboard Layer 2 (Pass)
//Storyboard Layer 3 (Foreground)
//Storyboard Layer 4 (Overlay)
//Storyboard Sound Samples

[TimingPoints]
93,294.117647058823,7,2,10,50,1,0
4210,294.117647058823,7,2,2,60,1,0
4210,-111.111111111111,7,2,2,60,0,0
8327,-111.111111111111,7,2,1,65,0,0
10386,-111.111111111111,7,2,1,60,0,0
10680,-111.111111111111,7,2,1,5,0,0
10974,-111.111111111111,7,2,1,50,0,0
11562,-111.111111111111,7,2,1,65,0,0
12445,-100,7,2,1,70,0,0
19504,-100,7,2,1,75,0,0
20386,-100,7,2,1,65,0,0
20680,294.117647058823,4,2,1,85,1,1
20680,-90.9090909090909,4,2,1,85,0,1
27738,-90.9090909090909,4,2,1,75,0,1
28915,-90.9090909090909,4,2,1,85,0,1
29503,-100,4,2,1,75,0,0
29797,-100,4,2,10,55,0,0
30091,-100,4,2,2,75,0,0
31856,-100,4,2,1,75,0,0
32444,294.117647058823,4,2,1,65,1,0
41267,-100,4,2,0,65,0,0
41414,-100,4,2,1,70,0,0
41855,-100,4,2,1,75,0,0
46561,-100,4,2,1,65,0,0
48914,-100,4,2,1,70,0,0
49502,-100,4,2,1,65,0,0
49943,-100,4,2,1,75,0,0
50826,-100,4,2,1,70,0,0
51267,-100,4,2,2,70,0,0
55385,-100,4,2,10,70,0,0
55973,-100,4,2,2,70,0,0
60238,-100,4,2,2,75,0,0
60973,-100,4,2,1,75,0,0
67738,-100,4,2,1,70,0,0
68620,-100,4,2,1,75,0,0
70091,294.117647058823,3,2,1,60,1,0
73620,-111.111111111111,3,2,1,65,0,0
77149,-100,3,2,1,70,0,0
81561,-100,3,2,1,75,0,0
83326,-100,3,2,10,80,0,0
84649,-100,3,2,1,80,0,0
85090,294.117647058823,3,2,1,85,1,1
85090,-90.9090909090909,3,2,1,85,0,1
93913,294.117647058823,3,2,1,90,1,1
93913,-90.9090909090909,3,2,1,90,0,1
108030,-100,3,2,1,80,0,0
108471,-100,3,2,1,85,0,0
108912,-100,3,2,1,75,0,0
109354,-100,3,2,1,70,0,0
109795,-100,3,2,1,65,0,0
110236,-100,3,2,1,75,0,0
110677,-100,3,2,1,70,0,0
111118,-100,3,2,1,65,0,0
111560,-100,3,2,1,70,0,0
112001,-100,3,2,1,75,0,0
112442,-100,3,2,1,80,0,0
112883,-100,3,2,1,85,0,0
114207,-100,3,2,1,80,0,0
115089,-100,3,2,1,90,0,1
116854,-125,3,2,10,80,0,0
117736,-125,3,2,10,60,0,0

[Colours]
Combo1 : 125,188,251
Combo2 : 46,252,232
Combo3 : 19,217,163
Combo4 : 49,168,193

[HitObjects]
454,152,4210,6,0,P|477:117|484:56,2,100.799996923828,4|2|0,3:2|0:0|0:0,0:0:0:0:
368,222,5092,1,10,0:0:0:0:
309,127,5386,1,2,3:2:0:0:
208,173,5680,2,0,P|180:174|144:154,2,50.3999984619141,0|0|2,3:0|3:0|3:2,0:0:0:0:
299,234,6268,6,0,P|316:283|322:349,1,100.799996923828,0|10,3:0|0:0,0:0:0:0:
217,369,6857,2,0,P|200:320|194:254,1,100.799996923828,2|10,0:0|0:0,0:0:0:0:
218,163,7445,2,0,P|217:136|200:112,1,50.3999984619141,0|0,3:0|3:0,0:0:0:0:
162,80,7739,2,0,P|139:71|102:62,2,50.3999984619141,2|0|0,3:2|0:0|3:0,0:0:0:0:
253,17,8327,5,0,3:0:0:0:
337,88,8621,2,0,B|390:74|390:74|411:23,2,100.799996923828,10|0|10,0:0|3:0|0:0,0:0:0:0:
252,160,9504,1,2,3:2:0:0:
175,240,9798,2,0,P|152:219|121:208,2,50.3999984619141,8|8|2,0:0|0:0|3:2,0:0:0:0:
210,289,10239,1,8,0:0:0:0:
210,289,10386,6,0,P|310:281|412:216,1,201.599993847656,4|2,3:2|0:0,0:0:0:0:
260,56,11562,5,2,3:2:0:0:
155,93,11857,2,0,P|130:87|93:66,2,50.3999984619141,10|2|8,0:0|3:2|3:2,0:0:0:0:
240,168,12445,6,0,P|259:221|272:287,1,112,4|8,3:2|0:0,0:0:0:0:
207,368,13033,1,2,3:2:0:0:
116,301,13327,2,0,P|122:264|134:230,1,56,8|0,0:0|0:0,0:0:0:0:
87,206,13621,2,0,B|141:185|141:185|169:121,1,112,2|10,3:2|0:0,0:0:0:0:
150,86,14062,1,10,0:0:0:0:
150,86,14209,2,0,P|158:55|182:23,1,56,0|10,3:0|0:0,0:0:0:0:
227,27,14504,5,4,3:2:0:0:
323,84,14798,2,0,P|332:141|299:198,1,112,8|0,0:0|3:0,0:0:0:0:
261,217,15239,2,0,P|252:247|252:283,2,56,2|10|2,0:0|0:0|0:0,0:0:0:0:
225,173,15680,1,0,3:0:0:0:
147,254,15974,2,0,P|119:252|92:235,2,56,2|2|8,3:2|3:2|0:0,0:0:0:0:
189,357,16562,6,0,P|259:323|363:302,1,168,4|10,3:2|0:0,0:0:0:0:
395,331,17151,1,0,3:0:0:0:
480,255,17445,1,10,0:0:0:0:
480,255,17592,2,0,P|455:209|442:141,1,112,0|10,3:0|0:0,0:0:0:0:
470,102,18033,1,2,3:2:0:0:
397,16,18327,2,0,P|371:15|333:27,1,56,10|2,0:0|0:0,0:0:0:0:
312,70,18621,6,0,P|246:82|138:42,1,168,4|10,3:2|0:0,0:0:0:0:
110,13,19209,1,10,0:0:0:0:
34,97,19504,1,6,3:2:0:0:
34,97,19651,1,2,3:2:0:0:
137,152,19945,1,2,3:2:0:0:
137,152,20092,2,0,B|159:202|159:202|134:254,1,112,6|10,3:2|0:0,0:0:0:0:
48,341,20680,6,0,P|40:293|21:245,2,92.4000028198243,6|2|2,0:0|0:0|0:0,0:0:0:0:
103,366,21268,2,0,P|165:350|242:347,1,123.200003759766,2|2,3:2|3:2,0:0:0:0:
313,262,21856,2,0,B|349:289|349:289|395:276,2,92.4000028198243,2|2|2,3:2|0:0|0:0,0:0:0:0:
284,207,22444,1,2,3:2:0:0:
397,158,22738,2,0,P|409:129|410:100,1,61.6000018798829,2|2,3:2|0:0,0:0:0:0:
372,50,23032,6,0,P|322:33|264:27,2,92.4000028198243,2|2|2,3:2|0:0|0:0,0:0:0:0:
416,7,23621,1,0,3:0:0:0:
505,99,23915,1,2,0:0:0:0:
505,99,24062,1,2,0:0:0:0:
415,183,24356,2,0,P|401:216|397:246,2,61.6000018798829,2|2|2,3:2|3:2|3:2,0:0:0:0:
386,128,24797,1,2,3:2:0:0:
191,278,25385,6,0,B|150:297|150:297|101:304,2,92.4000028198243,6|2|2,0:0|0:0|0:0,0:0:0:0:
225,226,25974,2,0,P|226:158|196:93,1,123.200003759766,2|2,3:2|3:2,0:0:0:0:
111,32,26562,2,0,B|70:17|70:17|20:20,2,92.4000028198243,6|2|2,0:0|0:0|0:0,0:0:0:0:
86,88,27150,1,2,3:2:0:0:
160,185,27444,1,2,0:0:0:0:
102,293,27738,6,0,P|91:316|88:358,2,61.6000018798829,6|0|0,3:2|3:0|3:0,0:0:0:0:
222,339,28327,1,4,3:2:0:0:
222,339,28474,2,0,P|281:315|330:271,1,123.200003759766,0|8,3:0|3:0,0:0:0:0:
324,214,28915,2,0,P|306:189|266:165,1,61.6000018798829,14|0,0:0|0:0,0:0:0:0:
258,115,29209,2,0,P|227:112|182:127,1,61.6000018798829,14|0,0:0|0:0,0:0:0:0:
150,88,29503,1,6,3:2:0:0:
228,303,30091,5,4,3:2:0:0:
228,303,30238,1,8,0:0:0:0:
337,345,30532,1,0,3:0:0:0:
337,345,30679,2,0,P|435:336|494:272,1,168,2|2,0:0|0:0,0:0:0:0:
469,236,31268,5,4,3:2:0:0:
399,148,31562,1,2,0:0:0:0:
296,185,31856,1,10,0:0:0:0:
296,185,32003,1,2,3:2:0:0:
224,106,32297,1,2,3:2:0:0:
224,106,32444,6,0,P|166:102|109:129,2,112,6|0|0,3:2|3:0|3:0,0:0:0:0:
260,63,33179,1,2,0:0:0:0:
359,113,33473,2,0,P|381:156|385:223,1,112,2|0,0:0|0:0,0:0:0:0:
420,262,33914,2,0,P|411:289|392:325,1,56,0|2,3:0|0:0,0:0:0:0:
348,336,34208,1,2,3:2:0:0:
216,219,34649,1,2,0:0:0:0:
216,219,34796,6,0,P|157:206|99:207,2,112,2|2|0,3:2|3:2|3:0,0:0:0:0:
259,254,35532,2,0,P|287:247|309:229,1,56,2|0,0:0|0:0,0:0:0:0:
342,186,35826,1,2,0:0:0:0:
287,88,36120,1,2,0:0:0:0:
390,45,36414,1,2,0:0:0:0:
451,138,36708,2,0,P|473:196|480:260,1,112,2|0,0:0|0:0,0:0:0:0:
450,293,37149,6,0,P|405:264|335:241,1,112,2|0,3:2|3:0,0:0:0:0:
275,327,37738,1,0,3:0:0:0:
275,327,37885,1,2,0:0:0:0:
200,243,38179,2,0,P|217:195|200:139,1,112,2|0,0:0|0:0,0:0:0:0:
158,100,38620,2,0,P|129:85|94:76,1,56,2|2,3:2|0:0,0:0:0:0:
50,80,38914,1,2,3:2:0:0:
27,266,39355,1,2,0:0:0:0:
27,266,39502,6,0,P|34:320|81:368,2,112,2|2|0,3:2|3:2|3:0,0:0:0:0:
72,233,40238,2,0,P|84:210|95:167,1,56,2|0,0:0|3:0,0:0:0:0:
77,127,40532,2,0,P|131:116|194:89,1,112,2|2,0:0|0:0,0:0:0:0:
265,17,41120,1,2,0:0:0:0:
345,93,41414,2,0,P|370:102|405:107,2,56,0|0|0,3:0|3:0|3:0,0:0:0:0:
304,131,41855,6,0,P|291:172|288:228,2,84,8|10|2,0:0|0:0|0:0,0:0:0:0:
248,120,42443,2,0,B|209:80|209:80|241:24,1,112,0|8,3:0|0:0,0:0:0:0:
345,4,43032,1,0,3:0:0:0:
443,56,43326,1,10,0:0:0:0:
388,153,43620,1,2,3:2:0:0:
436,336,44061,1,2,0:0:0:0:
436,336,44208,6,0,P|472:315|503:263,2,84,2|2|2,3:2|0:0|0:0,0:0:0:0:
394,374,44796,2,0,B|347:342|347:342|285:351,1,112,2|8,3:2|0:0,0:0:0:0:
239,368,45238,1,2,0:0:0:0:
137,321,45532,2,0,P|117:269|118:210,1,112,2|2,0:0|0:0,0:0:0:0:
165,112,46120,2,0,P|136:92|97:81,2,56,2|8|0,0:0|0:0|3:0,0:0:0:0:
216,90,46561,6,0,P|228:53|268:4,2,84,10|2|2,0:0|0:0|0:0,0:0:0:0:
259,124,47149,1,10,0:0:0:0:
326,212,47443,1,8,0:0:0:0:
278,313,47738,2,0,B|233:349|233:349|167:331,1,112,8|8,0:0|0:0,0:0:0:0:
87,270,48326,1,10,0:0:0:0:
210,85,48914,6,0,B|262:66|262:66|321:88,2,112,8|10|8,0:0|0:0|0:0,0:0:0:0:
170,124,49649,2,0,P|159:157|164:187,1,56,8|8,0:0|0:0,0:0:0:0:
205,213,49943,5,6,3:2:0:0:
194,324,50238,1,4,3:2:0:0:
84,348,50532,1,6,3:2:0:0:
26,253,50826,2,0,B|6:198|6:198|27:143,1,112,10|2,0:0|3:2,0:0:0:0:
52,99,51267,6,0,P|47:77|20:31,2,56,6|2|2,3:2|0:0|0:0,0:0:0:0:
106,112,51708,1,2,0:0:0:0:
195,44,52002,1,2,0:0:0:0:
195,44,52149,2,0,P|224:29|278:26,2,84,2|2|0,3:2|3:2|3:0,0:0:0:0:
220,94,52738,2,0,P|246:117|260:148,1,56,0|0,3:0|3:0,0:0:0:0:
222,242,53179,1,2,3:2:0:0:
313,313,53473,1,10,0:0:0:0:
313,313,53620,6,0,P|392:325|477:293,1,168,2|2,0:0|0:0,0:0:0:0:
435,195,54355,1,2,3:2:0:0:
435,195,54502,2,0,P|400:182|346:175,2,84,2|2|2,3:2|3:2|3:2,0:0:0:0:
479,158,55091,2,0,P|485:126|483:100,1,56,2|0,3:2|3:0,0:0:0:0:
399,29,55532,1,2,3:2:0:0:
294,59,55826,1,2,3:2:0:0:
294,59,55973,6,0,P|212:27|126:21,1,168,6|2,3:2|0:0,0:0:0:0:
90,129,56708,1,2,3:2:0:0:
90,129,56855,2,0,B|59:153|59:153|13:141,2,84,2|2|2,3:2|3:2|3:2,0:0:0:0:
140,154,57443,2,0,P|157:184|165:209,1,56,0|2,3:0|3:2,0:0:0:0:
131,250,57738,1,10,0:0:0:0:
216,322,58032,1,2,3:2:0:0:
308,259,58326,6,0,P|326:206|283:97,1,168,0|2,3:0|0:0,0:0:0:0:
204,34,59061,2,0,P|181:22|146:16,2,56,0|0|2,3:0|3:0|3:2,0:0:0:0:
141,126,59649,2,0,P|118:138|83:144,2,56,0|0|2,3:0|3:0|3:2,0:0:0:0:
221,207,60238,1,2,3:2:0:0:
164,303,60532,1,2,3:2:0:0:
164,303,60679,6,0,P|109:293|48:252,1,112,4|0,3:2|3:0,0:0:0:0:
94,156,61267,2,0,P|85:127|71:100,2,56,2|0|0,3:2|0:0|3:0,0:0:0:0:
144,181,61708,1,2,3:2:0:0:
245,133,62002,1,4,3:2:0:0:
309,224,62296,2,0,P|360:215|399:168,1,112,4|2,3:2|3:2,0:0:0:0:
416,117,62738,1,4,3:2:0:0:
320,69,63032,5,4,3:2:0:0:
320,69,63179,2,0,P|313:41|311:13,2,56,2|2|0,0:0|3:2|0:0,0:0:0:0:
295,119,63620,1,2,3:2:0:0:
198,61,63914,1,2,0:0:0:0:
109,128,64208,1,2,3:2:0:0:
109,128,64355,2,0,P|74:184|81:241,1,112,2|2,3:2|3:2,0:0:0:0:
118,336,64943,2,0,P|95:349|63:352,2,56,2|2|2,3:2|3:2|3:2,0:0:0:0:
169,309,65385,5,4,3:2:0:0:
169,309,65532,2,0,B|217:290|217:290|279:325,1,112,2|0,3:2|3:0,0:0:0:0:
315,351,65973,1,2,3:2:0:0:
420,312,66267,2,0,P|433:283|434:253,1,56,0|2,3:0|3:2,0:0:0:0:
410,208,66561,1,8,0:0:0:0:
410,208,66708,1,2,3:2:0:0:
338,129,67002,1,0,3:0:0:0:
338,129,67149,2,0,P|340:86|363:41,2,84,2|2|10,3:2|3:2|0:0,0:0:0:0:
309,177,67738,5,4,3:2:0:0:
220,245,68032,2,0,P|173:214|147:161,1,112,2|2,0:0|0:0,0:0:0:0:
174,118,68473,1,8,0:0:0:0:
174,118,68620,1,10,0:0:0:0:
86,44,68914,2,0,P|60:60|32:93,1,56,2|0,3:2|3:0,0:0:0:0:
25,131,69208,1,6,3:2:0:0:
49,240,69502,1,2,3:2:0:0:
141,302,69796,5,4,3:2:0:0:
196,307,69943,1,2,3:2:0:0:
241,274,70091,1,4,3:2:0:0:
234,34,73620,5,4,3:2:0:0:
166,121,73914,1,2,0:0:0:0:
263,173,74208,1,0,1:0:0:0:
209,269,74502,2,0,P|194:320|192:379,2,100.799996923828,2|0|0,1:2|1:0|1:0,0:0:0:0:
310,313,75385,6,0,P|356:304|407:274,1,100.799996923828,6|0,3:2|0:0,0:0:0:0:
443,240,75826,2,0,P|445:209|432:173,1,50.3999984619141,2|0,3:2|0:0,0:0:0:0:
363,110,76267,2,0,P|367:79|378:58,2,50.3999984619141,10|0|2,0:0|1:0|1:2,0:0:0:0:
285,190,76855,1,2,0:0:0:0:
190,129,77149,6,0,P|156:166|147:239,1,112,4|0,3:2|3:0,0:0:0:0:
206,325,77738,1,10,0:0:0:0:
206,325,77885,2,0,P|183:338|132:339,2,56,0|0|0,3:0|3:0|3:0,0:0:0:0:
244,283,78326,1,2,3:2:0:0:
338,342,78620,1,8,0:0:0:0:
439,294,78914,6,0,P|475:298|497:314,2,56,2|0|0,3:2|0:0|3:0,0:0:0:0:
397,256,79355,2,0,P|376:206|375:135,1,112,2|0,0:0|3:0,0:0:0:0:
430,131,79796,1,2,3:2:0:0:
430,131,79943,2,0,P|446:107|453:73,1,56,8|0,0:0|3:0,0:0:0:0:
360,17,80385,1,10,0:0:0:0:
286,101,80679,5,2,3:2:0:0:
191,40,80973,2,0,B|141:20|141:20|76:37,1,112,0|2,3:0|3:2,0:0:0:0:
60,85,81414,1,2,3:2:0:0:
60,85,81561,6,0,P|93:133|100:196,1,112,4|8,3:2|0:0,0:0:0:0:
36,276,82149,2,0,P|24:308|21:335,1,56,4|0,3:2|3:0,3:0:0:0:
49,377,82443,2,0,P|129:367|208:325,1,168,6|2,3:2|3:2,0:0:0:0:
213,271,83032,1,2,3:2:0:0:
150,176,83326,6,0,P|150:99|195:11,1,168,2|2,3:2|3:2,0:0:0:0:
357,93,84208,2,0,P|357:170|312:258,1,168,2|2,3:2|3:2,0:0:0:0:
273,283,84796,1,2,3:2:0:0:
184,197,85090,6,0,P|152:185|118:181,1,61.6000018798829,0|2,3:0|3:2,0:0:0:0:
70,202,85384,1,2,3:2:0:0:
70,202,85531,1,10,0:0:0:0:
122,318,85825,1,2,3:2:0:0:
122,318,85972,2,0,P|111:344|90:371,2,61.6000018798829,0|2|10,3:0|3:2|0:0,0:0:0:0:
175,287,86413,2,0,P|227:289|298:324,1,123.200003759766,2|2,3:2|3:2,0:0:0:0:
328,366,86854,5,0,3:0:0:0:
416,279,87148,2,0,P|443:264|478:254,2,61.6000018798829,10|2|0,0:0|3:2|3:0,0:0:0:0:
374,231,87590,1,2,0:0:0:0:
379,236,87737,2,0,P|403:185|415:105,1,123.200003759766,2|2,3:2|0:0,0:0:0:0:
379,68,88178,1,8,0:0:0:0:
276,133,88472,1,2,3:2:0:0:
276,133,88619,6,0,P|242:124|207:99,1,61.6000018798829,4|2,3:2|3:2,0:0:0:0:
192,61,88913,1,2,3:2:0:0:
192,61,89060,2,0,P|242:20|313:21,1,123.200003759766,10|2,0:0|3:2,0:0:0:0:
345,56,89501,1,0,3:0:0:0:
468,31,89795,1,2,3:2:0:0:
468,31,89942,2,0,B|498:86|498:86|484:161,1,123.200003759766,10|2,0:0|0:0,0:0:0:0:
473,205,90384,1,2,3:2:0:0:
362,150,90678,2,0,P|331:149|302:159,1,61.6000018798829,2|0,3:2|3:0,0:0:0:0:
275,215,90972,1,2,3:2:0:0:
204,316,91266,6,0,P|193:353|190:400,2,61.6000018798829,2|2|2,3:2|3:2|3:2,0:0:0:0:
162,278,91707,1,2,3:2:0:0:
162,278,91854,2,0,P|123:288|92:283,1,61.6000018798829,0|0,3:0|3:0,0:0:0:0:
54,247,92148,2,0,B|31:187|31:187|44:122,2,123.200003759766,2|2|0,3:2|3:2|3:0,0:0:0:0:
155,176,93031,2,0,P|188:126|193:52,1,123.200003759766,2|0,3:2|3:0,0:0:0:0:
249,34,93472,1,2,3:2:0:0:
249,34,93619,2,0,P|279:56|304:97,1,61.6000018798829,2|0,3:2|3:0,0:0:0:0:
310,134,93913,5,4,3:2:0:0:
251,244,94207,1,2,0:0:0:0:
251,244,94354,2,0,B|305:266|305:266|368:231,1,123.200003759766,10|2,0:0|0:0,0:0:0:0:
402,188,94795,1,0,0:0:0:0:
453,78,95089,1,2,3:2:0:0:
453,78,95236,2,0,P|475:54|502:46,2,61.6000018798829,10|0|2,0:0|3:0|3:2,0:0:0:0:
489,127,95677,6,0,P|510:177|506:255,1,123.200003759766,4|2,3:2|3:2,0:0:0:0:
471,293,96118,1,10,0:0:0:0:
471,293,96265,2,0,P|448:286|412:265,1,61.6000018798829,2|0,3:2|3:0,0:0:0:0:
388,213,96560,2,0,P|339:221|284:266,1,123.200003759766,0|2,3:0|0:0,0:0:0:0:
266,326,97001,1,4,3:2:0:0:
181,244,97295,1,0,3:3:0:0:
181,244,97442,6,0,P|162:221|125:209,2,61.6000018798829,4|2|2,3:2|3:2|3:2,0:0:0:0:
167,304,97883,2,0,P|124:330|46:348,1,123.200003759766,10|2,0:0|3:2,0:0:0:0:
15,300,98324,2,0,P|35:274|45:248,1,61.6000018798829,0|2,3:0|0:0,0:0:0:0:
64,191,98618,1,2,3:2:0:0:
64,191,98765,2,0,P|77:138|58:73,1,123.200003759766,10|2,0:0|3:2,0:0:0:0:
38,14,99207,5,2,3:2:0:0:
156,47,99501,2,0,P|187:42|228:20,2,61.6000018798829,2|0|10,3:2|3:0|0:0,0:0:0:0:
225,148,100089,2,0,P|252:155|294:173,1,61.6000018798829,2|0,3:2|3:0,0:0:0:0:
328,217,100383,1,2,3:2:0:0:
328,217,100530,2,0,P|368:175|437:155,1,123.200003759766,10|2,0:0|3:2,0:0:0:0:
474,196,100971,6,0,P|483:227|476:264,1,61.6000018798829,4|2,3:2|0:0,0:0:0:0:
458,315,101265,1,2,3:2:0:0:
458,315,101412,1,10,0:0:0:0:
339,331,101707,1,2,3:2:0:0:
339,331,101854,2,0,P|317:349|303:385,2,61.6000018798829,0|2|2,3:0|3:2|3:2,0:0:0:0:
341,269,102295,2,0,P|305:218|304:147,1,123.200003759766,10|2,0:0|3:2,0:0:0:0:
326,103,102736,5,0,3:0:0:0:
209,63,103030,2,0,P|180:66|143:87,1,61.6000018798829,10|2,0:0|3:2,0:0:0:0:
128,137,103324,2,0,P|179:173|209:227,1,123.200003759766,0|0,3:0|3:0,0:0:0:0:
209,286,103765,1,10,0:0:0:0:
98,336,104060,1,0,3:0:0:0:
98,336,104207,2,0,P|76:301|74:272,1,61.6000018798829,10|0,0:0|3:0,0:0:0:0:
81,220,104501,6,0,P|53:209|17:206,2,61.6000018798829,14|8|8,0:0|0:0|0:0,0:0:0:0:
117,170,104942,1,10,0:0:0:0:
243,190,105236,1,0,3:0:0:0:
243,190,105383,2,0,P|266:209|278:237,2,61.6000018798829,14|10|10,0:0|0:0|0:0,0:0:0:0:
211,137,105824,2,0,P|229:81|292:50,1,123.200003759766,10|10,0:0|0:0,0:0:0:0:
328,92,106265,5,4,3:2:0:0:
419,9,106560,2,0,P|434:32|447:78,1,61.6000018798829,10|2,0:0|3:2,0:0:0:0:
470,120,106854,2,0,P|464:146|446:183,1,61.6000018798829,2|2,3:2|3:2,0:0:0:0:
392,201,107148,2,0,B|370:253|370:253|403:312,1,123.200003759766,10|8,0:0|0:0,0:0:0:0:
431,365,107589,1,2,3:2:0:0:
314,345,107883,1,0,3:0:0:0:
314,345,108030,6,0,P|288:349|248:361,1,56,6|2,3:2|3:2,0:0:0:0:
174,292,108471,1,2,3:2:0:0:
174,292,108618,2,0,P|191:244|200:180,1,112,2|2,3:2|3:2,0:0:0:0:
163,140,109060,1,2,3:2:0:0:
70,76,109354,2,0,P|55:97|54:131,1,56,2|2,3:2|3:2,0:0:0:0:
102,234,109795,5,2,3:2:0:0:
102,234,109942,1,0,3:2:0:0:
199,176,110236,1,2,3:2:0:0:
199,176,110383,1,2,3:2:0:0:
305,209,110677,2,0,P|315:179|319:150,1,56,0|2,3:2|3:2,0:0:0:0:
397,75,111118,2,0,P|425:85|456:109,2,56,2|2|0,0:0|0:0|3:0,0:0:0:0:
369,32,111560,5,6,3:2:0:0:
369,32,111707,1,2,3:2:0:0:
270,82,112001,1,6,3:2:0:0:
270,82,112148,2,0,P|218:99|152:103,1,112,2|6,3:2|3:2,0:0:0:0:
123,62,112589,1,2,3:2:0:0:
79,165,112883,2,0,P|49:157|18:139,2,56,6|2|0,3:2|3:2|3:0,0:0:0:0:
122,210,113324,5,6,3:2:0:0:
122,210,113471,1,6,3:2:0:0:
186,301,113765,2,0,P|193:329|185:364,2,56,2|2|0,3:2|3:2|3:0,0:0:0:0:
235,272,114207,1,6,3:2:0:0:
235,272,114354,2,0,P|243:215|260:155,1,112,2|6,3:2|3:2,0:0:0:0:
297,124,114795,1,2,3:2:0:0:
380,207,115089,5,2,3:2:0:0:
380,207,115236,1,2,3:2:0:0:
485,160,115530,1,2,3:2:0:0:
485,160,115677,1,2,3:2:0:0:
400,86,115971,2,0,B|386:44|386:44|403:2,2,84,2|2|2,3:2|3:2|3:2,0:0:0:0:
363,129,116560,2,0,P|336:130|294:147,1,56,2|2,3:2|3:2,0:0:0:0:
266,175,116854,6,0,P|180:183|145:18,1,268.8,4|2,3:2|0:0,0:0:0:0:
