osu file format v14

[General]
AudioFilename: audio.mp3
AudioLeadIn: 0
PreviewTime: 20607
Countdown: 0
SampleSet: Soft
StackLeniency: 0.7
Mode: 0
LetterboxInBreaks: 0
WidescreenStoryboard: 1

[Editor]
Bookmarks: 4210,12445,20680,32444,41855,51267,60679,70092,77150,85091,93914,100972,108031,116855
DistanceSpacing: 1.8
BeatDivisor: 4
GridSize: 4
TimelineZoom: 1.699999

[Metadata]
Title:Sekibaku no Maihime wa Kuraku Shizumu
TitleUnicode:寂寞の舞姫は昏く沈む
Artist:Se-U-Ra
ArtistUnicode:Se-U-Ra
Creator:Hinsvar
Version:Insane
Source:
Tags:せゆーら seura Electronic Instrumental artcore Featured Artist FA Mappers' Guild MPG
BeatmapID:2736344
BeatmapSetID:1317826

[Difficulty]
HPDrainRate:5.5
CircleSize:3.4
OverallDifficulty:8
ApproachRate:9.1
SliderMultiplier:1.44
SliderTickRate:1

[Events]
//Background and Video events
0,0,"solitude.jpg",0,0
//Break Periods
2,70291,73036
//Storyboard Layer 0 (Background)
//Storyboard Layer 1 (Fail)
//Storyboard Layer 2 (Pass)
//Storyboard Layer 3 (Foreground)
//Storyboard Layer 4 (Overlay)
//Storyboard Sound Samples

[TimingPoints]
93,294.117647058823,7,2,10,50,1,0
4210,294.117647058823,7,2,2,60,1,0
4210,-166.666666666667,7,2,2,60,0,0
5386,-90.9090909090909,7,2,2,60,0,0
5607,-90.9090909090909,7,2,2,5,0,0
5680,-90.9090909090909,7,2,2,60,0,0
6268,-166.666666666667,7,2,2,60,0,0
7445,-90.9090909090909,7,2,2,60,0,0
8327,-125,7,2,1,65,0,0
10386,-166.666666666667,7,2,1,60,0,0
10680,-166.666666666667,7,2,1,5,0,0
10974,-222.222222222222,7,2,1,50,0,0
11268,-222.222222222222,7,2,1,5,0,0
11562,-166.666666666667,7,2,1,65,0,0
12371,-166.666666666667,7,2,1,5,0,0
12445,-111.111111111111,7,2,1,70,0,0
19504,-111.111111111111,7,2,1,75,0,0
20386,-111.111111111111,7,2,1,65,0,0
20680,294.117647058823,4,2,1,85,1,1
20680,-90.9090909090909,4,2,1,85,0,1
20827,-90.9090909090909,4,2,1,5,0,1
20900,-90.9090909090909,4,2,1,85,0,1
21562,-62.5,4,2,1,85,0,1
21856,-90.9090909090909,4,2,1,85,0,1
22444,-142.857142857143,4,2,1,85,0,1
22665,-142.857142857143,4,2,1,85,0,1
22738,-142.857142857143,4,2,1,85,0,1
23032,-90.9090909090909,4,2,1,85,0,1
24797,-111.111111111111,4,2,1,85,0,1
25238,-111.111111111111,4,2,1,85,0,1
25385,-90.9090909090909,4,2,1,85,0,1
26268,-62.5,4,2,1,85,0,1
26562,-90.9090909090909,4,2,1,85,0,1
27150,-142.857142857143,4,2,1,85,0,1
27371,-142.857142857143,4,2,1,85,0,1
27444,-142.857142857143,4,2,1,85,0,1
27738,-142.857142857143,4,2,1,75,0,1
28915,-83.3333333333333,4,2,1,85,0,1
29503,-142.857142857143,4,2,1,75,0,0
29797,-142.857142857143,4,2,10,55,0,0
30091,-142.857142857143,4,2,2,75,0,0
31856,-142.857142857143,4,2,1,75,0,0
32444,294.117647058823,4,2,1,65,1,0
32444,-111.111111111111,4,2,1,65,0,0
35899,-111.111111111111,4,2,1,5,0,0
36120,-111.111111111111,4,2,1,65,0,0
36193,-111.111111111111,4,2,1,5,0,0
36414,-111.111111111111,4,2,1,65,0,0
36488,-111.111111111111,4,2,1,5,0,0
36708,-166.666666666667,4,2,1,65,0,0
37149,-111.111111111111,4,2,1,65,0,0
40752,-111.111111111111,4,2,1,5,0,0
40826,-111.111111111111,4,2,1,65,0,0
40899,-111.111111111111,4,2,1,5,0,0
41120,-111.111111111111,4,2,1,65,0,0
41193,-111.111111111111,4,2,1,5,0,0
41414,-111.111111111111,4,2,1,70,0,0
41855,-100,4,2,1,75,0,0
42885,-100,4,2,1,75,0,0
46561,-100,4,2,1,65,0,0
48914,-100,4,2,1,70,0,0
49502,-100,4,2,1,65,0,0
49943,-83.3333333333333,4,2,1,75,0,0
50164,-83.3333333333333,4,2,1,5,0,0
50238,-83.3333333333333,4,2,1,75,0,0
50458,-83.3333333333333,4,2,1,5,0,0
50532,-83.3333333333333,4,2,1,75,0,0
50752,-83.3333333333333,4,2,1,5,0,0
50826,-83.3333333333333,4,2,1,70,0,0
51267,-111.111111111111,4,2,2,70,0,0
52149,-166.666666666667,4,2,2,70,0,0
52885,-111.111111111111,4,2,2,70,0,0
54061,-83.3333333333333,4,2,2,70,0,0
54502,-166.666666666667,4,2,2,70,0,0
55091,-111.111111111111,4,2,2,70,0,0
55385,-111.111111111111,4,2,10,70,0,0
55973,-83.3333333333333,4,2,2,70,0,0
56414,-111.111111111111,4,2,2,70,0,0
56855,-166.666666666666,4,2,2,70,0,0
60238,-83.3333333333333,4,2,2,75,0,0
60458,-83.3333333333333,4,2,2,5,0,0
60532,-83.3333333333333,4,2,2,75,0,0
60679,-100,4,2,2,75,0,0
62002,-83.3333333333333,4,2,1,75,0,0
62223,-83.3333333333333,4,2,1,5,0,0
62296,-83.3333333333333,4,2,1,75,0,0
62517,-83.3333333333333,4,2,1,5,0,0
62591,-83.3333333333333,4,2,1,75,0,0
62738,-125,4,2,1,75,0,0
62958,-125,4,2,1,5,0,0
63032,-100,4,2,1,75,0,0
67149,-83.3333333333333,4,2,1,75,0,0
67296,-83.3333333333333,4,2,1,5,0,0
67370,-83.3333333333333,4,2,1,75,0,0
67517,-83.3333333333333,4,2,1,5,0,0
67591,-83.3333333333333,4,2,1,75,0,0
67738,-166.666666666667,4,2,1,70,0,0
68620,-166.666666666667,4,2,1,75,0,0
69208,-111.111111111111,4,2,1,75,0,0
70091,294.117647058823,3,2,1,60,1,0
73620,-125,3,2,1,65,0,0
76855,-100,3,2,1,65,0,0
77149,-100,3,2,1,70,0,0
78546,-100,3,2,1,5,0,0
78620,-100,3,2,1,70,0,0
81193,-100,3,2,1,5,0,0
81267,-100,3,2,1,70,0,0
81561,-100,3,2,1,75,0,0
83326,-125,3,2,10,80,0,0
83693,-125,3,2,10,5,0,0
83767,-125,3,2,10,80,0,0
84135,-125,3,2,10,5,0,0
84208,-100,3,2,10,80,0,0
84576,-100,3,2,10,5,0,0
84649,-100,3,2,1,80,0,0
85090,294.117647058823,3,2,1,85,1,1
85090,-90.9090909090909,3,2,1,85,0,1
93913,294.117647058823,3,2,1,90,1,1
93913,-90.9090909090909,3,2,1,90,0,1
107810,-90.9090909090909,3,2,1,5,0,1
107883,-90.9090909090909,3,2,1,90,0,1
108030,-100,3,2,1,80,0,0
108398,-100,3,2,1,5,0,0
108471,-83.3333333333333,3,2,1,85,0,0
108839,-83.3333333333333,3,2,1,5,0,0
108912,-100,3,2,1,75,0,0
109280,-100,3,2,1,5,0,0
109354,-125,3,2,1,70,0,0
109721,-125,3,2,1,5,0,0
109795,-166.666666666667,3,2,1,65,0,0
110162,-166.666666666667,3,2,1,5,0,0
110236,-100,3,2,1,75,0,0
110604,-100,3,2,1,5,0,0
110677,-125,3,2,1,70,0,0
110971,-125,3,2,0,70,0,0
111118,-125,3,2,1,65,0,0
111560,-166.666666666667,3,2,1,70,0,0
112001,-125,3,2,1,75,0,0
112442,-100,3,2,1,80,0,0
112883,-83.3333333333333,3,2,1,85,0,0
113765,-100,3,2,1,85,0,0
114207,-100,3,2,1,80,0,0
115089,-100,3,2,1,90,0,1
115971,-66.6666666666667,3,2,1,90,0,1
116854,-142.857142857143,3,2,10,80,0,0
117736,-142.857142857143,3,2,10,60,0,0

[Colours]
Combo1 : 125,188,251
Combo2 : 46,252,232
Combo3 : 19,217,163
Combo4 : 49,168,193

[HitObjects]
256,192,2740,5,2,0:0:0:0:
256,192,2887,12,0,4063,0:0:0:0:
42,306,4210,6,0,P|62:302|90:290,1,43.1999986816407,4|0,3:2|0:0,0:0:0:0:
118,191,4504,2,0,P|138:195|166:207,2,43.1999986816407,2|0|0,0:0|0:0|0:0,0:0:0:0:
210,282,4945,1,2,0:0:0:0:
273,209,5092,2,0,P|282:192|282:167,1,43.1999986816407,10|0,0:0|0:0,0:0:0:0:
362,26,5386,6,0,P|396:89|387:153,1,118.800003625488,2|0,3:2|0:0,0:0:0:0:
366,210,5680,1,0,3:0:0:0:
366,210,5827,1,0,3:0:0:0:
280,87,5974,2,0,P|257:123|257:169,1,79.2000024169923,2|8,3:2|0:0,0:0:0:0:
312,293,6268,6,0,P|284:309|257:313,1,43.1999986816407,0|0,3:0|0:0,0:0:0:0:
181,238,6562,2,0,P|153:222|126:218,2,43.1999986816407,10|0|0,0:0|0:0|0:0,0:0:0:0:
111,305,7004,1,2,0:0:0:0:
184,369,7151,1,10,0:0:0:0:
184,369,7298,1,2,0:0:0:0:
295,241,7445,5,0,3:0:0:0:
295,241,7518,1,0,3:0:0:0:
295,241,7592,1,0,3:0:0:0:
281,148,7739,1,2,3:2:0:0:
203,207,7886,1,0,0:0:0:0:
312,337,8033,2,0,P|347:318|378:288,1,79.2000024169923,0|10,3:0|0:0,0:0:0:0:
406,135,8327,6,0,P|389:160|383:208,1,57.6,0|0,3:0|0:0,0:0:0:0:
472,290,8621,2,0,P|489:265|495:217,2,57.6,10|0|0,0:0|0:0|3:0,0:0:0:0:
295,229,9062,1,0,0:0:0:0:
371,359,9209,2,0,B|358:332|358:332|376:295,1,57.6,10|0,0:0|0:0,0:0:0:0:
478,168,9504,6,0,P|491:151|496:127,3,28.8,2|0|0|0,3:2|3:0|3:0|3:0,0:0:0:0:
461,149,9798,2,0,P|434:136|405:135,1,57.6,8|8,0:0|0:0,0:0:0:0:
309,282,10092,1,2,3:2:0:0:
397,248,10239,1,8,0:0:0:0:
232,185,10386,6,0,P|191:132|227:56,1,151.199995385742,4|0,3:2|0:0,0:0:0:0:
221,61,10974,6,0,P|177:89|112:75,1,113.399996539307,2|0,0:0|0:0,0:0:0:0:
53,27,11562,5,2,3:2:0:0:
53,27,11857,1,10,0:0:0:0:
89,180,12004,1,2,3:2:0:0:
201,81,12151,2,0,P|236:74|273:75,1,64.799998022461,8|0,3:2|0:0,0:0:0:0:
334,124,12445,6,0,P|349:94|341:49,1,64.799998022461,4|0,3:2|3:0,0:0:0:0:
329,243,12739,2,0,P|347:270|390:286,1,64.799998022461,8|0,0:0|0:0,0:0:0:0:
225,181,13033,2,0,P|191:183|156:212,1,64.799998022461,2|0,3:2|0:0,0:0:0:0:
83,359,13327,1,8,0:0:0:0:
44,244,13474,1,0,0:0:0:0:
211,299,13621,2,0,L|266:283,3,32.3999990112305,2|0|0|0,3:2|3:0|3:0|3:0,0:0:0:0:
216,268,13915,5,10,0:0:0:0:
372,321,14062,1,10,0:0:0:0:
312,178,14209,2,0,B|294:207|294:207|308:248,1,64.799998022461,0|10,3:0|0:0,0:0:0:0:
179,104,14504,5,4,3:2:0:0:
92,158,14651,2,0,P|55:152|27:116,2,64.799998022461,0|8|0,0:0|0:0|0:0,0:0:0:0:
171,279,15092,2,0,P|176:242|212:214,1,64.799998022461,0|2,3:0|0:0,0:0:0:0:
347,154,15386,2,0,B|371:182|371:182|378:231,1,64.799998022461,10|2,0:0|0:0,0:0:0:0:
287,363,15680,5,0,3:0:0:0:
287,363,15754,1,0,3:0:0:0:
287,363,15827,1,0,3:0:0:0:
160,202,15974,1,2,3:2:0:0:
276,251,16121,1,2,3:2:0:0:
156,358,16268,2,0,P|177:332|189:294,1,64.799998022461,8|2,0:0|0:0,0:0:0:0:
182,72,16562,5,4,3:2:0:0:
90,144,16709,2,0,P|119:158|175:162,1,64.799998022461,0|0,3:0|3:0,0:0:0:0:
290,29,17004,5,10,0:0:0:0:
383,148,17151,2,0,P|369:172|320:200,1,64.799998022461,0|0,3:0|3:0,3:0:0:0:
425,57,17445,5,10,0:0:0:0:
256,132,17592,1,0,3:0:0:0:
413,269,17739,5,0,3:0:0:0:
413,269,17812,1,0,3:0:0:0:
413,269,17886,1,10,0:0:0:0:
499,235,18033,1,2,3:2:0:0:
425,179,18180,1,2,3:2:0:0:
397,361,18327,1,10,0:0:0:0:
341,205,18474,1,2,0:0:0:0:
291,303,18621,5,4,3:2:0:0:
291,303,18695,1,0,3:0:0:0:
291,303,18768,2,0,P|283:326|276:348,2,32.3999990112305,0|0|0,3:0|3:0|3:0,0:0:0:0:
219,163,19062,1,10,0:0:0:0:
155,302,19209,2,0,P|131:318|82:337,1,64.799998022461,10|0,0:0|0:0,0:0:0:0:
63,129,19504,5,6,3:2:0:0:
26,237,19651,2,0,P|86:225|131:173,1,129.599996044922,2|2,3:2|3:2,0:0:0:0:
212,23,20092,2,0,P|243:11|285:17,1,64.799998022461,6|2,3:2|0:0,0:0:0:0:
368,90,20386,2,0,P|389:98|391:85,3,32.3999990112305,10|2|2|2,0:0|0:0|0:0|0:0,0:0:0:0:
302,141,20680,6,0,P|312:214|335:267,1,118.800003625488,6|2,0:0|0:0,0:0:0:0:
373,321,20974,1,0,3:0:0:0:
460,241,21121,1,2,0:0:0:0:
302,141,21268,2,0,P|269:124|220:114,1,79.2000024169923,0|2,3:0|0:0,0:0:0:0:
168,276,21562,2,0,P|115:308|52:324,1,115.2,0|2,3:0|0:0,0:0:0:0:
92,196,21856,6,0,P|114:143|120:79,1,118.800003625488,2|2,3:2|0:0,0:0:0:0:
66,23,22150,1,0,3:0:0:0:
205,124,22297,1,2,0:0:0:0:
299,28,22444,6,0,P|333:10|373:23,1,75.5999976928712,2|0,3:2|0:0,0:0:0:0:
469,75,22738,2,0,P|458:87|438:94,3,25.1999992309571,2|2|2|2,3:2|0:0|0:0|0:0,0:0:0:0:
412,95,23032,6,0,P|389:148|386:214,1,118.800003625488,2|2,3:2|0:0,0:0:0:0:
422,304,23327,1,0,3:0:0:0:
295,171,23474,1,2,0:0:0:0:
172,280,23621,2,0,P|206:283|259:256,1,79.2000024169923,0|0,3:0|0:0,0:0:0:0:
317,366,23915,1,2,0:0:0:0:
404,189,24062,1,2,0:0:0:0:
404,189,24356,5,2,3:2:0:0:
317,366,24503,1,2,3:2:0:0:
295,171,24650,1,2,3:2:0:0:
317,366,24797,6,0,P|348:325|331:241,1,129.599996044922,2|0,3:2|1:0,0:0:0:0:
219,86,25238,1,2,0:0:0:0:
219,86,25312,1,0,0:0:0:0:
219,86,25385,6,0,P|167:96|112:143,1,118.800003625488,6|2,0:0|0:0,0:0:0:0:
95,223,25679,1,0,3:0:0:0:
24,75,25827,1,2,0:0:0:0:
95,223,25974,2,0,P|133:219|177:199,1,79.2000024169923,0|2,3:0|0:0,0:0:0:0:
293,17,26268,2,0,P|344:28|408:80,1,115.2,0|2,3:0|0:0,0:0:0:0:
310,178,26562,6,0,P|288:232|290:301,1,118.800003625488,6|2,0:0|0:0,0:0:0:0:
338,355,26856,1,0,3:0:0:0:
418,250,27003,1,2,0:0:0:0:
219,168,27150,6,0,P|182:174|138:192,1,75.5999976928712,0|0,3:0|0:0,0:0:0:0:
92,257,27444,1,2,0:0:0:0:
92,257,27518,1,2,0:0:0:0:
92,257,27591,1,2,0:0:0:0:
197,84,27738,5,6,3:2:0:0:
213,77,27812,1,0,3:0:0:0:
230,75,27885,1,0,3:0:0:0:
247,79,27959,1,0,3:0:0:0:
263,84,28032,2,0,L|291:113,2,25.1999992309571,0|0|0,3:0|3:0|3:0,0:0:0:0:
353,197,28327,5,4,3:2:0:0:
369,204,28400,1,0,3:0:0:0:
386,206,28474,1,0,3:0:0:0:
403,202,28547,1,0,3:0:0:0:
419,197,28621,2,0,L|447:168,2,25.1999992309571,0|0|8,3:0|3:0|3:0,0:0:0:0:
372,84,28915,6,0,P|375:40|393:-7,1,86.3999973632813,14|0,0:0|0:0,0:0:0:0:
238,163,29209,2,0,P|213:126|174:94,1,86.3999973632813,14|0,0:0|0:0,0:0:0:0:
358,200,29503,6,0,P|409:227|462:227,1,100.799996923828,6|2,3:2|0:0,0:0:0:0:
258,352,30091,5,4,3:2:0:0:
258,352,30238,2,0,P|258:310|275:243,1,100.799996923828,8|0,0:0|3:0,0:0:0:0:
128,205,30679,2,0,P|203:177|277:134,1,151.199995385742,2|2,0:0|0:0,0:0:0:0:
384,23,31268,5,4,3:2:0:0:
384,23,31415,2,0,P|401:32|441:43,1,50.3999984619141,8|2,0:0|0:0,0:0:0:0:
512,126,31709,1,0,3:0:0:0:
512,126,31782,1,0,3:0:0:0:
512,126,31856,1,10,0:0:0:0:
352,209,32003,1,2,3:2:0:0:
352,209,32297,1,2,3:2:0:0:
407,130,32444,6,0,P|425:68|435:3,1,129.599996044922,6|0,3:2|3:0,0:0:0:0:
312,114,32885,1,0,0:0:0:0:
188,14,33032,2,0,P|220:20|262:34,2,64.799998022461,0|2|0,3:0|0:0|0:0,0:0:0:0:
97,153,33473,2,0,P|154:155|217:116,1,129.599996044922,2|0,0:0|0:0,0:0:0:0:
334,237,33914,1,0,3:0:0:0:
297,336,34061,1,2,0:0:0:0:
147,257,34208,1,2,3:2:0:0:
156,231,34649,1,2,0:0:0:0:
50,328,34796,6,0,P|47:272|28:189,1,129.599996044922,0|2,0:0|3:2,0:0:0:0:
94,99,35238,1,0,0:0:0:0:
227,185,35385,1,0,3:0:0:0:
141,298,35532,2,0,P|163:286|214:278,1,64.799998022461,2|0,0:0|0:0,0:0:0:0:
341,354,35826,6,0,P|344:333|342:314,1,32.3999990112305,2|0,0:0|0:0,0:0:0:0:
439,238,36120,2,0,P|432:218|419:202,1,32.3999990112305,2|0,0:0|0:0,0:0:0:0:
490,100,36414,2,0,P|474:86|455:79,1,32.3999990112305,2|0,0:0|0:0,0:0:0:0:
509,120,36708,6,0,P|497:67|466:32,1,86.3999973632813,2|0,0:0|0:0,0:0:0:0:
295,221,37149,6,0,P|298:151|328:79,1,129.599996044922,2|0,3:2|3:0,0:0:0:0:
377,17,37591,1,0,0:0:0:0:
207,121,37738,1,0,3:0:0:0:
152,29,37885,2,0,P|190:34|225:18,1,64.799998022461,2|0,0:0|3:0,0:0:0:0:
85,173,38179,2,0,P|133:189|213:225,1,129.599996044922,2|0,0:0|0:0,0:0:0:0:
344,327,38620,1,2,3:2:0:0:
260,361,38767,1,2,0:0:0:0:
322,180,38914,1,2,3:2:0:0:
345,190,39355,1,2,0:0:0:0:
467,338,39502,6,0,P|444:284|442:210,1,129.599996044922,2|2,3:2|3:2,0:0:0:0:
498,90,39943,1,0,0:0:0:0:
310,165,40091,1,0,3:0:0:0:
343,27,40238,2,0,P|363:58|369:92,1,64.799998022461,2|0,0:0|3:0,0:0:0:0:
244,241,40532,6,0,P|227:293|240:343,1,97.1999970336915,2|0,0:0|0:0,0:0:0:0:
235,333,40826,2,0,P|252:327|282:319,1,32.3999990112305,2|0,0:0|0:0,0:0:0:0:
95,256,41120,2,0,P|112:262|142:270,1,32.3999990112305,2|0,0:0|0:0,0:0:0:0:
125,266,41414,5,0,3:0:0:0:
254,245,41561,1,0,3:0:0:0:
136,363,41708,1,0,3:0:0:0:
21,206,41855,6,0,P|15:184|14:162,3,36,8|8|8|8,0:0|0:0|0:0|0:0,0:0:0:0:
65,107,42149,2,0,P|86:73|86:30,1,72,4|2,3:2|0:0,0:0:0:0:
206,180,42443,2,0,P|184:127|192:58,1,108,0|2,3:0|0:0,0:0:0:0:
249,23,42738,1,8,0:0:0:0:
382,93,42885,5,2,0:0:0:0:
382,93,43032,2,0,P|417:79|427:43,1,72,0|2,3:0|0:0,0:0:0:0:
284,160,43326,5,10,0:0:0:0:
224,221,43473,2,0,P|184:210|154:184,1,72,2|2,0:0|3:2,0:0:0:0:
366,342,43767,5,2,0:0:0:0:
357,314,44061,1,2,0:0:0:0:
435,130,44208,6,0,P|459:169|452:241,1,108,2|2,3:2|0:0,0:0:0:0:
380,194,44502,1,8,0:0:0:0:
274,284,44649,1,2,0:0:0:0:
142,149,44796,6,0,P|190:180|249:175,1,108,2|2,3:2|0:0,0:0:0:0:
278,109,45091,1,8,0:0:0:0:
112,234,45238,6,0,P|105:160|64:79,2,144,2|2|2,0:0|0:0|0:0,0:0:0:0:
108,248,46120,1,2,0:0:0:0:
182,350,46267,1,8,0:0:0:0:
329,313,46414,1,0,3:0:0:0:
235,195,46561,6,0,B|214:144|214:144|252:95,1,108,10|2,0:0|0:0,0:0:0:0:
163,15,46855,2,0,B|190:36|190:36|231:20,1,72,8|2,0:0|0:0,0:0:0:0:
383,177,47149,2,0,P|408:130|414:74,1,108,10|2,0:0|0:0,0:0:0:0:
369,7,47443,1,8,0:0:0:0:
234,144,47591,5,2,0:0:0:0:
234,144,47738,2,0,P|202:114|168:109,1,72,8|2,0:0|0:0,0:0:0:0:
277,264,48032,5,8,0:0:0:0:
342,198,48179,2,0,P|375:189|420:187,1,72,2|10,0:0|0:0,0:0:0:0:
221,331,48473,5,2,0:0:0:0:
236,356,48767,1,2,0:0:0:0:
151,248,48914,5,8,0:0:0:0:
194,96,49061,1,8,0:0:0:0:
346,139,49208,1,10,0:0:0:0:
303,291,49355,1,8,0:0:0:0:
241,222,49502,5,8,0:0:0:0:
241,222,49576,1,8,0:0:0:0:
241,222,49649,2,0,P|259:186|259:146,1,72,8|8,0:0|0:0,0:0:0:0:
373,54,49943,6,0,B|437:45|437:45|488:96,1,129.599996044922,6|0,3:2|0:0,0:0:0:0:
455,175,50238,2,0,B|391:184|391:184|340:133,1,129.599996044922,4|0,3:2|0:0,0:0:0:0:
373,54,50532,2,0,B|437:45|437:45|488:96,1,129.599996044922,6|0,3:2|0:0,0:0:0:0:
467,186,50826,1,10,0:0:0:0:
467,186,50899,1,8,0:0:0:0:
467,186,50973,2,0,P|469:205|478:237,2,43.1999986816407,10|10|2,0:0|0:0|3:2,0:0:0:0:
388,339,51267,5,6,3:2:0:0:
318,273,51414,2,0,P|284:257|251:246,1,64.799998022461,2|2,0:0|0:0,0:0:0:0:
112,285,51708,2,0,P|160:245|175:166,1,129.599996044922,2|2,0:0|0:0,0:0:0:0:
112,62,52149,6,0,P|141:47|192:47,2,64.799998022461,2|2|0,3:2|3:2|3:0,0:0:0:0:
35,126,52738,1,0,3:0:0:0:
97,208,52885,2,0,P|124:172|132:144,1,64.799998022461,0|10,3:0|0:0,0:0:0:0:
215,85,53179,1,2,3:2:0:0:
215,85,53252,1,0,3:0:0:0:
215,85,53326,2,0,P|234:113|245:143,1,64.799998022461,0|10,3:0|0:0,0:0:0:0:
365,254,53620,6,0,P|395:250|434:227,2,64.799998022461,2|2|0,0:0|0:0|0:0,0:0:0:0:
215,337,54061,2,0,P|256:330|308:363,1,86.3999973632813,2|2,0:0|0:0,0:0:0:0:
275,176,54355,1,2,3:2:0:0:
163,240,54502,6,0,P|139:244|83:225,2,64.799998022461,2|2|2,3:2|3:2|3:2,0:0:0:0:
73,143,55091,2,0,P|59:129|51:109,3,32.3999990112305,2|0|0|0,3:2|3:0|3:0|3:0,0:0:0:0:
64,87,55385,1,8,0:0:0:0:
180,34,55532,1,2,3:2:0:0:
180,34,55605,1,0,3:0:0:0:
180,34,55679,2,0,P|179:69|162:104,1,64.799998022461,8|2,0:0|3:2,0:0:0:0:
253,227,55973,6,0,P|278:199|332:174,2,86.3999973632813,6|0|0,3:2|0:0|0:0,0:0:0:0:
327,88,56414,2,0,P|363:88|407:109,1,64.799998022461,2|2,0:0|0:0,0:0:0:0:
482,174,56708,1,2,3:2:0:0:
398,314,56855,6,0,P|369:283|368:248,2,64.799998022461,2|2|2,3:2|3:2|3:2,0:0:0:0:
512,276,57443,2,0,P|507:253|491:224,1,43.1999986816407,0|2,3:0|3:2,0:0:0:0:
361,162,57738,5,10,0:0:0:0:
282,228,57885,1,0,3:0:0:0:
282,228,57958,1,0,3:0:0:0:
282,228,58032,2,0,P|272:251|268:280,1,43.1999986816407,2|8,3:2|0:0,0:0:0:0:
163,353,58326,5,0,3:0:0:0:
163,353,58473,2,0,P|148:339|122:324,2,43.1999986816407,2|2|2,0:0|0:0|0:0,0:0:0:0:
191,210,59061,5,0,3:0:0:0:
106,244,59208,1,0,3:0:0:0:
22,278,59355,1,2,3:2:0:0:
16,251,59649,5,0,3:0:0:0:
101,217,59796,1,0,3:0:0:0:
185,183,59943,1,2,3:2:0:0:
184,156,60238,6,0,P|243:191|315:200,1,129.599996044922,2|0,3:2|0:0,0:0:0:0:
359,136,60532,1,2,3:2:0:0:
262,355,60679,6,0,P|308:301|376:278,1,144,4|0,3:2|3:0,0:0:0:0:
480,360,61120,2,0,P|501:329|511:282,1,72,2|0,0:0|3:0,0:0:0:0:
385,121,61414,2,0,P|388:158|411:200,1,72,0|0,0:0|3:0,0:0:0:0:
488,15,61708,1,2,3:2:0:0:
488,15,62002,6,0,P|409:30|352:22,1,129.599996044922,4|0,3:2|0:0,0:0:0:0:
297,135,62296,2,0,P|286:63|241:14,1,129.599996044922,4|0,3:2|0:0,0:0:0:0:
188,74,62591,1,2,3:2:0:0:
188,74,62738,2,0,P|146:60|96:65,1,86.4,4|0,3:2|0:0,0:0:0:0:
38,108,63032,5,4,3:2:0:0:
81,247,63179,2,0,P|99:231|122:172,2,72,2|2|0,0:0|3:2|0:0,0:0:0:0:
250,317,63620,2,0,P|231:288|228:230,1,72,2|0,3:2|0:0,0:0:0:0:
298,156,63914,2,0,P|299:130|290:114,3,36,2|2|2|2,0:0|0:0|0:0|0:0,0:0:0:0:
250,52,64208,5,2,3:2:0:0:
250,52,64355,2,0,P|272:29|314:2,1,72,2|0,3:2|0:0,0:0:0:0:
479,67,64649,1,2,3:2:0:0:
479,67,64943,1,2,3:2:0:0:
383,203,65091,1,2,3:2:0:0:
484,90,65238,1,2,3:2:0:0:
287,184,65385,5,4,3:2:0:0:
268,92,65532,1,2,3:2:0:0:
350,47,65679,1,2,3:2:0:0:
424,123,65826,1,0,3:0:0:0:
424,123,65899,1,0,3:0:0:0:
424,123,65973,2,0,P|462:113|486:86,2,72,2|0|0,3:2|3:0|3:0,0:0:0:0:
350,47,66414,1,2,3:2:0:0:
183,154,66561,5,8,0:0:0:0:
54,19,66708,1,2,3:2:0:0:
54,19,67002,1,0,3:0:0:0:
39,32,67076,1,0,3:0:0:0:
45,52,67149,6,0,P|93:55|142:29,1,86.3999973632813,2|0,3:2|3:0,0:0:0:0:
246,49,67370,2,0,P|198:46|149:72,1,86.3999973632813,2|0,3:2|0:0,0:0:0:0:
163,60,67591,1,10,0:0:0:0:
62,193,67738,6,0,P|54:217|50:252,1,43.1999986816407,4|0,3:2|0:0,0:0:0:0:
168,302,68032,2,0,P|162:277|148:244,2,43.1999986816407,2|2|2,0:0|0:0|0:0,0:0:0:0:
0,361,68473,1,8,0:0:0:0:
62,193,68620,1,10,0:0:0:0:
2,342,68914,5,2,3:2:0:0:
88,319,69061,1,0,3:0:0:0:
196,193,69208,2,0,P|225:194|267:225,1,64.799998022461,6|0,3:2|3:0,0:0:0:0:
299,349,69502,2,0,P|318:363|341:357,3,32.3999990112305,2|0|0|0,3:2|3:0|3:0|3:0,0:0:0:0:
402,338,69796,1,4,3:2:0:0:
483,143,69943,5,2,3:2:0:0:
433,144,70017,1,2,3:2:0:0:
397,180,70091,1,4,3:2:0:0:
90,147,73620,6,0,P|71:173|65:210,1,57.6,4|2,3:2|0:0,0:0:0:0:
128,317,73914,2,0,P|147:291|153:254,1,57.6,2|2,0:0|0:0,0:0:0:0:
219,189,74208,2,0,P|234:183|263:181,3,28.8,0|0|0|0,1:0|1:0|1:0|1:0,0:0:0:0:
273,195,74502,1,2,1:2:0:0:
360,275,74649,2,0,P|378:283|404:286,2,28.8,2|0|0,1:2|1:0|1:0,0:0:0:0:
389,160,74943,1,2,0:0:0:0:
295,81,75090,2,0,P|289:64|287:41,3,28.8,0|0|0|0,1:0|1:0|1:0|1:0,0:0:0:0:
363,23,75385,6,0,P|378:50|374:88,2,57.6,6|0|0,3:2|0:0|0:0,0:0:0:0:
208,63,75826,2,0,P|208:91|223:116,1,57.6,2|0,3:2|0:0,0:0:0:0:
217,127,76267,5,10,0:0:0:0:
121,43,76414,2,0,P|122:26|132:-2,2,28.8,0|0|2,1:0|1:0|1:2,0:0:0:0:
44,172,76708,1,2,1:2:0:0:
44,172,76782,1,0,1:0:0:0:
44,172,76855,6,0,P|62:150|89:132,2,48,2|2|2,0:0|0:0|0:0,0:0:0:0:
31,294,77149,6,0,P|62:276|83:232,1,72,4|2,3:2|0:0,0:0:0:0:
191,147,77443,2,0,P|269:150|341:180,1,144,0|10,3:0|0:0,0:0:0:0:
429,336,77885,1,0,3:0:0:0:
304,261,78032,1,0,3:0:0:0:
423,196,78179,1,0,3:0:0:0:
304,261,78326,6,0,B|256:250|256:250|192:281,1,108,2|0,3:2|0:0,0:0:0:0:
163,350,78620,1,8,0:0:0:0:
163,350,78693,1,8,0:0:0:0:
163,350,78767,1,0,3:0:0:0:
67,233,78914,6,0,P|53:197|55:154,1,72,2|0,3:2|0:0,0:0:0:0:
149,79,79208,2,0,P|158:41|185:8,1,72,0|2,3:0|0:0,0:0:0:0:
262,175,79502,1,8,0:0:0:0:
262,175,79649,1,0,3:0:0:0:
413,24,79796,5,2,3:2:0:0:
346,94,79943,2,0,P|379:108|435:112,1,72,8|0,0:0|3:0,0:0:0:0:
414,113,80385,1,10,0:0:0:0:
307,262,80532,1,0,3:0:0:0:
320,273,80605,1,0,3:0:0:0:
333,283,80679,2,0,P|338:240|352:199,1,72,2|0,3:2|3:0,0:0:0:0:
225,60,80973,2,0,P|264:84|342:108,1,108,0|0,3:0|0:0,0:0:0:0:
391,56,81267,2,0,P|405:48|435:47,2,36,2|2|2,3:2|3:2|3:2,0:0:0:0:
458,177,81561,5,4,3:2:0:0:
491,264,81708,1,0,3:0:0:0:
434,338,81855,1,8,0:0:0:0:
343,315,82002,1,0,3:0:0:0:
249,217,82149,2,0,P|231:206|195:206,3,36,4|0|0|0,3:2|3:0|3:0|3:0,0:0:0:0:
155,264,82443,6,0,P|137:275|101:275,3,36,6|0|0|0,3:2|3:0|3:0|3:0,0:0:0:0:
105,361,82738,2,0,P|87:357|61:341,1,36,4|0,3:2|3:0,0:0:0:0:
29,237,82885,1,2,3:2:0:0:
149,137,83032,1,2,3:2:0:0:
158,126,83105,1,0,3:0:0:0:
159,111,83179,1,0,3:0:0:0:
155,97,83252,1,0,3:0:0:0:
145,84,83326,6,0,P|72:101|10:158,1,144,2|0,3:2|0:0,0:0:0:0:
65,274,83767,2,0,P|138:257|200:200,1,144,2|0,3:2|0:0,0:0:0:0:
283,118,84208,6,0,P|338:191|344:302,1,180,2|0,3:2|0:0,0:0:0:0:
297,345,84649,1,2,3:2:0:0:
446,285,84796,1,2,3:2:0:0:
249,223,84943,1,2,3:2:0:0:
436,107,85090,6,0,P|449:69|446:29,1,79.2000024169923,0|2,3:0|3:2,0:0:0:0:
318,155,85384,1,2,3:2:0:0:
206,67,85531,2,0,P|126:37|34:24,1,158.400004833985,10|2,0:0|3:2,0:0:0:0:
116,186,85972,6,0,P|157:184|198:151,1,79.2000024169923,0|2,3:0|3:2,0:0:0:0:
317,41,86266,1,10,0:0:0:0:
285,219,86413,1,2,3:2:0:0:
409,154,86560,1,0,3:0:0:0:
409,154,86634,1,0,3:0:0:0:
409,154,86707,1,2,3:2:0:0:
238,94,86854,6,0,P|225:58|219:17,1,79.2000024169923,0|2,3:0|3:2,0:0:0:0:
116,173,87148,1,10,0:0:0:0:
60,82,87295,2,0,P|48:72|21:69,2,39.6000012084961,2|0|0,3:2|3:0|3:0,0:0:0:0:
129,187,87590,5,2,0:0:0:0:
129,187,87663,1,2,0:0:0:0:
129,187,87737,2,0,P|164:183|213:161,1,79.2000024169923,2|2,3:2|0:0,0:0:0:0:
278,302,88031,6,0,B|284:293|289:278,3,26.4000008056641,2|2|2|8,0:0|0:0|0:0|0:0,0:0:0:0:
406,193,88325,1,2,0:0:0:0:
499,334,88472,1,2,3:2:0:0:
499,334,88545,1,0,3:0:0:0:
499,334,88619,6,0,P|496:294|478:247,1,79.2000024169923,4|2,3:2|3:2,0:0:0:0:
362,103,88913,1,2,3:2:0:0:
293,225,89060,2,0,P|384:208|440:159,1,158.400004833985,10|2,0:0|3:2,0:0:0:0:
386,335,89501,6,0,P|345:337|309:315,1,79.2000024169923,0|2,3:0|3:2,0:0:0:0:
167,192,89795,1,2,3:2:0:0:
111,333,89942,1,10,0:0:0:0:
22,243,90089,1,0,3:0:0:0:
22,243,90163,1,0,3:0:0:0:
22,243,90237,2,0,P|39:246|71:258,1,39.6000012084961,2|2,0:0|0:0,0:0:0:0:
111,333,90384,6,0,P|154:330|190:300,1,79.2000024169923,2|0,3:2|3:0,0:0:0:0:
301,162,90678,1,2,3:2:0:0:
154,224,90825,1,0,3:0:0:0:
154,224,90898,1,0,3:0:0:0:
154,224,90972,2,0,P|137:182|132:141,1,79.2000024169923,2|0,3:2|3:0,0:0:0:0:
218,14,91266,5,2,3:2:0:0:
348,61,91413,1,2,3:2:0:0:
216,34,91560,1,2,3:2:0:0:
290,158,91707,1,2,3:2:0:0:
204,48,91854,2,0,P|186:62|177:81,3,39.6000012084961,0|0|0|0,3:0|3:0|3:0|3:0,0:0:0:0:
158,158,92148,5,2,3:2:0:0:
66,55,92295,1,2,3:2:0:0:
159,182,92442,1,2,3:2:0:0:
282,118,92589,1,2,3:2:0:0:
172,207,92737,2,0,P|191:219|216:220,3,39.6000012084961,0|0|0|0,3:0|3:0|3:0|3:0,0:0:0:0:
272,283,93031,5,2,3:2:0:0:
212,357,93178,1,0,3:0:0:0:
124,325,93325,1,0,3:0:0:0:
284,262,93472,5,2,3:2:0:0:
401,340,93619,2,0,P|414:318|419:299,3,39.6000012084961,2|0|0|0,3:2|3:0|3:0|3:0,0:0:0:0:
497,257,93913,6,0,P|468:236|446:185,1,79.2000024169923,4|2,3:2|0:0,0:0:0:0:
393,22,94207,1,2,0:0:0:0:
303,145,94354,2,0,P|369:131|470:77,1,158.400004833985,10|2,0:0|0:0,0:0:0:0:
365,234,94795,6,0,P|348:280|343:316,1,79.2000024169923,0|2,0:0|0:0,0:0:0:0:
207,360,95089,1,2,3:2:0:0:
349,329,95236,1,10,0:0:0:0:
223,261,95383,1,0,3:0:0:0:
223,261,95457,1,0,3:0:0:0:
223,261,95530,1,2,3:2:0:0:
66,300,95677,6,0,P|28:274|8:230,1,79.2000024169923,4|2,3:2|0:0,0:0:0:0:
78,60,95971,1,2,3:2:0:0:
207,130,96118,1,10,0:0:0:0:
104,216,96265,1,2,3:2:0:0:
153,351,96413,5,0,3:0:0:0:
153,351,96486,1,0,3:0:0:0:
153,351,96560,2,0,P|168:314|177:264,1,79.2000024169923,0|2,3:0|0:0,0:0:0:0:
289,182,96854,6,0,P|303:188|316:197,2,26.4000008056641,2|2|2,0:0|0:0|0:0,0:0:0:0:
280,206,97001,2,0,P|325:203|364:185,1,79.2000024169923,4|2,3:2|0:0,0:0:0:0:
439,45,97295,1,0,3:3:0:0:
439,45,97368,1,0,3:3:0:0:
439,45,97442,6,0,B|414:74|414:74|429:130,1,79.2000024169923,4|2,3:2|3:2,0:0:0:0:
506,234,97736,1,2,3:2:0:0:
350,328,97883,2,0,P|400:270|360:203,1,158.400004833985,10|2,0:0|3:2,0:0:0:0:
227,57,98324,6,0,P|265:65|313:97,1,79.2000024169923,0|2,3:0|0:0,0:0:0:0:
131,251,98618,1,2,3:2:0:0:
262,178,98765,1,10,0:0:0:0:
144,95,98912,1,0,3:0:0:0:
144,95,98986,1,0,3:0:0:0:
144,95,99060,2,0,P|135:61|136:38,1,39.6000012084961,2|2,3:2|0:0,0:0:0:0:
52,18,99207,6,0,P|43:58|14:111,1,79.2000024169923,2|8,3:2|0:0,0:0:0:0:
228,20,99501,1,2,3:2:0:0:
146,205,99648,1,0,3:0:0:0:
146,205,99721,1,0,3:0:0:0:
146,205,99795,2,0,P|181:178|225:161,1,79.2000024169923,10|0,0:0|0:0,0:0:0:0:
374,359,100089,5,2,3:2:0:0:
226,256,100236,2,0,P|263:272|309:280,1,79.2000024169923,0|2,3:0|3:2,0:0:0:0:
464,139,100530,1,10,0:0:0:0:
349,198,100677,1,10,0:0:0:0:
349,198,100751,1,0,3:0:0:0:
349,198,100824,1,2,3:2:0:0:
230,13,100971,6,0,P|215:49|212:107,1,79.2000024169923,4|2,3:2|0:0,0:0:0:0:
129,248,101265,1,2,3:2:0:0:
20,59,101412,2,0,P|104:112|149:169,1,158.400004833985,10|2,0:0|3:2,0:0:0:0:
250,303,101854,6,0,P|295:296|336:266,1,79.2000024169923,0|2,3:0|3:2,0:0:0:0:
400,107,102148,1,2,3:2:0:0:
280,186,102295,1,10,0:0:0:0:
432,294,102442,1,0,3:0:0:0:
432,294,102515,1,0,3:0:0:0:
432,294,102589,1,2,3:2:0:0:
251,369,102736,6,0,P|266:330|267:278,1,79.2000024169923,0|2,3:0|0:0,0:0:0:0:
91,158,103030,1,10,0:0:0:0:
173,268,103177,2,0,P|157:281|134:284,2,39.6000012084961,2|0|0,3:2|3:0|3:0,0:0:0:0:
262,139,103471,1,0,3:0:0:0:
262,139,103545,1,0,0:0:0:0:
262,139,103618,2,0,P|262:116|272:93,2,39.6000012084961,0|0|10,3:0|3:0|0:0,0:0:0:0:
94,43,103912,6,0,P|81:35|55:26,3,26.4000008056641,2|2|2|0,0:0|0:0|0:0|3:0,0:0:0:0:
162,217,104207,1,10,0:0:0:0:
25,161,104354,1,0,3:0:0:0:
25,161,104427,1,0,3:0:0:0:
25,161,104501,5,14,0:0:0:0:
177,10,104648,1,8,0:0:0:0:
38,65,104795,1,8,0:0:0:0:
149,218,104942,2,0,P|206:173|301:179,1,158.400004833985,10|0,0:0|3:0,0:0:0:0:
413,348,105383,5,14,0:0:0:0:
292,256,105530,1,10,0:0:0:0:
174,358,105677,2,0,P|163:318|144:282,1,79.2000024169923,10|10,0:0|0:0,0:0:0:0:
68,169,105971,1,8,0:0:0:0:
68,169,106045,1,8,0:0:0:0:
68,169,106118,1,10,0:0:0:0:
233,228,106265,6,0,P|272:218|313:194,1,79.2000024169923,4|2,3:2|0:0,0:0:0:0:
419,83,106560,1,10,0:0:0:0:
363,273,106707,1,2,3:2:0:0:
250,133,106854,2,0,P|249:120|256:89,2,39.6000012084961,2|0|2,3:2|3:0|3:2,0:0:0:0:
76,38,107148,5,10,0:0:0:0:
89,52,107221,1,8,0:0:0:0:
95,70,107295,2,0,P|91:92|81:119,2,39.6000012084961,8|8|8,0:0|0:0|0:0,0:0:0:0:
36,277,107589,2,0,P|79:235|139:244,1,118.800003625488,2|0,3:2|3:0,0:0:0:0:
207,300,107883,1,0,3:0:0:0:
207,300,107957,1,0,3:0:0:0:
207,300,108030,5,6,3:2:0:0:
265,206,108177,2,0,P|254:144|219:79,1,108,2|0,3:2|0:0,0:0:0:0:
264,65,108471,5,2,3:2:0:0:
370,193,108618,2,0,P|396:122|436:84,1,129.599996044922,2|0,3:2|0:0,0:0:0:0:
464,106,108912,5,2,3:2:0:0:
405,282,109060,2,0,P|350:307|291:314,1,108,2|0,3:2|0:0,0:0:0:0:
287,293,109354,5,2,3:2:0:0:
167,354,109501,2,0,P|178:321|181:250,1,86.4,2|0,3:2|0:0,0:0:0:0:
170,254,109795,5,2,3:2:0:0:
61,139,109942,2,0,P|58:161|101:165,1,64.799998022461,2|0,3:2|0:0,0:0:0:0:
121,151,110236,5,2,3:2:0:0:
204,33,110383,2,0,P|256:37|317:53,1,108,2|0,3:2|0:0,0:0:0:0:
319,74,110677,5,0,3:2:0:0:
217,191,110824,1,2,3:2:0:0:
217,191,111118,2,0,P|219:157|230:119,2,57.6,2|2|0,0:0|0:0|3:0,0:0:0:0:
138,346,111560,5,6,3:2:0:0:
138,346,111707,2,0,P|125:311|114:296,1,43.1999986816407,2|0,3:2|0:0,0:0:0:0:
231,255,112001,5,6,3:2:0:0:
231,255,112148,2,0,P|206:243|175:231,1,57.6,2|0,3:2|0:0,0:0:0:0:
306,130,112442,5,6,3:2:0:0:
306,130,112589,2,0,P|264:136|222:156,1,72,2|0,3:2|0:0,0:0:0:0:
114,4,112883,5,6,3:2:0:0:
246,53,113030,1,2,3:2:0:0:
246,53,113177,1,0,3:0:0:0:
71,121,113324,1,6,3:2:0:0:
171,217,113471,2,0,P|195:180|210:127,1,86.3999973632813,6|0,3:2|0:0,0:0:0:0:
352,20,113765,5,2,3:2:0:0:
433,91,113912,1,2,3:2:0:0:
351,161,114060,1,0,3:0:0:0:
351,161,114133,1,0,3:0:0:0:
351,161,114207,2,0,P|322:132|281:112,2,72,6|2|2,3:2|3:2|3:2,0:0:0:0:
315,336,114648,2,0,P|294:300|285:255,1,72,6|2,3:2|3:2,0:0:0:0:
178,171,114942,1,0,3:0:0:0:
178,171,115015,1,0,3:0:0:0:
178,171,115089,5,2,3:2:0:0:
126,332,115236,1,2,3:2:0:0:
152,160,115530,5,2,3:2:0:0:
100,321,115677,1,2,3:2:0:0:
126,149,115971,6,0,L|69:302,2,162.00000617981,2|2|2,3:2|3:2|3:2,0:0:0:0:
191,272,116560,1,2,3:2:0:0:
16,152,116707,1,2,3:2:0:0:
152,38,116854,6,0,B|191:10|250:-4|324:48|315:161|231:178|204:95,1,302.399990771485,4|2,3:2|0:0,0:0:0:0:
