osu file format v14

[General]
AudioFilename: audio.mp3
AudioLeadIn: 0
PreviewTime: 11530
Countdown: 0
SampleSet: Soft
StackLeniency: 0.7
Mode: 0
LetterboxInBreaks: 0
WidescreenStoryboard: 0

[Editor]
Bookmarks: 11627,21277,30827,40477,50127,59677,64577,69277,74127,78877,88477,98077,107727,117277,124527,133977,143627,150277
DistanceSpacing: 2.1
BeatDivisor: 8
GridSize: 4
TimelineZoom: 2.799999

[Metadata]
Title:Qlifact -another-
TitleUnicode:Qlifact -another-
Artist:Se-U-Ra
ArtistUnicode:せゆーら
Creator:Nao Tomori
Version:Expert
Source:
Tags:seura tree called elif rhythm game electronic instrumental artcore icekalt
BeatmapID:2547134
BeatmapSetID:1224699

[Difficulty]
HPDrainRate:5.5
CircleSize:4.5
OverallDifficulty:8.7
ApproachRate:9.3
SliderMultiplier:0.759999999999999
SliderTickRate:1

[Events]
//Background and Video events
0,0,"fire girl.jpg",0,0
//Break Periods
2,79015,87561
2,117415,120411
2,124415,128661
//Storyboard Layer 0 (Background)
//Storyboard Layer 1 (Fail)
//Storyboard Layer 2 (Pass)
//Storyboard Layer 3 (Foreground)
//Storyboard Layer 4 (Overlay)
//Storyboard Sound Samples
Sample,124415,0,"soft-hitfinish19.wav",35

[TimingPoints]
-385,300,4,2,3,50,1,0
515,-100,4,2,3,50,0,0
2015,-66.6666666666667,4,2,3,60,0,0
11315,-66.6666666666667,4,2,3,75,0,0
11615,-41.1522633744856,4,2,3,70,0,0
20015,-83.3333333333333,4,2,3,70,0,0
20615,-41.6666666666667,4,2,3,70,0,0
21365,-50,4,2,3,65,0,0
30065,-66.6666666666667,4,2,3,50,0,0
30815,-50,4,2,3,65,0,0
36815,-42.7350427350427,4,2,3,65,0,0
38015,-42.7350427350427,4,2,3,75,0,0
39215,-66.6666666666667,4,2,3,75,0,0
40415,-50,4,2,3,65,0,0
40865,-66.6666666666667,4,2,3,65,0,0
50315,-61.3496932515337,4,2,3,65,0,0
59615,-61.3496932515337,4,2,3,70,0,0
60815,-100,4,2,3,70,0,0
61115,-58.8235294117647,4,2,3,70,0,0
64415,400,3,2,3,75,1,0
64415,-50,3,2,3,75,0,0
68015,-40,3,2,3,75,0,0
69215,300,4,2,3,75,1,0
69215,-41.1522633744856,4,2,3,80,0,0
72815,-41.1522633744856,4,2,3,70,0,0
74015,-50,4,2,3,80,0,0
88415,-41.1522633744856,4,2,3,75,0,0
96815,-100,4,2,3,65,0,0
97715,-100,4,2,3,75,0,0
98015,-40,4,2,3,75,0,0
120965,-40,4,2,3,80,0,0
129215,-100,4,2,3,50,0,0
132815,-100,4,2,3,75,0,0
134015,-40,4,2,3,75,0,0
145715,-100,4,2,3,75,0,0
148415,-277.777777777778,4,2,3,75,0,0
148565,-277.777777777778,4,2,1,30,0,0

[Colours]
Combo1 : 252,179,44
Combo2 : 250,71,56
Combo3 : 249,194,155
Combo4 : 247,157,186

[HitObjects]
28,185,515,6,0,P|76:151|164:170,1,152,2|0,0:2|0:2,0:2:0:0:
216,99,1265,2,0,P|264:133|352:114,1,152,2|0,0:2|0:2,0:2:0:0:
426,167,2015,6,0,L|432:233,1,57.0000021743775,6|0,3:2|0:2,0:2:0:0:
352,271,2315,2,0,L|346:205,1,57.0000021743775,2|0,0:2|0:2,0:2:0:0:
431,223,2615,1,8,0:1:0:0:
272,318,2765,2,0,P|225:296|161:313,1,114.000004348755,2|0,0:2|0:2,0:2:0:0:
9,280,3215,5,2,0:2:0:0:
74,218,3365,2,0,L|89:336,1,114.000004348755,2|0,0:2|0:2,0:2:0:0:
130,167,3815,2,0,P|147:200|145:244,1,57.0000021743775,8|0,0:1|0:2,0:2:0:0:
55,141,4115,2,0,P|68:116|90:98,1,57.0000021743775,2|0,0:2|0:2,0:2:0:0:
136,18,4415,6,0,P|185:36|236:14,1,85.5000032615662,2|0,0:2|0:2,0:2:0:0:
243,42,4715,2,0,P|278:19|357:31,2,114.000004348755,2|8|0,0:2|0:1|0:2,0:2:0:0:
303,99,5465,1,2,0:2:0:0:
229,169,5615,6,0,L|129:155,1,85.5000032615662,2|0,0:2|0:2,0:2:0:0:
125,177,5915,2,0,P|96:189|55:183,1,57.0000021743775,2|0,0:2|0:2,0:2:0:0:
21,309,6215,2,0,P|80:277|131:288,1,114.000004348755,8|0,0:1|0:2,0:2:0:0:
188,341,6665,1,0,0:2:0:0:
275,235,6815,6,0,P|260:292|260:293,1,57.0000021743775,2|0,0:2|0:2,0:2:0:0:
333,345,7115,2,0,P|348:288|348:287,1,57.0000021743775,2|0,0:2|0:2,0:2:0:0:
260,289,7415,1,8,0:1:0:0:
436,314,7565,2,0,P|418:251|407:184,1,114.000004348755,2|0,0:2|0:2,0:2:0:0:
438,61,8015,5,2,0:2:0:0:
371,124,8165,2,0,B|339:137|339:137|258:121,1,114.000004348755,2|0,0:2|0:2,0:2:0:0:
106,160,8615,2,0,P|115:201|122:234,1,57.0000021743775,8|0,0:1|0:2,0:2:0:0:
190,164,8915,1,2,0:2:0:0:
30,41,9215,6,0,P|18:90|6:159,1,114.000004348755,2|0,0:2|0:2,0:2:0:0:
96,187,9665,2,0,P|96:235|107:321,1,114.000004348755,2|0,0:2|0:2,0:2:0:0:
184,348,10115,1,2,0:2:0:0:
261,302,10265,1,0,0:2:0:0:
261,302,10340,1,0,0:2:0:0:
261,302,10415,6,0,B|324:291|324:291|342:323|382:329,1,114.000004348755,2|2,0:2|0:2,0:2:0:0:
395,254,10865,1,0,0:2:0:0:
261,302,11015,2,0,P|252:338|252:373,1,57.0000021743775,8|0,0:1|0:2,0:2:0:0:
485,247,11315,6,0,B|507:228|507:228|472:215,1,57.0000021743775,0|0,3:2|0:2,0:2:0:0:
92,109,11615,6,0,P|160:140|209:123,1,92.3399994011763,6|0,3:2|0:2,0:2:0:0:
331,34,11915,2,0,P|286:37|249:64,1,92.3399994011763,10|0,0:2|0:2,0:2:0:0:
248,64,12140,1,2,0:2:0:0:
248,64,12215,1,2,3:2:0:0:
419,146,12365,2,0,P|426:78|431:46,1,92.3399994011763,2|8,0:2|0:2,0:2:0:0:
510,108,12665,1,2,0:2:0:0:
360,256,12815,5,2,3:2:0:0:
292,201,12965,2,0,P|236:187|193:205,1,92.3399994011763,2|8,0:2|0:2,0:2:0:0:
330,120,13265,1,2,0:2:0:0:
244,274,13415,1,2,3:2:0:0:
169,116,13565,1,0,0:2:0:0:
260,32,13715,5,10,0:2:0:0:
244,274,13865,1,8,0:2:0:0:
237,369,14015,6,0,P|286:354|336:362,1,92.3399994011763,2|0,3:2|0:2,0:2:0:0:
353,343,14240,1,2,0:2:0:0:
353,343,14315,2,0,L|338:244,1,92.3399994011763,10|0,0:2|0:2,0:2:0:0:
350,227,14540,1,2,0:2:0:0:
350,227,14615,2,0,L|335:128,1,92.3399994011763,2|0,3:2|0:2,0:2:0:0:
394,60,14915,1,10,0:2:0:0:
394,60,14990,1,2,0:2:0:0:
394,60,15065,1,2,0:2:0:0:
219,186,15215,6,0,P|171:199|120:176,1,92.3399994011763,2|0,3:2|0:2,0:2:0:0:
170,24,15515,1,10,0:2:0:0:
170,24,15590,1,2,0:2:0:0:
170,24,15665,1,2,0:2:0:0:
192,347,15815,5,0,3:2:0:0:
179,120,15965,1,0,3:2:0:0:
188,322,16115,1,8,0:2:0:0:
175,95,16265,1,8,0:2:0:0:
39,260,16415,5,6,3:2:0:0:
313,212,16565,1,0,0:2:0:0:
187,194,16715,1,8,0:2:0:0:
179,228,16790,1,8,0:2:0:0:
171,263,16865,1,8,0:2:0:0:
164,297,16940,1,8,0:2:0:0:
155,331,17015,5,2,3:2:0:0:
83,162,17165,1,2,0:2:0:0:
276,263,17315,1,8,0:2:0:0:
276,263,17390,1,8,0:2:0:0:
276,263,17465,1,0,3:2:0:0:
55,152,17615,5,6,3:2:0:0:
360,249,17765,1,2,3:2:0:0:
360,249,17840,1,0,3:2:0:0:
360,249,17915,1,8,0:2:0:0:
344,334,18065,5,2,3:2:0:0:
420,174,18215,1,2,3:2:0:0:
408,129,18290,1,0,3:2:0:0:
396,84,18365,1,0,3:2:0:0:
479,78,18515,1,10,0:2:0:0:
334,150,18665,1,8,0:2:0:0:
217,64,18815,5,6,3:2:0:0:
165,40,18890,1,0,3:2:0:0:
108,49,18965,1,0,3:2:0:0:
66,87,19040,1,0,3:2:0:0:
52,143,19115,5,8,0:2:0:0:
57,165,19190,1,8,0:2:0:0:
62,188,19265,1,8,0:2:0:0:
67,210,19340,1,8,0:2:0:0:
73,233,19415,5,6,3:2:0:0:
110,206,19490,1,0,3:2:0:0:
155,203,19565,1,0,3:2:0:0:
195,224,19640,1,0,3:2:0:0:
219,263,19715,1,8,0:2:0:0:
255,306,19790,1,8,0:2:0:0:
308,327,19865,1,8,0:2:0:0:
365,321,19940,1,8,0:2:0:0:
412,289,20015,6,0,P|409:335|410:347,1,45.5999986083984,0|0,1:2|1:2,0:2:0:0:
376,203,20315,2,0,P|378:156|377:144,1,45.5999986083984,0|0,1:2|1:2,0:2:0:0:
278,339,20615,6,0,P|275:385|276:397,1,45.5999986083984,0|0,1:2|1:2,0:2:0:0:
239,149,20765,2,0,P|241:102|240:90,1,45.5999986083984,0|0,1:2|1:2,0:2:0:0:
134,310,20915,6,0,P|87:307|75:308,1,45.5999986083984,0|0,1:2|1:2,3:2:0:0:
376,203,21065,2,0,P|422:205|434:204,1,45.5999986083984,0|0,1:2|1:2,3:2:0:0:
252,244,21215,5,6,3:2:0:0:
174,197,21365,2,0,P|121:187|81:209,1,75.9999999999999,2|8,0:2|0:2,0:2:0:0:
237,127,21665,1,2,0:2:0:0:
237,127,21740,1,2,0:2:0:0:
237,127,21815,2,0,P|290:137|330:115,1,75.9999999999999,2|0,0:2|3:2,0:2:0:0:
401,158,22115,2,0,L|391:82,1,75.9999999999999,8|0,0:2|0:2,0:2:0:0:
300,244,22415,6,0,B|353:232|353:232|391:249|391:249|462:231,1,152,2|8,3:2|0:2,0:2:0:0:
332,360,22865,2,0,B|298:353|285:319|285:319|232:302|190:352,1,152,2|0,0:2|3:2,0:2:0:0:
125,223,23315,2,0,P|115:269|122:321,1,75.9999999999999,10|0,0:2|0:2,0:2:0:0:
199,172,23615,6,0,P|144:135|51:172,1,152,2|10,3:2|0:2,0:2:0:0:
0,88,24065,1,0,0:2:0:0:
0,88,24140,1,0,0:2:0:0:
0,88,24215,2,0,P|5:31|5:-16,1,75.9999999999999,0|0,0:2|3:2,0:2:0:0:
22,246,24515,2,0,P|17:303|17:350,1,75.9999999999999,8|0,0:2|0:2,0:2:0:0:
137,384,24815,5,2,3:2:0:0:
210,336,24965,2,0,B|243:318|243:318|306:335,1,75.9999999999999,2|8,0:2|0:2,0:2:0:0:
136,172,25265,2,0,B|119:196|88:197|88:197|49:154|-4:167,1,152,2|0,0:2|3:2,0:2:0:0:
210,112,25715,2,0,L|226:191,1,75.9999999999999,10|0,0:2|0:2,0:2:0:0:
501,165,26015,5,2,3:2:0:0:
368,120,26165,2,0,P|423:108|458:100,1,75.9999999999999,2|8,0:2|0:2,0:2:0:0:
308,60,26465,1,2,0:2:0:0:
308,60,26540,1,2,0:2:0:0:
308,60,26615,1,2,0:2:0:0:
374,195,26765,2,0,P|384:238|372:283,1,75.9999999999999,2|8,3:2|0:2,0:2:0:0:
281,350,27065,5,2,0:2:0:0:
281,350,27215,2,0,B|205:324|216:390|128:361,1,152,0|8,3:2|0:2,0:2:0:0:
142,200,27665,2,0,B|186:183|186:183|166:299,1,152,2|0,0:2|3:2,0:2:0:0:
11,313,28115,2,0,P|54:293|100:295,1,75.9999999999999,10|0,0:2|0:2,0:2:0:0:
351,237,28415,6,0,P|313:233|279:215,1,75.9999999999999,2|0,3:2|0:2,0:2:0:0:
337,153,28715,1,10,0:2:0:0:
423,302,28865,2,0,P|437:238|444:203,1,75.9999999999999,2|0,0:2|0:2,0:2:0:0:
203,258,29165,2,0,P|189:194|182:159,1,75.9999999999999,2|8,3:2|0:2,0:2:0:0:
372,161,29465,2,0,P|368:95|366:59,1,75.9999999999999,2|0,2:2|3:2,3:2:0:0:
95,239,29765,2,0,P|64:180|49:148,1,75.9999999999999,2|8,3:2|2:2,3:2:0:0:
248,354,30065,6,0,P|246:314|264:287,1,57.0000021743775,6|2,3:2|0:2,0:2:0:0:
334,305,30365,2,0,P|336:345|318:372,1,57.0000021743775,2|2,0:2|0:2,0:2:0:0:
329,359,30815,6,0,P|319:311|375:229,1,152,6|8,3:2|0:2,0:2:0:0:
471,182,31265,1,2,0:2:0:0:
471,182,31340,1,2,0:2:0:0:
471,182,31415,2,0,L|459:96,1,75.9999999999999,2|0,0:2|3:2,0:2:0:0:
362,154,31715,2,0,L|374:240,1,75.9999999999999,10|0,0:2|0:2,0:2:0:0:
268,169,32015,6,0,L|278:93,1,75.9999999999999,2|0,3:2|0:2,0:2:0:0:
362,154,32315,1,8,0:2:0:0:
193,122,32465,2,0,B|96:114|141:175|45:170,1,152,2|0,0:2|3:2,0:2:0:0:
22,63,32915,2,0,P|65:49|102:87,1,75.9999999999999,8|0,0:2|0:2,0:2:0:0:
185,212,33215,6,0,L|173:314,1,75.9999999999999,2|0,3:2|0:2,0:2:0:0:
321,362,33515,2,0,L|313:287,1,75.9999999999999,10|0,0:2|0:2,0:2:0:0:
324,268,33740,1,2,0:2:0:0:
324,268,33815,2,0,P|365:258|416:268,1,75.9999999999999,2|0,0:2|3:2,0:2:0:0:
177,190,34115,2,0,P|139:193|102:183,1,75.9999999999999,10|0,0:2|0:2,0:2:0:0:
222,26,34415,6,0,L|232:129,1,75.9999999999999,2|0,3:2|0:2,0:2:0:0:
313,146,34715,1,10,0:2:0:0:
313,146,34790,1,2,0:2:0:0:
313,146,34865,1,2,0:2:0:0:
385,101,35015,2,0,B|422:91|422:91|474:110,1,75.9999999999999,2|0,0:2|3:2,0:2:0:0:
326,266,35315,2,0,B|289:276|289:276|237:257,1,75.9999999999999,10|0,0:2|0:2,0:2:0:0:
294,182,35615,5,6,3:2:0:0:
324,356,35765,1,2,0:2:0:0:
150,297,35915,1,10,0:2:0:0:
429,237,36065,1,2,0:2:0:0:
420,271,36140,1,2,0:2:0:0:
415,306,36215,1,2,0:2:0:0:
498,373,36365,5,2,3:2:0:0:
446,152,36515,1,10,0:2:0:0:
311,332,36665,1,0,0:2:0:0:
172,113,36815,6,0,B|177:95|198:79|198:79|256:144|196:210,1,177.840000678406,6|8,3:2|0:2,0:2:0:0:
151,242,37190,1,8,2:0:0:0:
138,248,37265,1,6,3:2:0:0:
139,249,37715,5,0,1:2:0:0:
97,233,37790,1,0,1:2:0:0:
54,239,37865,1,0,1:2:0:0:
18,265,37940,1,0,1:2:0:0:
0,305,38015,5,6,3:2:0:0:
78,142,38165,1,2,3:2:0:0:
182,361,38315,1,10,0:2:0:0:
253,308,38465,1,0,3:2:0:0:
253,308,38540,1,0,3:2:0:0:
253,308,38615,5,14,0:2:0:0:
424,142,38765,1,0,3:2:0:0:
327,370,38915,2,0,P|335:312|344:268,1,88.9200003392028,10|0,0:2|0:2,0:2:0:0:
174,56,39215,6,0,P|184:99|189:131,1,57.0000021743775,6|0,3:2|0:2,0:2:0:0:
114,178,39515,2,0,P|104:135|99:103,1,57.0000021743775,2|0,0:2|0:2,0:2:0:0:
258,38,39815,2,0,B|253:76|253:79|253:89,3,28.5000010871887,2|2|2|2,0:2|0:2|0:2|0:2,0:2:0:0:
268,92,40115,2,0,P|301:83|351:99,1,85.5000032615662,2|0,0:2|0:2,0:2:0:0:
375,80,40415,6,0,P|408:117|516:93,1,152,6|8,3:2|0:2,0:2:0:0:
386,212,40865,2,0,L|254:225,1,114.000004348755,2|0,0:2|3:2,0:2:0:0:
172,280,41315,2,0,P|214:293|249:288,1,57.0000021743775,10|0,0:2|0:2,0:2:0:0:
158,192,41615,5,2,3:2:0:0:
94,334,41765,1,0,3:2:0:0:
158,192,41915,1,10,0:2:0:0:
73,241,42065,2,0,L|1:246,1,57.0000021743775,2|0,0:2|0:2,0:2:0:0:
120,105,42365,1,0,3:2:0:0:
177,187,42515,2,0,P|222:193|254:177,1,57.0000021743775,10|0,0:2|0:2,0:2:0:0:
355,117,42815,6,0,P|404:100|473:138,1,114.000004348755,2|8,3:2|0:2,0:2:0:0:
419,299,43265,2,0,L|402:170,1,114.000004348755,2|0,0:2|3:2,0:2:0:0:
330,116,43715,2,0,L|321:196,1,57.0000021743775,10|0,0:2|0:2,0:2:0:0:
227,267,44015,5,2,3:2:0:0:
153,219,44165,1,0,3:2:0:0:
83,273,44315,1,10,0:2:0:0:
149,332,44465,2,0,P|152:271|153:210,1,114.000004348755,2|0,0:2|3:2,0:2:0:0:
139,68,44915,2,0,B|108:52|108:52|121:109,1,85.5000032615662,10|0,0:2|0:2,0:2:0:0:
136,116,45215,6,0,B|183:135|183:135|268:114,1,114.000004348755,2|8,3:2|0:2,0:2:0:0:
408,172,45665,2,0,P|351:165|352:96,1,114.000004348755,2|0,0:2|3:2,0:2:0:0:
495,145,46115,2,0,P|486:189|484:226,1,57.0000021743775,10|0,0:2|0:2,0:2:0:0:
504,334,46415,5,2,3:2:0:0:
410,247,46565,1,0,3:2:0:0:
504,334,46715,1,10,0:2:0:0:
432,383,46865,2,0,P|386:366|313:385,1,114.000004348755,2|0,0:2|3:2,0:2:0:0:
209,310,47315,2,0,P|260:320|287:313,1,57.0000021743775,10|0,0:2|0:2,0:2:0:0:
162,234,47615,6,0,P|131:267|138:355,1,114.000004348755,2|8,3:2|0:2,0:2:0:0:
209,310,48065,1,2,0:2:0:0:
29,150,48365,1,2,3:2:0:0:
103,105,48515,2,0,L|111:162,1,57.0000021743775,10|0,0:2|0:2,0:2:0:0:
36,30,48815,5,2,3:2:0:0:
187,81,48965,1,0,3:2:0:0:
187,81,49115,2,0,L|258:67,1,57.0000021743775,10|0,0:2|0:2,0:2:0:0:
379,93,49415,2,0,L|308:107,1,57.0000021743775,2|0,3:2|3:2,0:2:0:0:
275,184,49715,1,8,0:2:0:0:
499,300,50015,5,0,3:2:0:0:
462,279,50090,1,0,3:2:0:0:
420,281,50165,1,0,3:2:0:0:
385,304,50240,1,0,3:2:0:0:
367,343,50315,6,0,P|269:331|221:328,1,123.879999905487,14|0,2:2|0:2,0:2:0:0:
91,367,50765,1,2,3:2:0:0:
161,319,50915,2,0,P|174:371|178:395,1,61.9399999527434,10|0,0:2|0:2,0:2:0:0:
135,227,51215,5,2,3:2:0:0:
226,246,51365,1,0,3:2:0:0:
122,236,51515,1,8,0:2:0:0:
234,160,51665,2,0,P|227:221|226:242,1,61.9399999527434,2|0,0:2|0:2,0:2:0:0:
312,199,51965,1,2,3:2:0:0:
144,84,52115,2,0,P|151:145|152:166,1,61.9399999527434,10|0,0:2|0:2,0:2:0:0:
90,18,52415,6,0,P|140:2|218:45,1,123.879999905487,2|8,3:2|0:2,0:2:0:0:
151,145,52865,2,0,B|102:155|102:155|76:143|76:143|31:152,1,123.879999905487,2|0,0:2|3:2,0:2:0:0:
226,221,53315,2,0,L|306:231,1,61.9399999527434,10|0,0:2|0:2,0:2:0:0:
168,285,53615,5,2,3:2:0:0:
244,146,53765,1,0,3:2:0:0:
336,287,53915,2,0,P|374:293|412:275,1,61.9399999527434,10|0,0:2|0:2,0:2:0:0:
448,175,54215,5,2,3:2:0:0:
366,204,54365,1,0,3:2:0:0:
475,334,54515,2,0,P|476:285|477:260,1,61.9399999527434,10|0,0:2|0:2,0:2:0:0:
377,78,54815,6,0,P|391:128|399:154,1,61.9399999527434,2|0,3:2|0:2,0:2:0:0:
245,63,55115,2,0,P|282:99|302:117,1,61.9399999527434,10|0,0:2|0:2,0:2:0:0:
123,116,55415,2,0,P|173:128|199:134,1,61.9399999527434,2|0,0:2|3:2,0:2:0:0:
43,222,55715,2,0,P|93:208|118:200,1,61.9399999527434,10|0,0:2|0:2,0:2:0:0:
98,363,56015,5,2,3:2:0:0:
160,289,56165,1,0,3:2:0:0:
90,347,56315,2,0,P|59:350|35:331,1,61.9399999527434,10|0,0:2|0:2,0:2:0:0:
153,194,56540,1,2,0:0:0:0:
165,201,56615,2,0,L|160:262,1,61.9399999527434,2|0,0:2|3:2,0:2:0:0:
268,326,56915,2,0,B|300:306|300:306|321:332|375:329,1,92.9099999291152,10|0,0:2|0:2,0:2:0:0:
393,380,57215,6,0,L|370:255,1,123.879999905487,2|8,3:2|0:2,0:2:0:0:
392,161,57665,2,0,P|395:122|486:107,1,123.879999905487,2|0,0:2|3:2,0:2:0:0:
355,243,58115,2,0,P|311:226|271:222,1,61.9399999527434,10|0,0:2|0:2,0:2:0:0:
125,270,58415,5,0,3:2:0:0:
206,317,58565,1,0,3:2:0:0:
203,218,58715,1,8,0:2:0:0:
101,356,58865,5,0,3:2:0:0:
101,356,58940,1,0,3:2:0:0:
101,356,59015,1,0,3:2:0:0:
175,120,59165,5,0,3:2:0:0:
175,120,59240,1,0,3:2:0:0:
175,120,59315,1,8,0:2:0:0:
140,104,59390,1,8,0:2:0:0:
101,107,59465,1,8,0:2:0:0:
69,128,59540,1,8,0:2:0:0:
52,162,59615,5,6,3:2:0:0:
459,221,60065,5,6,3:2:0:0:
276,49,60515,5,6,3:2:0:0:
237,302,60815,6,0,P|241:334|245:369,1,56.9999999999999,6|0,3:2|0:2,0:2:0:0:
262,366,61115,6,0,P|263:317|273:220,1,129.200002464294,10|0,0:2|0:2,0:2:0:0:
349,135,61565,1,0,3:2:0:0:
283,54,61715,2,0,L|199:47,1,64.6000012321472,10|0,0:2|0:2,0:2:0:0:
363,132,62015,5,2,3:2:0:0:
295,32,62165,1,2,3:2:0:0:
210,144,62315,1,10,0:2:0:0:
149,90,62465,2,0,P|103:79|65:95,1,64.6000012321472,2|0,0:2|0:2,0:2:0:0:
19,260,62765,5,2,3:2:0:0:
90,312,62915,1,10,0:2:0:0:
100,222,63065,2,0,L|106:146,1,64.6000012321472,2|0,0:2|3:2,0:2:0:0:
18,270,63365,5,2,0:2:0:0:
110,326,63515,1,10,0:2:0:0:
203,274,63665,2,0,P|252:259|282:268,1,64.6000012321472,2|0,0:2|0:2,0:2:0:0:
472,331,63965,5,2,3:2:0:0:
398,235,64115,2,0,L|384:304,1,64.6000012321472,10|8,0:2|0:2,0:2:0:0:
382,324,64340,1,8,0:2:0:0:
382,324,64415,5,6,3:2:0:0:
486,160,64615,1,0,3:2:0:0:
289,140,64815,1,8,0:2:0:0:
376,213,65015,1,2,3:2:0:0:
309,53,65215,1,0,3:2:0:0:
202,175,65415,1,8,0:2:0:0:
60,48,65615,6,0,L|69:128,1,75.9999999999999,6|2,3:2|0:2,0:2:0:0:
192,262,66015,2,0,L|184:187,1,75.9999999999999,10|0,0:2|3:2,0:2:0:0:
100,235,66415,1,2,3:2:0:0:
276,207,66615,1,8,2:2:0:0:
276,207,66715,1,8,2:2:0:0:
276,207,66815,6,0,B|313:216|313:216|358:198,1,75.9999999999999,6|0,3:2|3:2,0:2:0:0:
305,124,67215,1,10,2:2:0:0:
374,312,67415,6,0,P|419:297|457:303,1,75.9999999999999,6|0,3:2|3:2,0:2:0:0:
469,279,67715,1,0,3:2:0:0:
479,250,67815,1,0,3:2:0:0:
475,219,67915,1,0,3:2:0:0:
461,191,68015,6,0,L|466:123,1,47.4999999999999,14|0,0:2|3:2,0:2:0:0:
371,86,68215,2,0,L|366:154,1,47.4999999999999,0|0,3:2|3:2,0:2:0:0:
286,199,68415,1,2,3:2:0:0:
286,199,68465,1,2,3:2:0:0:
286,199,68515,1,2,3:2:0:0:
263,223,68615,6,0,B|236:207|209:208|209:208|191:236|193:260,2,110.833333333333,14|2|2,2:2|3:2|3:2,0:2:0:0:
349,298,69215,5,6,3:2:0:0:
405,192,69665,1,6,3:2:0:0:
470,289,70115,1,6,3:2:0:0:
179,206,70565,5,6,3:2:0:0:
123,100,71015,1,6,3:2:0:0:
58,197,71465,1,6,3:2:0:0:
306,105,71915,5,6,3:2:0:0:
251,38,72365,1,6,3:2:0:0:
224,116,72665,1,8,0:2:0:0:
224,116,72740,1,8,0:2:0:0:
224,116,72815,6,0,P|240:164|217:227,1,92.3399994011763,6|0,3:2|0:2,0:2:0:0:
93,357,73115,2,0,P|134:320|266:335,1,184.679998802353,14|0,2:2|3:2,0:2:0:0:
431,360,73565,1,0,3:2:0:0:
406,356,73640,1,0,3:2:0:0:
382,345,73715,1,8,0:2:0:0:
363,329,73790,1,8,0:2:0:0:
348,309,73865,1,8,0:2:0:0:
339,285,73940,1,8,0:2:0:0:
336,260,74015,6,0,L|346:168,1,75.9999999999999,6|0,3:2|0:2,0:2:0:0:
441,160,74315,2,0,L|431:252,1,75.9999999999999,10|0,0:2|0:2,0:2:0:0:
257,214,74615,1,2,3:2:0:0:
344,185,74765,1,2,0:2:0:0:
260,304,74915,2,0,P|215:293|178:298,1,75.9999999999999,10|0,0:2|0:2,0:2:0:0:
29,168,75215,6,0,P|80:201|178:164,2,152,6|8|0,3:2|0:2|3:2,0:2:0:0:
102,115,75965,1,2,0:2:0:0:
112,297,76115,1,10,0:2:0:0:
102,115,76265,1,2,0:2:0:0:
294,212,76415,5,4,3:2:0:0:
315,198,76490,1,0,3:2:0:0:
339,189,76565,1,0,3:2:0:0:
364,188,76640,1,0,3:2:0:0:
389,192,76715,1,4,3:2:0:0:
411,203,76790,1,0,3:2:0:0:
431,220,76865,1,0,3:2:0:0:
445,240,76940,1,0,3:2:0:0:
454,264,77015,1,4,3:2:0:0:
456,289,77090,1,0,3:2:0:0:
452,314,77165,1,0,3:2:0:0:
442,337,77240,1,0,3:2:0:0:
426,357,77315,5,4,3:2:0:0:
355,327,77465,1,0,3:2:0:0:
289,370,78815,5,6,3:2:0:0:
223,14,88115,5,0,3:2:0:0:
135,174,88415,6,0,B|92:191|92:191|46:181,1,92.3399994011763,6|0,3:2|0:2,0:2:0:0:
233,272,88715,2,0,B|276:255|276:255|322:265,1,92.3399994011763,10|2,0:2|0:2,0:2:0:0:
344,271,88940,1,2,0:2:0:0:
344,271,89015,1,2,3:2:0:0:
447,158,89165,2,0,P|438:209|433:259,1,92.3399994011763,2|8,0:2|0:2,0:2:0:0:
318,47,89465,6,0,P|334:114|339:162,1,92.3399994011763,2|0,0:2|3:2,0:2:0:0:
166,334,89765,2,0,P|150:267|145:219,1,92.3399994011763,2|10,0:2|0:2,0:2:0:0:
146,216,89990,1,2,0:2:0:0:
146,216,90065,1,2,0:2:0:0:
206,140,90215,1,2,3:2:0:0:
132,80,90365,1,0,0:2:0:0:
234,274,90515,2,0,P|286:286|333:261,1,92.3399994011763,10|0,0:2|0:2,0:2:0:0:
19,339,90815,6,0,P|81:327|128:357,1,92.3399994011763,2|0,3:2|0:2,0:2:0:0:
135,350,91040,1,2,0:2:0:0:
136,350,91115,2,0,L|124:244,1,92.3399994011763,10|0,0:2|0:2,0:2:0:0:
103,237,91340,1,2,0:2:0:0:
104,237,91415,2,0,L|92:131,1,92.3399994011763,2|0,3:2|0:2,0:2:0:0:
147,62,91715,1,10,0:2:0:0:
147,62,91790,1,2,0:2:0:0:
147,62,91865,1,2,0:2:0:0:
53,60,92015,5,2,3:2:0:0:
172,139,92165,1,0,0:2:0:0:
242,37,92315,2,0,P|297:21|347:43,1,92.3399994011763,10|0,0:2|0:2,0:2:0:0:
489,131,92615,2,0,P|444:140|402:125,1,92.3399994011763,2|0,3:2|0:2,0:2:0:0:
267,228,92915,2,0,L|377:210,1,92.3399994011763,8|0,0:2|0:2,0:2:0:0:
276,335,93215,5,6,3:2:0:0:
217,140,93365,1,0,3:2:0:0:
74,307,93515,1,10,0:2:0:0:
74,307,93590,1,8,0:2:0:0:
74,307,93665,1,8,0:2:0:0:
187,253,93815,5,2,3:2:0:0:
17,200,93965,1,10,0:2:0:0:
49,209,94040,1,8,0:2:0:0:
83,203,94115,1,8,0:2:0:0:
110,182,94190,1,8,0:2:0:0:
124,150,94265,1,8,0:2:0:0:
65,69,94415,5,6,3:2:0:0:
154,310,94565,1,0,3:2:0:0:
146,330,94640,1,0,3:2:0:0:
140,351,94715,1,8,0:2:0:0:
273,260,94865,1,8,0:2:0:0:
281,280,94940,1,8,0:2:0:0:
287,301,95015,5,6,3:2:0:0:
198,201,95165,1,2,3:2:0:0:
369,240,95315,1,10,0:2:0:0:
258,384,95465,1,2,3:2:0:0:
325,126,95615,6,0,L|311:57,1,46.1699997005882,6|0,3:2|0:2,0:2:0:0:
398,176,95765,2,0,L|412:107,1,46.1699997005882,2|0,3:2|0:2,0:2:0:0:
269,189,95915,2,0,L|232:128,1,46.1699997005882,10|0,0:2|0:2,0:2:0:0:
452,246,96065,2,0,L|488:185,1,46.1699997005882,2|0,3:2|0:2,0:2:0:0:
340,343,96215,5,2,3:2:0:0:
344,302,96290,1,2,0:2:0:0:
349,262,96365,1,2,0:2:0:0:
354,222,96440,1,2,0:2:0:0:
358,182,96515,1,10,0:2:0:0:
362,142,96590,1,2,0:2:0:0:
367,102,96665,1,2,0:2:0:0:
371,61,96740,1,2,0:2:0:0:
376,22,96815,6,0,B|466:43|409:92|484:128,1,152,2|0,0:2|0:2,0:2:0:0:
33,205,97715,5,2,3:2:0:0:
282,382,98015,6,0,B|349:352|349:352|446:379,1,142.5,6|0,3:2|0:2,0:2:0:0:
438,348,98315,1,10,0:2:0:0:
327,179,98465,2,0,L|347:251,1,47.4999999999999,2|0,0:2|0:2,0:2:0:0:
270,287,98615,1,2,3:2:0:0:
432,220,98765,1,2,3:2:0:0:
432,220,98815,1,2,0:2:0:0:
432,220,98865,1,2,0:2:0:0:
432,220,98915,2,0,P|434:172|438:125,1,94.9999999999999,8|0,0:2|0:2,0:2:0:0:
480,297,99215,5,0,3:2:0:0:
351,169,99365,1,0,3:2:0:0:
304,349,99515,5,10,0:2:0:0:
432,220,99665,1,2,0:2:0:0:
238,163,99815,1,0,3:2:0:0:
317,261,99965,2,0,P|312:226|315:190,1,47.4999999999999,2|0,3:2|0:2,0:2:0:0:
286,69,100115,1,10,0:2:0:0:
135,192,100265,1,0,0:2:0:0:
171,53,100415,5,2,3:2:0:0:
205,288,100565,1,2,3:2:0:0:
19,197,100715,1,10,0:2:0:0:
306,142,100865,2,0,P|263:136|238:132,1,47.4999999999999,2|0,0:2|0:2,0:2:0:0:
236,215,101015,1,2,3:2:0:0:
300,56,101165,1,2,3:2:0:0:
320,51,101215,1,2,0:2:0:0:
341,53,101265,1,2,0:2:0:0:
364,61,101315,2,0,P|384:112|386:173,1,94.9999999999999,10|0,0:2|0:2,0:2:0:0:
498,111,101615,6,0,B|479:286,1,142.5,2|0,3:2|0:2,0:2:0:0:
499,282,101915,1,10,0:2:0:0:
384,371,102065,1,2,0:2:0:0:
384,371,102140,1,2,0:2:0:0:
384,371,102215,2,0,P|326:348|285:358,1,94.9999999999999,2|0,0:2|3:2,0:2:0:0:
93,309,102515,2,10,P|140:313|182:292,1,94.9999999999999,10|10,0:2|0:2,0:2:0:0:
198,266,102740,1,8,0:2:0:0:
198,266,102815,6,0,L|187:166,1,94.9999999999999,2|0,3:2|3:2,0:2:0:0:
313,36,103115,2,0,L|324:136,1,94.9999999999999,10|2,0:2|0:2,0:2:0:0:
348,274,103415,5,0,3:2:0:0:
230,123,103565,1,0,3:2:0:0:
416,90,103715,1,10,2:2:0:0:
329,162,103865,1,2,3:2:0:0:
478,347,104015,6,0,P|488:206|493:155,1,190,2|8,3:2|0:2,0:2:0:0:
316,41,104465,2,0,B|343:182|345:212|353:245,1,190,2|0,0:2|3:2,0:2:0:0:
226,331,104915,1,10,0:2:0:0:
183,310,104990,1,2,0:2:0:0:
136,310,105065,1,2,0:2:0:0:
94,332,105140,1,2,0:2:0:0:
67,371,105215,5,2,3:2:0:0:
131,220,105365,1,0,3:2:0:0:
131,220,105440,1,0,3:2:0:0:
131,220,105515,1,10,0:2:0:0:
65,156,105665,2,0,L|7:163,1,47.4999999999999,10|0,0:2|0:2,0:2:0:0:
116,78,105815,5,2,3:2:0:0:
26,282,105965,1,2,3:2:0:0:
229,238,106115,2,0,B|275:227|275:227|331:243,1,94.9999999999999,10|2,0:2|0:2,0:2:0:0:
352,252,106340,1,2,0:2:0:0:
352,252,106415,6,0,P|363:201|341:129,1,94.9999999999999,6|0,3:2|0:2,0:2:0:0:
296,26,106640,2,0,P|285:77|307:149,1,94.9999999999999,0|0,3:2|0:2,0:2:0:0:
356,159,106865,2,0,B|401:139|401:139|462:153,1,94.9999999999999,0|0,3:2|0:2,0:2:0:0:
291,118,107090,2,0,B|270:116|244:128|244:128|224:111|184:105,1,94.9999999999999,0|0,3:2|0:2,0:2:0:0:
91,179,107315,2,0,B|139:164|139:164|162:188|202:187,1,94.9999999999999,0|0,3:2|0:2,0:2:0:0:
39,93,107615,5,0,3:2:0:0:
7,128,107690,1,0,3:2:0:0:
0,173,107765,1,0,3:2:0:0:
5,219,107840,1,0,3:2:0:0:
34,256,107915,6,0,B|64:265|88:257|88:257|120:278|120:278|174:255|225:287,1,190,14|0,0:2|0:2,0:2:0:0:
320,339,108365,1,2,3:2:0:0:
320,339,108415,1,2,0:2:0:0:
320,339,108465,1,2,0:2:0:0:
320,339,108515,2,0,P|329:287|350:235,1,94.9999999999999,10|0,0:2|0:2,0:2:0:0:
429,311,108815,5,0,3:2:0:0:
265,185,108965,1,0,3:2:0:0:
413,80,109115,2,0,P|427:127|402:180,1,94.9999999999999,10|0,0:2|0:2,0:2:0:0:
307,46,109415,5,2,0:2:0:0:
508,85,109565,1,0,3:2:0:0:
358,237,109715,1,10,0:2:0:0:
157,198,109865,1,0,0:2:0:0:
240,133,110015,5,2,3:2:0:0:
222,279,110165,1,2,3:2:0:0:
75,261,110315,1,10,2:2:0:0:
94,115,110465,2,0,L|80:60,1,47.4999999999999,2|0,3:2|0:2,0:2:0:0:
157,204,110615,6,0,P|153:246|137:321,1,94.9999999999999,2|0,0:2|3:2,0:2:0:0:
135,308,110815,1,2,0:2:0:0:
126,317,110865,1,2,0:2:0:0:
117,326,110915,2,0,P|163:305|255:368,1,142.5,10|0,0:2|0:2,0:2:0:0:
299,280,111215,6,0,P|352:305|459:216,1,190,0|8,3:2|0:2,0:2:0:0:
374,30,111665,2,0,B|363:89|363:89|387:127|387:127|361:244,1,190,2|0,0:2|3:2,0:2:0:0:
451,67,112115,1,10,0:2:0:0:
280,145,112265,1,8,0:2:0:0:
280,145,112340,1,8,0:2:0:0:
280,145,112415,6,0,P|225:164|179:141,1,94.9999999999999,6|0,3:2|0:2,0:2:0:0:
18,322,112715,2,0,L|140:302,1,94.9999999999999,10|0,0:2|0:2,0:2:0:0:
380,76,113015,2,0,B|349:85|349:85|319:58|286:63,1,94.9999999999999,10|0,0:2|0:2,0:2:0:0:
383,318,113315,2,0,B|421:348|421:348|427:291,1,94.9999999999999,10|2,0:2|0:2,0:2:0:0:
119,33,113615,6,0,P|83:71|94:142,1,94.9999999999999,6|0,3:2|0:2,0:2:0:0:
307,328,113915,2,0,B|298:309|313:277|313:277|292:228,1,94.9999999999999,10|0,0:2|0:2,0:2:0:0:
417,56,114215,2,0,P|461:46|473:107,1,94.9999999999999,10|0,0:2|0:2,0:2:0:0:
209,196,114515,1,0,3:2:0:0:
239,159,114590,1,2,0:2:0:0:
282,142,114665,1,2,0:2:0:0:
329,147,114740,1,2,0:2:0:0:
368,174,114815,5,6,3:2:0:0:
302,325,114965,1,2,0:2:0:0:
302,325,115040,1,2,0:2:0:0:
302,325,115115,1,8,0:2:0:0:
290,231,115265,1,2,0:2:0:0:
203,377,115415,5,2,3:2:0:0:
401,284,115565,1,2,0:2:0:0:
223,167,115715,1,10,0:2:0:0:
275,297,115865,2,0,P|283:267|298:220,1,47.4999999999999,2|0,3:2|0:2,0:2:0:0:
414,55,116015,5,2,1:2:0:0:
445,90,116090,1,0,1:2:0:0:
445,136,116165,1,0,1:2:0:0:
414,170,116240,1,0,1:2:0:0:
367,175,116315,5,2,1:2:0:0:
327,150,116390,1,0,1:2:0:0:
281,144,116465,1,2,1:2:0:0:
235,157,116540,1,0,1:2:0:0:
199,187,116615,1,2,1:2:0:0:
162,216,116690,1,0,1:2:0:0:
116,223,116765,1,2,1:2:0:0:
71,207,116840,1,0,1:2:0:0:
40,172,116915,5,2,1:2:0:0:
122,11,117065,1,8,0:2:0:0:
125,68,117140,1,8,0:2:0:0:
129,125,117215,5,6,3:2:0:0:
404,115,120965,5,4,3:2:0:0:
369,332,121115,1,4,3:2:0:0:
200,192,121265,1,4,3:2:0:0:
345,218,121415,5,6,3:2:0:0:
165,331,121565,1,6,3:2:0:0:
162,107,121715,1,6,3:2:0:0:
229,213,121865,1,6,3:2:0:0:
255,31,122015,5,6,3:2:0:0:
94,201,122165,1,2,3:2:0:0:
331,262,122315,1,2,3:2:0:0:
331,262,122390,1,2,3:2:0:0:
331,262,122465,1,2,3:2:0:0:
420,196,122615,5,6,3:2:0:0:
150,302,122765,1,0,3:2:0:0:
150,302,122840,1,0,3:2:0:0:
150,302,122915,1,0,3:2:0:0:
55,333,123065,1,0,3:2:0:0:
368,343,129215,6,0,B|359:307|359:307|376:262,1,75.9999999999999,2|0,0:2|0:2,0:2:0:0:
460,272,129665,2,0,B|469:308|469:308|452:353,1,75.9999999999999,2|0,0:2|0:2,0:2:0:0:
368,343,130115,2,0,P|331:333|320:330,1,38,2|0,0:2|0:2,0:2:0:0:
233,302,130415,6,0,P|211:318|152:321,1,75.9999999999999,2|0,0:2|0:2,0:2:0:0:
90,364,130865,2,0,P|62:366|10:339,1,75.9999999999999,2|0,2:2|2:2,2:2:0:0:
65,248,131315,2,0,L|70:295,1,38,2|0,0:2|0:2,0:2:0:0:
151,144,131615,6,0,L|146:220,1,75.9999999999999,2|2,0:2|0:2,0:2:0:0:
70,172,132065,2,0,L|64:247,1,75.9999999999999,2|2,0:2|0:2,0:2:0:0:
230,181,132515,2,0,L|241:228,1,38,2|0,0:2|0:2,0:2:0:0:
313,36,132815,5,6,3:2:0:0:
161,104,133040,1,0,3:2:0:0:
323,138,133265,1,0,3:2:0:0:
212,15,133490,1,0,3:2:0:0:
230,181,133715,1,8,2:2:0:0:
249,95,133865,1,0,3:2:0:0:
285,353,134015,5,8,0:2:0:0:
225,347,134090,1,8,0:2:0:0:
166,342,134165,1,8,0:2:0:0:
107,337,134240,1,8,0:2:0:0:
48,332,134315,1,14,0:2:0:0:
26,350,134615,6,0,P|19:300|5:253,1,94.9999999999999,2|2,0:2|3:2,0:2:0:0:
11,245,134815,1,2,0:2:0:0:
17,233,134865,1,2,0:2:0:0:
21,221,134915,2,0,P|23:172|38:101,1,94.9999999999999,10|0,0:2|0:2,0:2:0:0:
119,11,135215,5,0,3:2:0:0:
202,53,135365,1,0,3:2:0:0:
157,239,135515,5,10,0:2:0:0:
245,144,135665,1,0,0:2:0:0:
393,167,135815,1,2,0:2:0:0:
252,347,135965,5,2,3:2:0:0:
266,152,136115,1,10,0:2:0:0:
454,257,136265,1,0,0:2:0:0:
334,278,136415,5,2,3:2:0:0:
397,75,136565,1,2,3:2:0:0:
450,157,136715,1,10,0:2:0:0:
312,291,136865,1,0,0:2:0:0:
363,371,137015,1,2,0:2:0:0:
293,158,137165,1,2,3:2:0:0:
289,145,137215,1,2,2:2:0:0:
285,132,137265,1,2,2:2:0:0:
281,119,137315,6,0,B|217:112|217:112|182:151|182:151|89:141,1,190,10|0,0:2|3:2,0:2:0:0:
146,54,137765,1,0,0:2:0:0:
203,249,137915,1,10,0:2:0:0:
128,34,138065,6,0,P|67:14|0:140,1,190,2|0,0:2|3:2,0:2:0:0:
202,351,138515,2,0,B|211:306|211:306|159:233,1,94.9999999999999,10|2,0:2|0:2,0:2:0:0:
89,284,138740,1,8,2:2:0:0:
89,284,138815,6,0,B|79:328|79:328|131:401,1,94.9999999999999,6|0,3:2|0:2,0:2:0:0:
293,196,139115,2,0,L|299:84,1,94.9999999999999,10|0,0:2|0:2,0:2:0:0:
385,340,139415,2,0,P|450:324|493:342,1,94.9999999999999,2|0,3:2|0:2,0:2:0:0:
304,379,139715,1,10,0:2:0:0:
384,238,139865,1,0,0:2:0:0:
189,222,140015,6,0,B|148:232|148:232|127:269|89:272,1,94.9999999999999,6|0,3:2|0:2,0:2:0:0:
271,88,140315,2,0,B|259:42|259:42|231:81,1,94.9999999999999,10|0,0:2|0:2,0:2:0:0:
282,354,140615,5,2,3:2:0:0:
402,177,140765,2,0,P|404:208|399:242,1,47.4999999999999,0|0,3:2|0:2,0:2:0:0:
334,267,140915,1,10,0:2:0:0:
298,236,140990,1,10,2:2:0:0:
278,193,141065,1,10,0:2:0:0:
278,146,141140,1,10,2:2:0:0:
298,103,141215,5,6,3:2:0:0:
469,153,141365,1,2,0:2:0:0:
451,159,141440,1,2,0:2:0:0:
433,165,141515,1,10,0:2:0:0:
401,244,141665,1,2,2:2:0:0:
210,288,141815,5,2,3:2:0:0:
111,252,141965,1,2,0:2:0:0:
46,331,142115,1,10,0:2:0:0:
138,368,142265,2,2,P|139:342|140:301,1,47.4999999999999,2|2,0:2|0:2,0:2:0:0:
113,109,142415,5,2,1:2:0:0:
150,81,142490,1,0,1:2:0:0:
197,77,142565,1,2,1:2:0:0:
239,98,142640,1,0,1:2:0:0:
263,139,142715,1,2,1:2:0:0:
291,176,142790,1,0,1:2:0:0:
334,194,142865,1,0,1:2:0:0:
381,188,142940,1,0,1:2:0:0:
417,158,143015,5,2,1:2:0:0:
419,134,143090,1,0,1:2:0:0:
421,111,143165,1,2,1:2:0:0:
423,87,143240,1,0,1:2:0:0:
426,64,143315,5,2,1:2:0:0:
503,110,143465,1,2,1:2:0:0:
378,355,143615,5,6,3:2:0:0:
504,326,143765,1,6,3:2:0:0:
257,302,144065,5,6,3:2:0:0:
484,342,144215,1,6,3:2:0:0:
151,376,144515,5,6,3:2:0:0:
504,326,144665,1,6,3:2:0:0:
61,296,144965,5,6,3:2:0:0:
484,342,145115,1,6,3:2:0:0:
281,27,145415,5,6,3:2:0:0:
241,271,145565,1,6,3:2:0:0:
249,125,145715,2,0,L|264:170,1,38,0|0,0:2|0:2,0:2:0:0:
353,86,146015,5,6,3:2:0:0:
152,142,146165,1,6,3:2:0:0:
430,170,146465,5,6,3:2:0:0:
125,126,146615,1,6,3:2:0:0:
475,65,146915,5,6,3:2:0:0:
100,111,147065,1,6,3:2:0:0:
492,311,147365,5,6,3:2:0:0:
365,115,147515,1,6,3:2:0:0:
365,115,147590,1,0,3:2:0:0:
365,115,147665,1,0,3:2:0:0:
193,324,147815,5,6,3:2:0:0:
493,211,147965,1,6,3:2:0:0:
276,26,148115,1,6,3:2:0:0:
282,73,148190,1,0,3:2:0:0:
289,120,148265,1,0,3:2:0:0:
296,167,148340,1,0,3:2:0:0:
303,214,148415,6,0,B|215:227|267:286|192:325,1,164.160004007812,0|0,3:2|0:2,0:2:0:0:
