osu file format v14

[General]
AudioFilename: audio.mp3
AudioLeadIn: 0
PreviewTime: 53395
Countdown: 1
SampleSet: Soft
StackLeniency: 0.2
Mode: 0
LetterboxInBreaks: 0
WidescreenStoryboard: 0

[Editor]
Bookmarks: 406,2818,12466,17290,26938,35380,43823,53471,63119,72767,82416,93270,102918,112566,119501,119802,123421
DistanceSpacing: 3
BeatDivisor: 4
GridSize: 4
TimelineZoom: 5.499996

[Metadata]
Title:QSHELL -Kyoshoku no Sheruru-
TitleUnicode:QSHELL -拒色のシェルル-
Artist:Se-U-Ra
ArtistUnicode:Se-U-Ra
Creator:rui
Version:Extra
Source:bms
Tags:G2R2018 Noise Under Artcore
BeatmapID:1824332
BeatmapSetID:872699

[Difficulty]
HPDrainRate:6
CircleSize:4.5
OverallDifficulty:8
ApproachRate:9.5
SliderMultiplier:1.6
SliderTickRate:1

[Events]
//Background and Video events
Video,0,"videp.mp4"
0,0,"71297656_p0_master1200.jpg",0,0
//Break Periods
//Storyboard Layer 0 (Background)
//Storyboard Layer 1 (Fail)
//Storyboard Layer 2 (Pass)
//Storyboard Layer 3 (Foreground)
//Storyboard Sound Samples

[TimingPoints]
406,301.507537688442,4,2,1,20,1,0
406,-166.666666666667,4,2,2,20,0,0
2818,-166.666666666667,4,2,2,30,0,0
4928,-166.666666666667,4,2,4,30,0,0
5003,-166.666666666667,4,2,2,30,0,0
7792,-166.666666666667,4,2,4,30,0,0
7868,-166.666666666667,4,2,2,30,0,0
8546,-166.666666666667,4,2,4,30,0,0
8622,-166.666666666667,4,2,2,30,0,0
9149,-166.666666666667,4,2,3,30,0,0
9601,-166.666666666667,4,2,2,30,0,0
10054,-166.666666666667,4,2,2,30,0,0
11863,-100,4,2,2,40,0,0
12164,-66.6666666666667,4,2,6,60,0,0
12466,-100,4,2,3,60,0,0
14878,-100,4,2,3,65,0,0
16235,-100,4,2,3,45,0,0
16385,-66.6666666666667,4,2,3,65,0,0
16687,-55.5555555555556,4,2,3,65,0,0
16988,-47.6190476190476,4,2,5,65,0,0
17290,-166.666666666667,4,2,2,50,0,0
26938,-125,4,2,1,50,0,0
27240,-125,4,2,4,50,0,0
27315,-125,4,2,1,50,0,0
28295,-125,4,2,4,50,0,0
28370,-125,4,2,1,50,0,0
30556,-125,4,2,3,60,0,0
31159,-100,4,2,4,60,0,0
33270,-100,4,2,3,55,0,0
33421,-100,4,2,1,55,0,0
33571,-100,4,2,3,55,0,0
33722,-100,4,2,1,55,0,0
33873,-100,4,2,3,55,0,0
34024,-100,4,2,1,55,0,0
34174,-100,4,2,3,55,0,0
34928,-100,4,2,1,50,0,0
35380,-100,4,2,3,65,0,0
43823,-100,4,2,1,30,0,0
44426,-100,4,2,1,40,0,0
45029,-100,4,2,1,30,0,0
45632,-100,4,2,4,40,0,0
45782,-100,4,2,1,40,0,0
46235,-100,4,2,1,30,0,0
46838,-100,4,2,1,40,0,0
47441,-100,4,2,1,30,0,0
48044,-100,4,2,1,40,0,0
48194,-100,4,2,4,40,0,0
48345,-100,4,2,1,40,0,0
48647,-100,4,2,1,30,0,0
48797,-100,4,2,4,30,0,0
48948,-100,4,2,1,30,0,0
49250,-100,4,2,1,35,0,0
49853,-100,4,2,1,30,0,0
50456,-100,4,2,4,35,0,0
50607,-100,4,2,1,35,0,0
51059,-200,4,2,4,40,0,0
51863,-100,4,2,4,40,0,0
52265,-100,4,2,3,40,0,0
53169,-125,4,2,3,40,0,0
53471,-83.3333333333333,4,2,3,60,0,0
55280,-83.3333333333333,4,2,4,60,0,0
55431,-83.3333333333333,4,2,3,60,0,0
57843,-83.3333333333333,4,2,4,60,0,0
57993,-83.3333333333333,4,2,3,60,0,0
60104,-83.3333333333333,4,2,4,60,0,0
60255,-83.3333333333333,4,2,3,60,0,0
61762,-83.3333333333333,4,2,1,60,0,0
61913,-83.3333333333333,4,2,3,60,0,0
63119,-83.3333333333333,4,2,3,60,0,0
67340,-50,4,2,3,60,0,0
67642,-83.3333333333333,4,2,3,60,0,0
70355,-83.3333333333333,4,2,3,55,0,0
70657,-83.3333333333333,4,2,3,60,0,0
70958,-83.3333333333333,4,2,3,65,0,0
71260,-83.3333333333333,4,2,3,70,0,0
72164,-50,4,2,3,60,0,0
72767,-100,4,2,1,30,0,0
76385,-500,4,2,6,30,0,0
77591,-100,4,2,1,30,0,0
81210,-250,4,2,3,30,0,0
82416,-100,4,2,3,50,0,0
84828,-100,4,2,3,50,0,0
86034,-500,4,2,3,50,0,0
86637,-200,4,2,3,50,0,0
87240,-100,4,2,3,55,0,0
90255,-62.5,4,2,3,40,0,0
90330,-62.5,4,2,3,40,0,0
90405,-71.4285714285714,4,2,3,40,0,0
90481,-83.3333333333333,4,2,3,40,0,0
90556,-100,4,2,3,40,0,0
90632,-125,4,2,3,40,0,0
90707,-166.666666666667,4,2,3,40,0,0
90782,-250,4,2,3,40,0,0
90858,-142.857142857143,4,2,3,40,0,0
92064,-100,4,2,1,40,0,0
93270,-50,4,2,1,65,0,1
93873,-83.3333333333333,4,2,3,65,0,0
95079,-62.5,4,2,3,65,0,0
95682,-47.6190476190476,4,2,3,65,0,1
96285,-83.3333333333333,4,2,3,65,0,0
96888,-62.5,4,2,3,65,0,0
98094,-47.6190476190476,4,2,3,65,0,1
98697,-62.5,4,2,3,65,0,0
99903,-52.6315789473684,4,2,3,65,0,0
100506,-47.6190476190476,4,2,3,65,0,0
101109,-83.3333333333333,4,2,3,65,0,0
101712,-47.6190476190476,4,2,3,65,0,0
102918,-62.5,4,2,3,65,0,1
103521,-71.4285714285714,4,2,3,65,0,1
105330,-62.5,4,2,3,65,0,1
105933,-71.4285714285714,4,2,3,65,0,1
106536,-71.4285714285714,4,2,3,70,0,1
107742,-62.5,4,2,3,65,0,1
108345,-71.4285714285714,4,2,3,65,0,1
111963,-100,4,2,3,45,0,0
112566,-100,4,2,3,30,0,0
119802,-200,4,2,3,30,0,0

[Colours]
Combo1 : 255,255,128
Combo2 : 211,168,255
Combo3 : 113,0,56
Combo4 : 255,0,0

[HitObjects]
192,74,406,6,0,L|248:64,1,47.9999985351563,2|0,0:0|0:0,0:0:0:0:
396,52,858,2,0,L|348:60,1,47.9999985351563,2|0,0:0|0:0,0:0:0:0:
268,36,1159,2,0,L|315:27,1,47.9999985351563,2|0,0:0|0:0,0:0:0:0:
480,72,1612,5,2,0:0:0:0:
484,82,1687,1,2,0:0:0:0:
487,93,1762,1,2,0:0:0:0:
489,104,1838,1,2,0:0:0:0:
490,115,1913,1,2,0:0:0:0:
489,126,1988,1,2,0:0:0:0:
487,138,2064,1,2,0:0:0:0:
484,149,2139,1,2,0:0:0:0:
479,160,2215,2,0,B|477:200|503:214|499:256,1,95.9999970703126,2|0,0:0|0:0,0:0:0:0:
362,263,2818,6,0,L|172:292,1,191.999994140625,0|8,0:0|0:0,0:0:0:0:
35,60,4024,1,2,0:0:0:0:
130,64,4325,1,2,0:0:0:0:
127,80,4400,1,2,0:0:0:0:
123,96,4476,1,2,0:0:0:0:
211,177,4627,1,10,0:0:0:0:
225,168,4702,1,0,0:0:0:0:
239,159,4777,1,2,0:0:0:0:
254,151,4853,1,0,0:0:0:0:
308,176,4928,2,0,L|291:249,1,71.9999978027344,2|0,0:0|0:0,0:0:0:0:
210,286,5230,6,0,L|221:329,2,23.9999992675781,2|0|0,0:0|0:0|0:0,0:0:0:0:
327,101,5531,2,0,L|339:147,1,47.9999985351563,10|2,0:0|0:0,0:0:0:0:
396,332,5983,5,2,0:0:0:0:
210,286,6134,1,2,0:0:0:0:
210,286,6436,5,10,0:0:0:0:
440,196,6586,1,2,0:0:0:0:
440,196,6888,5,2,0:0:0:0:
176,112,7039,1,10,0:0:0:0:
344,288,7340,6,0,L|350:262,1,23.9999992675781,2|0,0:0|0:0,0:0:0:0:
432,256,7491,2,0,L|424:230,1,23.9999992675781,2|0,0:0|0:0,0:0:0:0:
350,160,7642,5,2,0:0:0:0:
250,308,7792,1,2,0:0:0:0:
248,140,7943,1,2,0:0:0:0:
258,164,8019,1,0,0:0:0:0:
270,186,8094,1,2,0:0:0:0:
379,320,8245,1,10,0:0:0:0:
202,237,8395,1,2,0:0:0:0:
311,88,8546,1,2,0:0:0:0:
287,75,8622,1,0,0:0:0:0:
263,63,8697,6,0,L|301:50,1,23.9999992675781,2|0,0:0|0:0,0:0:0:0:
467,5,8848,1,2,0:0:0:0:
456,23,8923,1,0,0:0:0:0:
444,41,8998,2,2,L|450:70,1,23.9999992675781,2|2,0:0|0:0,0:0:0:0:
351,201,9149,5,2,0:0:0:0:
328,192,9225,1,0,0:0:0:0:
293,224,9300,1,2,0:0:0:0:
270,233,9375,1,0,0:0:0:0:
236,267,9451,1,2,0:0:0:0:
213,258,9526,1,0,0:0:0:0:
172,233,9601,6,0,L|165:265,1,23.9999992675781,2|0,0:0|0:0,0:0:0:0:
136,61,9752,1,2,0:0:0:0:
136,61,9903,1,2,0:0:0:0:
0,210,10054,6,0,P|48:214|95:223,1,95.9999970703126,2|0,0:0|0:0,0:0:0:0:
237,60,10506,2,0,P|247:84|258:109,1,47.9999985351563,2|8,0:0|0:0,0:0:0:0:
387,304,10958,2,0,P|389:280|392:256,1,47.9999985351563,2|0,0:0|0:0,0:0:0:0:
236,59,11561,6,0,P|242:36|250:13,1,47.9999985351563,2|0,0:0|0:0,0:0:0:0:
304,39,11863,6,0,B|267:48|237:61|237:61|213:50|187:45,1,120,10|0,0:0|0:0,0:0:0:0:
130,6,12164,6,0,B|116:23|116:23|119:43|119:43|106:59|106:59|110:77|110:77|94:96|94:96|98:119|98:119|85:140|85:140|107:123,1,180.000006866455,0|0,0:1|0:0,0:0:0:0:
186,126,12466,6,0,B|197:165|197:165|188:199|188:199|205:240,1,120,4|0,0:1|0:0,0:0:0:0:
265,278,12767,2,0,L|275:239,1,40,8|0,0:0|0:0,0:0:0:0:
293,169,12918,1,0,0:0:0:0:
348,36,13069,1,0,0:0:0:0:
443,144,13220,1,2,0:0:0:0:
292,92,13370,2,0,P|250:83|202:76,1,80,8|0,0:0|0:0,0:0:0:0:
91,182,13672,6,0,P|150:168|208:157,1,120,2|0,0:0|0:0,0:0:0:0:
273,124,13973,2,0,P|313:137|358:155,1,80,8|0,0:0|0:0,0:0:0:0:
355,350,14275,2,0,P|326:318|296:280,1,80,0|2,0:0|0:0,0:0:0:0:
209,157,14576,1,8,0:0:0:0:
380,237,14727,1,0,0:0:0:0:
167,337,14878,5,8,0:0:0:0:
89,62,15029,1,2,0:0:0:0:
41,222,15179,1,2,0:0:0:0:
255,32,15330,1,8,0:0:0:0:
259,358,15481,5,2,0:0:0:0:
432,135,15632,1,2,0:0:0:0:
137,245,15782,1,8,0:0:0:0:
416,302,15933,1,2,0:0:0:0:
112,140,16084,5,2,0:0:0:0:
295,45,16235,2,0,L|302:16,2,20,0|0|0,0:0|0:0|0:3,0:0:0:0:
215,74,16385,6,0,P|279:128|363:94,1,180.000006866455,12|0,0:0|0:0,0:0:0:0:
370,127,16687,2,0,P|271:156|190:91,1,215.999993408203,12|0,0:0|0:0,0:0:0:0:
133,17,16988,2,0,B|114:47|114:47|120:72|120:72|104:93|104:93|110:116|110:116|92:134|92:134|102:164|102:164|86:191|86:191|108:164|129:158,1,251.999992309571
161,242,17290,6,0,B|217:234|217:234|305:250|305:250|353:242,1,191.999994140625,0|8,0:0|0:0,0:0:0:0:
351,242,18496,2,0,B|295:234|295:234|207:250|207:250|159:242,1,191.999994140625,0|8,0:0|0:0,0:0:0:0:
161,242,19702,6,0,B|256:227|256:265|352:242,1,191.999994140625,0|8,0:0|0:0,0:0:0:0:
351,242,20908,2,0,B|256:227|256:265|160:242,1,191.999994140625,0|8,0:0|0:0,0:0:0:0:
161,242,22114,6,0,L|354:242,1,191.999994140625,0|8,0:0|0:0,0:0:0:0:
353,242,23320,2,0,L|161:242,1,191.999994140625,0|8,0:0|0:0,0:0:0:0:
161,242,24526,6,0,B|114:306|156:377|219:392|278:394|286:321|312:260|385:297|412:315,1,383.99998828125
334,44,26938,6,0,B|364:67|364:67|377:117|377:117|360:152,1,128,4|2,0:0|0:0,0:0:0:0:
165,193,27692,1,2,0:0:0:0:
165,193,27767,1,0,0:0:0:0:
165,193,27843,1,0,0:0:0:0:
98,251,27993,1,2,0:0:0:0:
98,251,28069,1,0,0:0:0:0:
98,251,28144,5,0,0:0:0:0:
114,338,28295,1,2,0:0:0:0:
200,368,28446,2,0,L|268:356,1,64,2|0,0:0|0:0,0:0:0:0:
352,144,28747,2,0,L|415:155,1,64,2|0,0:0|0:0,0:0:0:0:
269,175,29049,1,2,0:0:0:0:
424,268,29199,1,2,0:0:0:0:
424,268,29501,6,0,P|392:276|364:288,1,64,2|0,0:0|0:0,0:0:0:0:
269,175,29802,2,0,P|260:205|256:237,1,64,2|0,0:0|0:0,0:0:0:0:
124,304,30104,1,2,0:0:0:0:
124,304,30179,1,0,0:0:0:0:
124,304,30255,2,0,P|146:327|171:346,1,64,2|0,0:0|0:0,0:0:0:0:
363,288,30556,5,2,0:0:0:0:
356,312,30632,1,0,0:0:0:0:
352,332,30707,2,0,P|344:316|336:304,1,32,2|0,0:0|0:0,0:0:0:0:
210,263,30858,2,0,L|236:241,1,32,2|0,0:0|0:1,0:0:0:0:
256,112,31009,2,0,L|284:130,1,32,2|0,0:0|0:0,0:0:0:0:
442,192,31159,6,0,L|324:212,1,120,6|0,0:0|0:0,0:0:0:0:
289,274,31461,2,0,L|209:262,1,80,10|0,0:0|0:0,0:0:0:0:
68,236,31762,1,8,0:0:0:0:
176,331,31913,2,0,L|194:373,2,40,8|0|0,0:0|0:0|0:0,0:0:0:0:
136,270,32139,2,0,P|144:230|155:190,1,80,8|0,0:0|0:0,0:0:0:0:
122,126,32365,2,0,L|161:117,1,40,8|0,0:0|0:0,0:0:0:0:
321,26,32516,2,0,L|360:33,1,40,10|0,0:0|0:0,0:0:0:0:
368,103,32667,2,0,P|328:94|289:88,1,80,8|0,0:0|0:0,0:0:0:0:
122,126,32968,6,8,P|182:145|240:168,1,120,8|0,0:0|0:0,0:0:0:0:
290,212,33270,1,2,0:0:0:0:
440,157,33421,2,0,P|446:118|463:79,1,80,2|2,0:0|0:0,0:0:0:0:
392,255,33722,2,0,P|386:294|369:333,1,80,2|2,0:0|0:0,0:0:0:0:
310,154,34024,2,0,P|279:129|253:95,1,80,2|2,0:0|0:0,0:0:0:0:
248,260,34325,1,0,0:0:0:0:
240,274,34400,1,0,0:0:0:0:
234,289,34476,2,0,P|200:309|159:321,1,80,2|0,0:0|0:0,0:0:0:0:
1,260,34777,5,8,0:0:0:0:
147,193,34928,1,2,0:0:0:0:
27,24,35079,1,2,0:0:0:0:
62,27,35154,1,0,0:0:0:0:
97,34,35230,1,2,0:0:0:0:
130,47,35305,1,0,0:0:0:0:
160,66,35380,6,0,P|196:47|235:34,1,80,4|2,0:0|0:0,0:0:0:0:
372,148,35682,2,0,P|334:136|295:130,1,80,8|0,0:0|0:0,0:0:0:0:
206,167,35983,1,0,0:0:0:0:
341,252,36134,1,2,0:0:0:0:
184,348,36285,1,8,0:0:0:0:
416,290,36436,2,0,B|426:264|426:264|408:202,1,80,2|0,0:0|0:0,0:0:0:0:
298,52,36737,2,0,B|288:78|288:78|306:140,1,80,8|0,0:0|0:0,0:0:0:0:
341,252,37039,1,2,0:0:0:0:
369,16,37189,2,0,P|330:30|294:53,1,80,8|0,0:0|0:0,0:0:0:0:
164,116,37491,6,0,P|203:124|242:139,1,80,6|0,0:0|0:0,0:0:0:0:
273,315,37792,2,0,P|251:281|225:251,1,80,8|0,0:0|0:0,0:0:0:0:
134,222,38094,1,0,0:0:0:0:
272,108,38245,1,2,0:0:0:0:
72,36,38395,1,10,0:0:0:0:
308,20,38546,5,2,0:0:0:0:
389,118,38697,1,2,0:0:0:0:
311,219,38848,1,2,0:0:0:0:
167,118,38998,5,2,0:0:0:0:
86,216,39149,1,2,0:0:0:0:
125,267,39225,1,2,0:0:0:0:
164,317,39300,1,2,0:0:0:0:
291,299,39451,1,2,0:0:0:0:
403,236,39601,5,6,0:0:0:0:
223,189,39752,1,2,0:0:0:0:
383,327,39903,1,2,0:0:0:0:
273,111,40054,1,6,0:0:0:0:
63,225,40204,1,2,0:0:0:0:
63,225,40506,5,6,0:0:0:0:
192,62,40657,1,2,0:0:0:0:
130,294,40808,1,2,0:0:0:0:
39,47,40958,1,6,0:0:0:0:
39,47,41260,5,6,0:0:0:0:
135,131,41411,1,2,0:0:0:0:
259,104,41561,1,2,0:0:0:0:
355,249,41712,5,6,0:0:0:0:
508,182,41863,1,2,0:0:0:0:
311,167,42014,2,0,L|307:203,1,20,2|0,0:0|0:0,0:0:0:0:
284,179,42089,1,2,0:0:0:0:
258,191,42164,1,6,0:0:0:0:
231,201,42240,1,2,0:0:0:0:
204,209,42315,1,2,0:0:0:0:
332,80,42466,1,2,0:0:0:0:
281,283,42617,1,2,0:0:0:0:
223,33,42767,5,6,0:0:0:0:
161,276,42918,1,2,0:0:0:0:
363,212,43069,1,2,0:0:0:0:
115,110,43220,1,6,0:0:0:0:
281,283,43370,2,0,L|267:314,1,20,2|0,0:0|0:0,0:0:0:0:
308,295,43446,1,2,0:0:0:0:
334,307,43521,1,6,0:0:0:0:
452,176,43672,1,2,0:0:0:0:
161,276,43823,5,6,0:0:0:0:
151,288,43973,1,0,0:0:0:0:
123,305,44124,1,0,0:0:0:0:
74,304,44275,1,0,0:0:0:0:
97,225,44426,5,2,0:0:0:0:
174,209,44576,1,0,0:0:0:0:
253,201,44727,1,2,0:0:0:0:
326,172,44878,1,0,0:0:0:0:
404,189,45029,5,2,0:0:0:0:
414,201,45179,1,0,0:0:0:0:
442,218,45330,1,0,0:0:0:0:
491,217,45481,1,0,0:0:0:0:
468,138,45632,5,2,0:0:0:0:
391,122,45782,1,0,0:0:0:0:
312,114,45933,1,2,0:0:0:0:
239,85,46084,1,0,0:0:0:0:
173,38,46235,5,2,0:0:0:0:
157,36,46385,1,0,0:0:0:0:
125,43,46536,1,0,0:0:0:0:
90,78,46687,1,0,0:0:0:0:
161,115,46838,5,8,0:0:0:0:
235,139,46988,1,0,0:0:0:0:
313,156,47139,1,2,0:0:0:0:
375,199,47290,1,0,0:0:0:0:
426,260,47441,5,2,0:0:0:0:
438,249,47591,1,0,0:0:0:0:
454,221,47742,1,0,0:0:0:0:
451,171,47893,1,0,0:0:0:0:
375,199,48044,5,2,0:0:0:0:
301,223,48194,1,2,0:0:0:0:
223,240,48345,1,2,0:0:0:0:
161,283,48496,1,0,0:0:0:0:
117,350,48647,5,2,0:0:0:0:
103,337,48797,1,2,0:0:0:0:
84,303,48948,1,2,0:0:0:0:
87,243,49099,1,0,0:0:0:0:
151,182,49250,5,8,0:0:0:0:
237,193,49400,1,0,0:0:0:0:
285,266,49551,1,2,0:0:0:0:
258,349,49702,1,0,0:0:0:0:
285,266,49853,5,2,0:0:0:0:
295,282,50003,1,0,0:0:0:0:
325,307,50154,1,2,0:0:0:0:
385,313,50305,1,0,0:0:0:0:
456,262,50456,5,2,0:0:0:0:
460,174,50607,1,0,0:0:0:0:
396,114,50757,1,2,0:0:0:0:
310,126,50908,1,0,0:0:0:0:
203,226,51059,6,0,L|362:211,1,160
120,158,51863,6,0,P|143:150|171:143,1,53.3333333333333
61,41,52064,2,0,P|87:48|112:58,1,53.3333333333333
181,7,52265,5,8,0:0:0:0:
226,35,52365,1,0,0:0:0:0:
276,51,52466,1,0,0:0:0:0:
315,86,52566,5,0,0:0:0:0:
265,100,52667,1,0,0:0:0:0:
214,117,52767,1,0,0:0:0:0:
186,163,52868,5,2,0:0:0:0:
238,166,52968,1,0,0:0:0:0:
291,178,53069,1,0,0:0:0:0:
329,196,53169,6,0,P|377:180|426:170,1,96,8|0,0:0|0:0,0:0:0:0:
460,200,53471,6,0,L|318:179,1,143.999995605469,6|0,0:0|0:0,0:0:0:0:
300,104,53772,2,0,B|268:112|251:135|251:135|200:140|200:140|177:175|131:183,1,191.999994140625,8|0,0:0|0:0,0:0:0:0:
82,36,54225,2,0,P|65:51|52:75,1,47.9999985351563,2|0,0:0|0:0,0:0:0:0:
0,198,54375,2,0,B|27:221|65:218|65:218|88:251|127:256,1,143.999995605469,8|0,0:0|0:0,0:0:0:0:
168,320,54677,6,0,B|316:304,1,143.999995605469,2|0,0:0|0:0,0:0:0:0:
372,254,54978,2,0,L|316:236,1,47.9999985351563,8|0,0:0|0:0,0:0:0:0:
158,184,55129,1,0,0:0:0:0:
302,349,55280,1,2,0:0:0:0:
339,137,55431,1,2,0:0:0:0:
168,320,55581,2,0,B|189:329|189:329|213:327|213:327|231:337|231:337|251:334|251:334|270:344|270:344|292:342|292:342|307:353,1,143.999995605469,8|0,0:0|0:0,0:0:0:0:
319,274,55883,6,0,L|173:246,1,143.999995605469,2|0,0:0|0:0,0:0:0:0:
113,204,56184,2,0,B|128:180|158:172|158:172|178:128|178:128|140:108|140:108|99:126,1,191.999994140625,8|0,0:0|0:0,0:0:0:0:
239,58,56637,2,0,P|258:80|274:106,1,47.9999985351563,2|0,0:0|0:0,0:0:0:0:
319,274,56787,2,0,B|349:303|349:303|408:292|408:292|425:253,1,143.999995605469,8|0,0:0|0:0,0:0:0:0:
497,225,57089,6,0,P|483:205|467:187,1,47.9999985351563,2|0,0:0|0:0,0:0:0:0:
379,36,57240,1,0,0:0:0:0:
379,36,57315,1,0,0:0:0:0:
379,36,57390,2,0,P|337:64|317:105,1,95.9999970703126,8|0,0:0|0:0,0:0:0:0:
273,339,57692,2,0,P|243:304|238:257,1,95.9999970703126,2|2,0:0|0:0,0:0:0:0:
274,107,57993,1,8,0:0:0:0:
69,186,58144,1,0,0:0:0:0:
217,360,58295,6,0,L|76:336,1,143.999995605469,6|0,0:0|0:0,0:0:0:0:
26,274,58596,2,0,B|58:250|98:258|98:258|118:229|118:229|112:193|112:193|62:185,1,191.999994140625,8|0,0:0|0:0,0:0:0:0:
63,32,59049,2,0,L|16:40,1,47.9999985351563,2|0,0:0|0:0,0:0:0:0:
117,107,59199,2,0,B|157:114|184:138|184:138|205:165|243:172,1,143.999995605469,8|0,0:0|0:0,0:0:0:0:
249,92,59501,5,2,0:0:0:0:
313,283,59652,1,2,0:0:0:0:
119,185,59802,2,0,L|128:232,2,47.9999985351563,8|0|0,0:0|0:0|0:0,0:0:0:0:
265,0,60104,2,0,B|257:43|257:43|259:47|259:47|255:51|255:51|248:94,1,95.9999970703126,2|2,0:0|0:0,0:0:0:0:
218,334,60405,2,0,L|238:359,6,23.9999992675781,8|0|0|0|0|0|0,0:0|0:0|0:0|0:0|0:0|0:0|0:0,0:0:0:0:
152,374,60707,6,0,L|128:232,1,143.999995605469,2|0,0:0|0:0,0:0:0:0:
124,154,61009,2,0,B|181:156|200:209|200:209|229:205|253:194|253:194|296:220,1,191.999994140625,8|0,0:0|0:0,0:0:0:0:
403,117,61461,2,0,P|418:137|428:159,1,47.9999985351563,2|0,0:0|0:0,0:0:0:0:
330,356,61612,1,8,0:0:0:0:
282,350,61687,1,0,0:0:0:0:
247,317,61762,1,0,0:0:0:0:
244,268,61838,1,0,0:0:0:0:
272,229,61913,5,6,0:0:0:0:
225,241,61988,1,0,0:0:0:0:
176,240,62064,1,0,0:0:0:0:
132,220,62139,1,2,0:0:0:0:
98,185,62215,1,0,0:0:0:0:
93,137,62290,1,0,0:0:0:0:
125,101,62365,1,2,0:0:0:0:
167,76,62441,1,2,0:0:0:0:
215,74,62516,6,0,L|242:91,14,23.9999992675781,8|0|0|0|0|0|0|0|0|0|0|0|0|0|0,0:0|0:0|0:0|0:0|0:0|0:0|0:0|0:0|0:0|0:0|0:0|0:0|0:0|0:0|0:0,0:0:0:0:
294,18,63119,6,0,L|332:160,1,143.999995605469,6|0,0:0|0:0,0:0:0:0:
396,228,63421,6,0,P|354:252|306:252,1,95.9999970703126,2|0,0:0|0:0,0:0:0:0:
116,156,63722,2,0,P|157:132|205:131,1,95.9999970703126,2|0,0:0|0:0,0:0:0:0:
428,252,64024,6,0,P|382:268|335:260,1,95.9999970703126,2|0,0:0|0:0,0:0:0:0:
84,132,64325,2,0,P|129:115|176:123,1,95.9999970703126,2|0,0:0|0:0,0:0:0:0:
460,308,64627,6,0,P|411:307|370:284,1,95.9999970703126,2|0,0:0|0:0,0:0:0:0:
141,98,64928,5,2,0:0:0:0:
308,328,65079,1,0,0:0:0:0:
402,168,65230,1,2,0:0:0:0:
142,283,65380,1,0,0:0:0:0:
76,28,65531,6,0,L|38:170,1,143.999995605469,2|0,0:0|0:0,0:0:0:0:
56,264,65833,6,0,P|104:240|132:208,1,95.9999970703126,2|0,0:0|0:0,0:0:0:0:
456,120,66134,2,0,P|408:144|380:176,1,95.9999970703126,2|0,0:0|0:0,0:0:0:0:
81,313,66436,6,0,P|121:277|140:239,1,95.9999970703126,2|0,0:0|0:0,0:0:0:0:
430,70,66737,2,0,P|390:106|371:144,1,95.9999970703126,2|0,0:0|0:0,0:0:0:0:
165,384,67039,6,0,P|182:333|179:290,1,95.9999970703126,2|0,0:0|0:0,0:0:0:0:
332,92,67340,6,2,B|332:25|384:25|384:25|384:67|306:68|305:102|310:134,1,240,2|0,0:1|0:1,0:1:0:0:
322,211,67642,1,2,0:0:0:0:
90,35,67792,1,2,0:0:0:0:
89,323,67943,6,0,L|186:289,1,95.9999970703126,6|0,0:0|0:0,0:0:0:0:
219,20,68245,2,0,L|238:121,1,95.9999970703126,2|0,0:0|0:0,0:0:0:0:
492,246,68546,6,0,P|455:211|428:172,1,95.9999970703126,2|0,0:0|0:0,0:0:0:0:
20,138,68848,2,0,P|56:172|83:211,1,95.9999970703126,2|0,0:0|0:0,0:0:0:0:
463,218,69149,6,0,P|414:206|371:186,1,95.9999970703126,6|0,0:0|0:0,0:0:0:0:
49,166,69451,2,0,P|97:177|140:197,1,95.9999970703126,2|0,0:0|0:0,0:0:0:0:
427,155,69752,6,0,P|376:156|330:148,1,95.9999970703126,2|0,0:0|0:0,0:0:0:0:
85,229,70054,2,0,P|135:227|181:235,1,95.9999970703126,2|0,0:0|0:0,0:0:0:0:
301,165,70355,5,2,0:0:0:0:
210,218,70506,1,2,0:0:0:0:
370,222,70657,5,2,0:0:0:0:
141,161,70808,1,2,0:0:0:0:
403,107,70958,5,2,0:0:0:0:
108,276,71109,1,2,0:0:0:0:
492,254,71260,5,2,0:0:0:0:
19,129,71411,1,2,0:0:0:0:
408,0,71561,6,0,P|384:4|362:11,1,47.9999985351563,2|2,0:0|0:0,0:0:0:0:
129,76,71712,2,0,P|151:84|172:95,1,47.9999985351563,2|2,0:0|0:0,0:0:0:0:
352,166,71863,2,0,P|333:180|315:196,1,47.9999985351563,2|2,0:0|0:0,0:0:0:0:
185,259,72014,2,0,P|194:278|203:301,1,47.9999985351563,2|2,0:0|0:0,0:0:0:0:
301,330,72164,6,2,B|302:356|305:375|305:375|276:240|177:241|320:104|210:29|210:29|252:71|252:131|228:162,1,560,2|0,0:1|0:1,0:1:0:0:
128,179,72767,5,0,0:0:0:0:
384,205,73370,5,8,0:0:0:0:
128,179,73973,5,0,0:0:0:0:
384,205,74576,5,8,0:0:0:0:
134,176,75179,5,0,0:0:0:0:
378,208,75481,1,0,0:0:0:0:
322,254,75782,1,8,0:0:0:0:
203,292,76084,1,0,0:0:0:0:
255,342,76385,6,0,L|260:373,1,32
294,160,76988,2,0,L|289:192,1,32
319,266,77591,5,0,0:0:0:0:
75,201,78194,5,8,0:0:0:0:
319,266,78797,5,0,0:0:0:0:
75,201,79400,5,8,0:0:0:0:
319,266,80003,5,0,0:0:0:0:
75,201,80305,1,0,0:0:0:0:
95,321,80607,1,8,0:0:0:0:
348,232,80908,1,0,0:0:0:0:
184,24,81210,6,0,L|140:260,1,240
109,315,82416,6,0,P|146:305|186:288,1,80,2|0,0:0|0:0,0:0:0:0:
312,198,82717,1,2,0:0:0:0:
238,350,82868,1,0,0:0:0:0:
165,127,83019,2,0,P|198:149|236:178,1,80,2|0,0:0|0:0,0:0:0:0:
376,317,83320,1,2,0:0:0:0:
338,286,83395,1,0,0:0:0:0:
290,297,83471,1,0,0:0:0:0:
250,272,83546,1,0,0:0:0:0:
200,270,83622,5,2,0:0:0:0:
154,103,83772,1,0,0:0:0:0:
312,198,83923,2,0,P|273:190|226:172,1,80,2|0,0:0|0:0,0:0:0:0:
15,83,84225,2,0,P|54:75|91:62,1,80,2|0,0:0|0:0,0:0:0:0:
156,22,84451,2,0,P|190:41|227:56,1,80
300,32,84677,1,0,0:0:0:0:
172,165,84828,6,0,P|188:202|201:239,1,80,2|0,0:0|0:0,0:0:0:0:
341,345,85129,1,2,0:0:0:0:
354,169,85280,1,0,0:0:0:0:
233,287,85431,2,0,P|193:279|154:269,1,80,2|0,0:0|0:0,0:0:0:0:
35,134,85732,1,2,0:0:0:0:
70,100,85808,1,0,0:0:0:0:
116,108,85883,1,0,0:0:0:0:
157,84,85958,1,0,0:0:0:0:
188,47,86034,6,0,P|197:67|204:95,1,48,6|0,0:0|0:0,0:0:0:0:
276,37,86637,6,0,P|253:92|235:150,1,120,8|2,0:0|0:0,0:0:0:0:
188,233,87240,5,6,0:0:0:0:
308,359,87390,1,2,0:0:0:0:
220,322,87541,5,2,0:0:0:0:
336,195,87692,1,2,0:0:0:0:
488,348,87843,5,2,0:0:0:0:
431,115,87993,1,2,0:0:0:0:
296,266,88144,5,0,0:0:0:0:
251,248,88220,1,0,0:0:0:0:
202,249,88295,1,0,0:0:0:0:
156,233,88370,1,0,0:0:0:0:
117,204,88446,5,6,0:0:0:0:
281,148,88596,1,2,0:0:0:0:
145,48,88747,5,2,0:0:0:0:
202,249,88898,1,2,0:0:0:0:
322,22,89049,5,6,0:0:0:0:
117,204,89199,1,2,0:0:0:0:
229,11,89350,5,2,0:0:0:0:
361,276,89501,1,2,0:0:0:0:
472,50,89652,5,6,0:0:0:0:
426,36,89727,1,2,0:0:0:0:
378,40,89802,1,2,0:0:0:0:
333,60,89878,1,2,0:0:0:0:
297,91,89953,1,2,0:0:0:0:
260,121,90029,1,2,0:0:0:0:
216,141,90104,1,2,0:0:0:0:
168,145,90179,1,2,0:0:0:0:
122,131,90255,6,0,P|104:128|87:126,1,32,2|2,0:0|0:0,0:0:0:0:
52,136,90330,2,0,P|39:147|28:163,1,32,2|2,0:0|0:0,0:0:0:0:
15,190,90405,2,0,P|15:206|18:222,1,27.9999991455078,2|2,0:0|0:0,0:0:0:0:
29,245,90481,2,0,P|35:255|45:263,1,23.9999992675781,2|2,0:0|0:0,0:0:0:0:
65,275,90556,2,0,L|93:277,1,20,2|2,0:0|0:0,0:0:0:0:
109,270,90632,2,0,L|125:258,1,16,2|2,0:0|0:0,0:0:0:0:
129,242,90707,2,0,L|127:226,1,11.9999996337891,2|2,0:0|0:0,0:0:0:0:
121,216,90782,2,0,L|109:210,1,8,2|2,0:0|0:0,0:0:0:0:
109,210,90858,6,0,B|27:178|24:32|172:28|205:88|204:104|208:120|297:129|348:84,1,419.999987182618,4|0,0:3|0:0,0:0:0:0:
408,56,92064,6,0,L|412:32,6,20,2|0|0|0|0|0|0,0:0|0:0|0:0|0:0|0:0|0:0|0:0,0:0:0:0:
464,96,92365,2,0,L|467:115,6,20,2|0|0|0|0|0|0,0:0|0:0|0:0|0:0|0:0|0:0|0:0,0:0:0:0:
400,124,92667,5,2,0:0:0:0:
275,162,92818,1,2,0:0:0:0:
153,200,92968,2,0,L|149:219,6,20,2|0|0|0|0|0|0,0:0|0:0|0:0|0:0|0:0|0:0|0:0,0:0:0:0:
74,273,93270,6,0,B|20:154|96:147|44:36,1,240,6|0,0:0|0:0,0:0:0:0:
45,39,93571,2,0,B|21:167|96:155|73:275,1,240,6|0,0:0|0:0,0:0:0:0:
24,355,93873,5,8,0:0:0:0:
153,200,94024,1,2,0:0:0:0:
291,320,94174,1,8,0:0:0:0:
324,353,94250,1,0,0:0:0:0:
368,368,94325,1,2,0:0:0:0:
416,361,94400,1,2,0:0:0:0:
454,330,94476,6,0,P|480:323|507:321,1,47.9999985351563,2|0,0:0|0:0,0:0:0:0:
501,321,94777,2,0,P|478:313|456:304,1,47.9999985351563,8|0,0:0|0:0,0:0:0:0:
335,222,94928,1,2,0:0:0:0:
335,222,95003,1,2,0:0:0:0:
335,222,95079,6,0,B|207:208,1,128,12|0,0:0|0:0,0:0:0:0:
132,311,95305,2,0,B|208:207,1,128,12|0,0:0|0:0,0:0:0:0:
156,90,95531,1,12,0:0:0:0:
382,35,95682,6,0,B|418:60|418:60|428:112|428:112|407:158|407:158|412:207|412:207|455:243,1,251.999992309571,6|0,0:0|0:0,0:0:0:0:
455,243,95983,2,0,B|467:201|467:201|444:154|444:154|398:131|398:131|372:89|372:89|384:32,1,251.999992309571,6|0,0:0|0:0,0:0:0:0:
504,78,96285,5,8,0:0:0:0:
328,264,96436,1,2,0:0:0:0:
198,59,96586,1,2,0:0:0:0:
152,83,96662,1,2,0:0:0:0:
121,123,96737,1,2,0:0:0:0:
112,173,96813,1,2,0:0:0:0:
126,221,96888,6,0,L|258:246,1,128,2|0,0:0|0:0,0:0:0:0:
351,163,97114,2,0,L|282:174,1,64,8|0,0:0|0:0,0:0:0:0:
217,326,97265,1,2,0:0:0:0:
217,326,97340,2,0,L|283:311,1,64,2|0,0:0|0:0,0:0:0:0:
342,296,97491,2,0,L|404:281,1,64,6|0,0:0|0:0,0:0:0:0:
216,163,97642,2,0,L|233:126,10,32
348,110,98094,6,0,B|291:220|291:220|403:281,1,251.999992309571,6|0,0:0|0:0,0:0:0:0:
403,281,98395,2,0,B|458:166|458:166|347:109,1,251.999992309571,6|0,0:0|0:0,0:0:0:0:
240,35,98697,1,8,0:0:0:0:
294,317,98848,1,2,0:0:0:0:
151,170,98998,1,8,0:0:0:0:
131,122,99074,1,0,0:0:0:0:
87,95,99149,1,2,0:0:0:0:
35,91,99225,1,0,0:0:0:0:
0,122,99300,6,0,P|6:152|17:185,1,64,2|0,0:0|0:0,0:0:0:0:
15,183,99601,2,0,P|39:161|61:138,1,64,8|0,0:0|0:0,0:0:0:0:
245,25,99752,1,2,0:0:0:0:
245,25,99828,1,2,0:0:0:0:
245,25,99903,6,0,P|311:70|367:118,1,151.999995941162,12|0,0:0|0:0,0:0:0:0:
347,267,100129,2,0,P|352:187|366:114,1,151.999995941162,12|0,0:0|0:0,0:0:0:0:
505,58,100355,1,12,0:0:0:0:
388,325,100506,6,0,B|363:361|363:361|329:336,1,83.9999974365235,2|0,0:0|0:0,0:0:0:0:
205,253,100657,2,0,B|171:232|171:232|196:196,1,83.9999974365235,2|0,0:0|0:0,0:0:0:0:
279,75,100808,2,0,B|300:41|300:41|337:66,1,83.9999974365235,8|0,0:0|0:0,0:0:0:0:
455,145,100958,2,0,B|491:169|491:169|466:203,1,83.9999974365235,2|0,0:0|0:0,0:0:0:0:
347,267,101109,5,6,0:0:0:0:
222,21,101260,1,2,0:0:0:0:
54,186,101411,1,2,0:0:0:0:
38,238,101486,1,2,0:0:0:0:
52,290,101561,1,2,0:0:0:0:
88,333,101637,1,2,0:0:0:0:
141,351,101712,6,0,P|163:317|183:270,1,83.9999974365235,12|0,0:0|0:0,0:0:0:0:
386,146,101863,1,2,0:0:0:0:
377,203,101938,1,2,0:0:0:0:
327,233,102014,2,0,P|287:218|251:197,1,83.9999974365235,12|0,0:0|0:0,0:0:0:0:
104,55,102164,1,2,0:0:0:0:
150,21,102240,1,2,0:0:0:0:
207,35,102315,2,0,L|244:53,14,41.9999987182618
292,115,102918,6,2,B|340:123|340:123|417:75|417:75|473:83,1,192,2|0,0:1|0:1,0:1:0:0:
468,82,103220,2,2,B|425:106|425:106|337:87|337:87|292:116,1,192,2|0,0:1|0:1,0:1:0:0:
207,35,103521,6,0,P|209:62|216:89,1,55.9999982910157,2|0,0:0|0:0,0:0:0:0:
277,191,103672,1,2,0:0:0:0:
110,83,103823,1,2,0:0:0:0:
82,124,103898,1,0,0:0:0:0:
81,174,103973,1,2,0:0:0:0:
54,217,104049,1,0,0:0:0:0:
62,285,104124,6,0,B|95:277|110:256|110:256|137:263|171:255,1,111.999996582031,2|0,0:1|0:0,0:0:0:0:
408,242,104426,2,0,B|376:228|365:205|365:205|335:209|310:192,1,111.999996582031,2|0,0:1|0:0,0:0:0:0:
308,116,104652,1,0,0:0:0:0:
308,116,104727,2,0,B|281:115|258:136|258:136|236:123|202:129,1,111.999996582031,2|0,0:1|0:0,0:0:0:0:
160,31,104953,1,2,0:1:0:0:
160,31,105029,2,0,P|148:56|134:80,1,55.9999982910157
235,266,105179,2,0,P|226:240|221:213,1,55.9999982910157,2|0,0:1|0:0,0:0:0:0:
62,65,105330,6,2,B|27:105|27:105|32:148|32:148|7:183|7:183|19:235,1,192,2|0,0:1|0:1,0:1:0:0:
19,234,105632,2,2,B|54:194|54:194|48:151|48:151|73:116|73:116|62:64,1,192,2|0,0:1|0:1,0:1:0:0:
161,13,105933,6,0,P|188:20|216:31,1,55.9999982910157,2|0,0:0|0:0,0:0:0:0:
320,81,106084,1,2,0:0:0:0:
136,173,106235,1,2,0:0:0:0:
87,183,106311,1,0,0:0:0:0:
52,219,106386,1,2,0:0:0:0:
3,232,106461,1,0,0:0:0:0:
3,294,106536,6,0,B|58:300|58:300|112:284,1,111.999996582031,2|0,0:1|0:0,0:0:0:0:
214,322,106762,1,2,0:1:0:0:
214,323,106838,2,0,P|233:305|253:285,1,55.9999982910157,0|0,0:1|0:0,0:0:0:0:
375,88,106988,2,0,P|371:116|367:144,1,55.9999982910157,2|0,0:1|0:0,0:0:0:0:
334,276,107139,2,2,B|314:254|306:235|306:235|269:215|269:215|271:179|241:144,1,167.999994873047,2|0,0:1|0:1,0:1:0:0:
134,112,107441,2,0,L|147:77,6,27.9999991455078
194,245,107742,6,2,B|160:229|160:229|118:235|118:235|90:212|90:212|47:219|47:219|18:204,1,192,2|0,0:1|0:1,0:1:0:0:
19,205,108044,2,2,B|51:204|51:204|87:228|87:228|122:220|122:220|157:245|157:245|194:245,1,192,2|0,0:1|0:1,0:1:0:0:
354,224,108345,6,0,L|301:204,1,55.9999982910157,2|0,0:0|0:0,0:0:0:0:
134,112,108496,1,2,0:0:0:0:
391,84,108647,1,2,0:0:0:0:
412,128,108722,1,0,0:0:0:0:
405,178,108797,1,2,0:0:0:0:
425,225,108873,1,0,0:0:0:0:
395,285,108948,6,0,B|364:299|364:299|316:291|316:291|292:267,1,111.999996582031,2|0,0:1|0:0,0:0:0:0:
177,54,109250,2,0,B|146:39|146:39|98:47|98:47|74:71,1,111.999996582031,2|0,0:1|0:0,0:0:0:0:
25,142,109476,1,0,0:0:0:0:
25,142,109551,2,0,L|49:253,1,111.999996582031,2|0,0:1|0:0,0:0:0:0:
114,313,109777,2,0,L|223:289,1,111.999996582031,2|0,0:1|0:0,0:0:0:0:
301,243,110003,2,0,L|289:188,1,55.9999982910157,2|0,0:1|0:0,0:0:0:0:
177,54,110154,5,2,0:1:0:0:
394,107,110305,1,2,0:0:0:0:
195,200,110456,5,2,0:1:0:0:
359,16,110607,1,2,0:0:0:0:
301,243,110757,5,2,0:1:0:0:
46,100,110908,1,2,0:0:0:0:
359,16,111059,5,2,0:1:0:0:
114,313,111210,1,2,0:0:0:0:
54,27,111360,6,0,P|31:49|17:75,1,55.9999982910157,2|2,0:0|0:0,0:0:0:0:
189,315,111511,2,0,P|184:288|172:263,1,55.9999982910157,2|2,0:0|0:0,0:0:0:0:
264,59,111662,2,0,P|257:85|257:113,1,55.9999982910157,2|2,2:0|2:0,2:0:0:0:
349,269,111813,2,0,P|358:242|360:214,1,55.9999982910157,2|2,0:0|0:0,0:0:0:0:
436,135,111963,6,0,B|439:115|449:92|449:92|439:58|439:58|479:69,2,120,2|2|2,0:1|0:1|0:1,0:0:0:0:
474,223,112566,5,8,0:0:0:0:
444,354,112767,1,0,0:0:0:0:
349,269,112968,1,0,0:0:0:0:
423,284,113169,5,0,0:0:0:0:
295,322,113370,1,0,0:0:0:0:
320,197,113571,1,0,0:0:0:0:
349,269,113772,5,12,0:0:0:0:
247,182,113973,1,0,0:0:0:0:
365,134,114174,1,0,0:0:0:0:
320,197,114375,5,8,0:0:0:0:
344,64,114576,1,0,0:0:0:0:
443,143,114777,1,8,0:0:0:0:
365,134,114978,5,12,0:0:0:0:
341,267,115179,1,8,0:0:0:0:
472,222,115380,2,0,L|414:213,1,53.3333333333333,8|8,0:0|0:0,0:0:0:0:
298,174,115581,5,8,0:0:0:0:
170,219,115782,1,8,0:0:0:0:
275,310,115983,2,0,L|253:255,1,53.3333333333333,8|8,0:0|0:0,0:0:0:0:
215,138,116184,5,12,0:0:0:0:
112,231,116385,2,0,L|71:268,2,53.3333333333333,8|8|8,0:0|0:0|0:0,0:0:0:0:
82,95,116787,5,8,0:0:0:0:
42,152,116888,2,0,L|31:178,2,26.6666666666667,8|8|8,0:0|0:0|0:0,0:0:0:0:
103,119,117089,1,8,0:0:0:0:
171,129,117189,2,0,L|181:155,2,26.6666666666667,8|8|8,0:0|0:0|0:0,0:0:0:0:
233,97,117390,2,0,L|243:70,2,26.6666666666667,12|8|8,0:0|0:0|0:0,0:0:0:0:
299,118,117591,2,0,L|309:144,1,26.6666666666667,8|8,0:0|0:0,0:0:0:0:
341,130,117692,2,0,L|336:158,1,26.6666666666667,8|8,0:0|0:0,0:0:0:0:
370,149,117792,1,8,0:0:0:0:
205,247,117993,6,0,L|195:223,2,26.6666666666667,12|8|8,0:0|0:0|0:0,0:0:0:0:
257,305,118194,2,0,L|267:280,2,26.6666666666667,8|8|8,0:0|0:0|0:0,0:0:0:0:
334,270,118395,1,8,0:0:0:0:
379,73,118596,6,0,L|402:63,2,26.6666666666667,12|8|8,0:0|0:0|0:0,0:0:0:0:
321,125,118797,2,0,L|344:134,2,26.6666666666667,8|8|8,0:0|0:0|0:0,0:0:0:0:
355,201,118998,2,0,L|379:195,2,26.6666666666667,8|8|8,0:0|0:0|0:0,0:0:0:0:
376,279,119199,6,0,L|398:291,1,26.6666666666667,12|8,0:0|0:0,0:0:0:0:
357,299,119300,2,0,L|363:323,1,26.6666666666667,8|8,0:0|0:0,0:0:0:0:
324,318,119400,2,0,L|330:342,1,26.6666666666667,8|8,0:0|0:0,0:0:0:0:
298,320,119501,2,0,L|285:342,1,26.6666666666667,8|8,0:0|0:0,0:0:0:0:
256,315,119601,2,0,L|243:337,1,26.6666666666667,8|8,0:0|0:0,0:0:0:0:
236,298,119702,2,0,L|211:304,1,26.6666666666667,8|8,0:0|0:0,0:0:0:0:
231,260,119802,6,0,B|74:277|49:93|99:2|202:-60|325:-35|383:48|343:229|231:260|231:260|296:302|294:332|333:359|343:364|355:364|382:361|411:350,1,960,4|0,0:0|0:0,0:0:0:0:
