osu file format v14

[General]
AudioFilename: audio.mp3
AudioLeadIn: 0
PreviewTime: 101942
Countdown: 0
SampleSet: Normal
StackLeniency: 0.2
Mode: 1
LetterboxInBreaks: 0
WidescreenStoryboard: 0

[Editor]
DistanceSpacing: 1
BeatDivisor: 4
GridSize: 32
TimelineZoom: 2.699999

[Metadata]
Title:LOSHAXI -HACK-
TitleUnicode:LOSHAXI -HACK-
Artist:Se-U-Ra
ArtistUnicode:せゆーら
Creator:Genjuro
Version:Oni
Source:
Tags:tree called elif electronic instrumental experimental piano
BeatmapID:2287922
BeatmapSetID:1094418

[Difficulty]
HPDrainRate:5
CircleSize:2
OverallDifficulty:5
ApproachRate:10
SliderMultiplier:1.4
SliderTickRate:1

[Events]
//Background and Video events
0,0,"bg.jpg",0,0
//Break Periods
2,71930,77359
//Storyboard Layer 0 (Background)
//Storyboard Layer 1 (Fail)
//Storyboard Layer 2 (Pass)
//Storyboard Layer 3 (Foreground)
//Storyboard Layer 4 (Overlay)
//Storyboard Sound Samples

[TimingPoints]
1127,887.573964497042,4,1,0,100,1,0
1127,-32.1905681635281,4,1,0,100,0,0
4677,402.684563758389,4,1,0,100,1,0
4677,-70.9524299433445,4,1,0,100,0,0
6287,285.714285714286,6,1,0,100,1,8
6288,285.714285714286,6,1,0,100,1,0
7859,285.714285714286,4,1,0,100,1,0
12287,285.714285714286,6,1,0,100,1,8
12288,285.714285714286,5,1,0,100,1,0
15144,285.714285714286,3,1,0,100,1,8
15145,285.714285714286,8,1,0,100,1,0
17287,285.714285714286,6,1,0,100,1,8
17288,285.714285714286,4,1,0,100,1,0
18430,285.714285714286,5,1,0,100,1,0
21001,285.714285714286,6,1,0,100,1,8
21002,285.714285714286,5,1,0,100,1,0
23573,285.714285714286,5,1,0,100,1,0
26144,285.714285714286,6,1,0,100,1,8
26145,285.714285714286,5,1,0,100,1,0
27573,285.714285714286,4,1,0,100,1,0
33287,285.714285714286,3,1,0,100,1,8
34001,285.714285714286,6,1,0,100,1,8
34002,285.714285714286,4,1,0,100,1,0
35144,285.714285714286,6,1,0,100,1,8
35145,285.714285714286,5,1,0,100,1,0
36573,285.714285714286,6,1,0,100,1,0
39144,285.714285714286,6,1,0,100,1,8
39145,285.714285714286,4,1,0,100,1,0
40287,285.714285714286,6,1,0,100,1,8
40288,285.714285714286,7,1,0,100,1,0
44288,285.714285714286,4,1,0,100,1,0
46573,285.714285714286,5,1,0,100,1,0
48001,285.714285714286,6,1,0,100,1,8
48002,285.714285714286,4,1,0,100,1,0
66287,285.714285714286,4,1,0,100,1,8
66430,285.714285714286,3,1,0,100,1,0
67287,285.714285714286,6,1,0,100,1,8
67288,285.714285714286,4,1,0,100,1,0
68430,285.714285714286,3,1,0,100,1,0
71858,285.714285714286,6,1,0,100,1,8
71859,285.714285714286,22,1,0,100,1,0
78001,303.030303030303,22,1,0,100,1,8
78001,-94.2857196734697,22,1,0,100,0,8
78228,285.714285714286,4,1,0,100,1,0
80228,285.714285714286,4,1,0,100,1,0
90513,285.714285714286,5,1,0,100,1,0
91751,285.714285714286,7,1,0,100,1,0
93655,285.714285714286,4,1,0,100,1,8
93656,285.714285714286,4,1,0,100,1,0
94798,285.714285714286,4,1,0,100,1,8
94799,285.714285714286,5,1,0,100,1,0
96227,285.714285714286,4,1,0,100,1,8
96228,285.714285714286,4,1,0,100,1,0
101942,-100,4,1,0,100,0,1
105370,-100,4,1,0,100,0,0
106513,-100,4,1,0,100,0,1
108513,-100,4,1,0,100,0,0
111085,-100,4,1,0,100,0,1
111942,285.714285714286,4,1,0,100,1,1
113084,285.714285714286,4,1,0,100,1,9
113085,285.714285714286,7,1,0,100,1,1
115085,285.714285714286,4,1,0,100,1,0
116227,285.714285714286,5,1,0,100,1,0
117655,-100,4,1,0,100,0,1
119084,285.714285714286,3,1,0,100,1,9
119085,285.714285714286,3,1,0,100,1,0
127656,285.714285714286,3,1,0,100,1,8
128227,285.714285714286,4,1,0,100,1,8
128228,285.714285714286,4,1,0,100,1,1
130513,-100,4,1,0,100,0,0

[HitObjects]
256,192,1127,8,0,3789,0:0:0:0:
256,192,4677,5,4,0:0:0:0:
256,192,6288,1,0,0:0:0:0:
256,192,6573,1,8,0:0:0:0:
256,192,6645,1,8,0:0:0:0:
256,192,6716,1,8,0:0:0:0:
256,192,6788,1,8,0:0:0:0:
256,192,7859,1,0,0:0:0:0:
256,192,8001,1,0,0:0:0:0:
256,192,8144,1,8,0:0:0:0:
256,192,8430,1,0,0:0:0:0:
256,192,8573,1,8,0:0:0:0:
256,192,8644,1,8,0:0:0:0:
256,192,8716,1,0,0:0:0:0:
256,192,8859,1,8,0:0:0:0:
256,192,9001,1,0,0:0:0:0:
256,192,9144,1,0,0:0:0:0:
256,192,9287,1,8,0:0:0:0:
256,192,9501,1,8,0:0:0:0:
256,192,9573,1,0,0:0:0:0:
256,192,9716,1,0,0:0:0:0:
256,192,9859,1,8,0:0:0:0:
256,192,9930,1,0,0:0:0:0:
256,192,10001,1,8,0:0:0:0:
256,192,10144,1,0,0:0:0:0:
256,192,10287,1,8,0:0:0:0:
256,192,10430,1,8,0:0:0:0:
256,192,10716,1,0,0:0:0:0:
256,192,11001,1,8,0:0:0:0:
256,192,11287,1,4,0:0:0:0:
256,192,11430,1,4,0:0:0:0:
256,192,11573,1,12,0:0:0:0:
256,192,11716,1,12,0:0:0:0:
256,192,12288,1,12,0:0:0:0:
256,192,12430,1,12,0:0:0:0:
256,192,12716,1,8,0:0:0:0:
256,192,12859,1,0,0:0:0:0:
256,192,13002,1,0,0:0:0:0:
256,192,13145,1,12,0:0:0:0:
256,192,13430,1,8,0:0:0:0:
256,192,13573,1,0,0:0:0:0:
256,192,13716,1,12,0:0:0:0:
256,192,14002,1,8,0:0:0:0:
256,192,14145,1,0,0:0:0:0:
256,192,14430,1,12,0:0:0:0:
256,192,14573,1,12,0:0:0:0:
256,192,14859,1,8,0:0:0:0:
256,192,15002,1,0,0:0:0:0:
256,192,15145,1,12,0:0:0:0:
256,192,15430,1,12,0:0:0:0:
256,192,15573,1,12,0:0:0:0:
256,192,15859,8,0,16966,0:0:0:0:
256,192,17288,5,0,0:0:0:0:
256,192,17573,1,8,0:0:0:0:
256,192,17716,1,8,0:0:0:0:
256,192,18002,1,0,0:0:0:0:
256,192,18145,1,8,0:0:0:0:
256,192,18216,1,8,0:0:0:0:
256,192,18288,1,8,0:0:0:0:
256,192,18430,1,0,0:0:0:0:
256,192,18715,1,8,0:0:0:0:
256,192,19001,1,8,0:0:0:0:
256,192,19096,1,8,0:0:0:0:
256,192,19191,1,8,0:0:0:0:
256,192,19858,1,0,0:0:0:0:
256,192,20144,1,8,0:0:0:0:
256,192,20287,1,8,0:0:0:0:
256,192,20572,1,0,0:0:0:0:
256,192,20715,1,8,0:0:0:0:
256,192,20787,1,8,0:0:0:0:
256,192,20858,1,8,0:0:0:0:
256,192,21002,1,0,0:0:0:0:
256,192,21287,1,8,0:0:0:0:
256,192,21573,1,8,0:0:0:0:
256,192,21716,1,8,0:0:0:0:
256,192,21859,1,0,0:0:0:0:
256,192,22049,1,8,0:0:0:0:
256,192,22144,1,8,0:0:0:0:
256,192,22240,1,8,0:0:0:0:
256,192,22430,1,0,0:0:0:0:
256,192,22716,1,8,0:0:0:0:
256,192,22859,1,8,0:0:0:0:
256,192,23144,1,0,0:0:0:0:
256,192,23287,1,8,0:0:0:0:
256,192,23359,1,8,0:0:0:0:
256,192,23430,1,8,0:0:0:0:
256,192,23573,1,0,0:0:0:0:
256,192,23858,1,8,0:0:0:0:
256,192,24144,1,8,0:0:0:0:
256,192,24239,1,8,0:0:0:0:
256,192,24334,1,8,0:0:0:0:
256,192,25001,1,0,0:0:0:0:
256,192,25287,1,8,0:0:0:0:
256,192,25430,1,8,0:0:0:0:
256,192,25715,1,0,0:0:0:0:
256,192,25858,1,8,0:0:0:0:
256,192,25930,1,8,0:0:0:0:
256,192,26001,1,8,0:0:0:0:
256,192,26145,1,0,0:0:0:0:
256,192,26430,1,8,0:0:0:0:
256,192,26716,1,8,0:0:0:0:
256,192,26859,1,8,0:0:0:0:
256,192,27002,1,0,0:0:0:0:
256,192,27192,1,8,0:0:0:0:
256,192,27287,1,8,0:0:0:0:
256,192,27383,1,8,0:0:0:0:
256,192,27573,1,0,0:0:0:0:
256,192,27858,1,8,0:0:0:0:
256,192,28001,1,0,0:0:0:0:
256,192,28144,1,8,0:0:0:0:
256,192,28215,1,8,0:0:0:0:
256,192,28287,1,0,0:0:0:0:
256,192,28715,1,8,0:0:0:0:
256,192,29001,1,0,0:0:0:0:
256,192,29287,1,0,0:0:0:0:
256,192,29573,1,8,0:0:0:0:
256,192,29858,1,0,0:0:0:0:
256,192,29930,1,0,0:0:0:0:
256,192,30001,1,0,0:0:0:0:
256,192,30144,1,8,0:0:0:0:
256,192,31001,5,8,0:0:0:0:
256,192,31144,1,8,0:0:0:0:
256,192,31287,1,0,0:0:0:0:
256,192,31430,1,8,0:0:0:0:
256,192,31501,1,8,0:0:0:0:
256,192,31573,1,0,0:0:0:0:
256,192,31715,1,8,0:0:0:0:
256,192,31787,1,8,0:0:0:0:
256,192,31858,1,0,0:0:0:0:
256,192,32001,1,8,0:0:0:0:
256,192,32073,1,8,0:0:0:0:
256,192,32144,1,0,0:0:0:0:
256,192,32287,1,8,0:0:0:0:
256,192,32430,1,8,0:0:0:0:
256,192,32501,1,8,0:0:0:0:
256,192,32573,1,8,0:0:0:0:
256,192,32715,1,8,0:0:0:0:
256,192,32787,1,8,0:0:0:0:
256,192,32858,1,8,0:0:0:0:
256,192,33001,1,8,0:0:0:0:
256,192,33073,1,8,0:0:0:0:
256,192,33144,1,8,0:0:0:0:
256,192,33287,1,8,0:0:0:0:
256,192,33429,1,0,0:0:0:0:
256,192,33501,1,0,0:0:0:0:
256,192,33572,1,8,0:0:0:0:
256,192,33715,1,0,0:0:0:0:
256,192,33787,1,0,0:0:0:0:
256,192,33858,1,8,0:0:0:0:
256,192,34002,1,0,0:0:0:0:
256,192,34144,1,0,0:0:0:0:
256,192,34287,1,8,0:0:0:0:
256,192,34502,1,8,0:0:0:0:
256,192,34573,1,8,0:0:0:0:
256,192,34716,1,8,0:0:0:0:
256,192,34930,1,8,0:0:0:0:
256,192,35073,1,8,0:0:0:0:
256,192,35145,1,0,0:0:0:0:
256,192,35287,1,0,0:0:0:0:
256,192,35430,1,0,0:0:0:0:
256,192,35573,1,0,0:0:0:0:
256,192,35716,1,8,0:0:0:0:
256,192,35787,1,8,0:0:0:0:
256,192,35859,1,0,0:0:0:0:
256,192,36002,1,8,0:0:0:0:
256,192,36145,1,0,0:0:0:0:
256,192,36216,1,0,0:0:0:0:
256,192,36287,1,8,0:0:0:0:
256,192,36573,1,0,0:0:0:0:
256,192,36858,1,8,0:0:0:0:
256,192,37001,1,8,0:0:0:0:
256,192,37144,1,8,0:0:0:0:
256,192,37287,1,0,0:0:0:0:
256,192,37358,1,0,0:0:0:0:
256,192,37430,1,8,0:0:0:0:
256,192,37715,1,0,0:0:0:0:
256,192,37858,1,8,0:0:0:0:
256,192,38144,1,0,0:0:0:0:
256,192,38287,1,8,0:0:0:0:
256,192,38430,1,8,0:0:0:0:
256,192,38715,1,8,0:0:0:0:
256,192,38858,1,0,0:0:0:0:
256,192,39144,1,8,0:0:0:0:
256,192,39287,1,8,0:0:0:0:
256,192,39430,1,0,0:0:0:0:
256,192,39573,1,8,0:0:0:0:
256,192,39716,1,8,0:0:0:0:
256,192,40002,1,8,0:0:0:0:
256,192,40288,1,0,0:0:0:0:
256,192,40502,1,0,0:0:0:0:
256,192,40573,1,8,0:0:0:0:
256,192,40716,1,0,0:0:0:0:
256,192,40859,1,8,0:0:0:0:
256,192,41073,1,8,0:0:0:0:
256,192,41145,1,0,0:0:0:0:
256,192,41288,1,0,0:0:0:0:
256,192,41430,1,8,0:0:0:0:
256,192,41716,1,0,0:0:0:0:
256,192,41788,1,8,0:0:0:0:
256,192,41930,1,8,0:0:0:0:
256,192,42002,1,0,0:0:0:0:
256,192,42145,1,8,0:0:0:0:
256,192,42288,1,0,0:0:0:0:
256,192,42502,1,0,0:0:0:0:
256,192,42573,1,8,0:0:0:0:
256,192,42716,1,0,0:0:0:0:
256,192,42859,1,8,0:0:0:0:
256,192,43073,1,8,0:0:0:0:
256,192,43145,1,0,0:0:0:0:
256,192,43288,1,0,0:0:0:0:
256,192,43430,1,8,0:0:0:0:
256,192,43716,1,8,0:0:0:0:
256,192,43859,1,8,0:0:0:0:
256,192,44002,1,0,0:0:0:0:
256,192,44288,1,0,0:0:0:0:
256,192,44502,1,0,0:0:0:0:
256,192,44573,1,8,0:0:0:0:
256,192,44716,1,0,0:0:0:0:
256,192,44859,1,8,0:0:0:0:
256,192,45073,1,8,0:0:0:0:
256,192,45145,1,0,0:0:0:0:
256,192,45288,1,0,0:0:0:0:
256,192,45430,1,8,0:0:0:0:
256,192,45645,1,0,0:0:0:0:
256,192,45716,1,8,0:0:0:0:
256,192,45859,1,0,0:0:0:0:
256,192,46002,1,8,0:0:0:0:
256,192,46216,1,8,0:0:0:0:
256,192,46288,1,0,0:0:0:0:
256,192,46430,1,0,0:0:0:0:
256,192,46573,1,8,0:0:0:0:
256,192,46644,1,0,0:0:0:0:
256,192,46715,1,8,0:0:0:0:
256,192,46858,1,0,0:0:0:0:
256,192,46930,1,8,0:0:0:0:
256,192,47001,1,0,0:0:0:0:
256,192,47144,1,8,0:0:0:0:
256,192,47287,1,0,0:0:0:0:
256,192,48002,1,0,0:0:0:0:
256,192,48287,1,8,0:0:0:0:
256,192,48430,1,0,0:0:0:0:
256,192,48573,1,8,0:0:0:0:
256,192,48716,1,8,0:0:0:0:
256,192,48859,1,0,0:0:0:0:
256,192,49002,1,8,0:0:0:0:
256,192,49144,1,0,0:0:0:0:
256,192,49430,1,8,0:0:0:0:
256,192,49573,1,0,0:0:0:0:
256,192,49644,1,0,0:0:0:0:
256,192,49716,1,0,0:0:0:0:
256,192,49859,1,8,0:0:0:0:
256,192,50144,1,8,0:0:0:0:
256,192,50287,1,0,0:0:0:0:
256,192,50573,1,8,0:0:0:0:
256,192,50716,1,0,0:0:0:0:
256,192,50859,1,8,0:0:0:0:
256,192,51002,1,8,0:0:0:0:
256,192,51144,1,0,0:0:0:0:
256,192,51287,1,8,0:0:0:0:
256,192,51359,1,8,0:0:0:0:
256,192,51430,1,0,0:0:0:0:
256,192,51716,1,8,0:0:0:0:
256,192,51859,1,8,0:0:0:0:
256,192,52144,1,0,0:0:0:0:
256,192,52287,1,8,0:0:0:0:
256,192,52382,1,8,0:0:0:0:
256,192,52573,1,0,0:0:0:0:
256,192,52859,1,8,0:0:0:0:
256,192,53002,1,0,0:0:0:0:
256,192,53144,1,8,0:0:0:0:
256,192,53287,1,8,0:0:0:0:
256,192,53430,1,0,0:0:0:0:
256,192,53573,1,8,0:0:0:0:
256,192,53716,1,0,0:0:0:0:
256,192,54002,1,8,0:0:0:0:
256,192,54144,1,0,0:0:0:0:
256,192,54216,1,0,0:0:0:0:
256,192,54287,1,0,0:0:0:0:
256,192,54430,1,8,0:0:0:0:
256,192,54573,1,0,0:0:0:0:
256,192,54859,1,0,0:0:0:0:
256,192,55002,1,8,0:0:0:0:
256,192,55144,1,8,0:0:0:0:
256,192,55287,1,0,0:0:0:0:
256,192,55430,1,8,0:0:0:0:
256,192,55573,1,8,0:0:0:0:
256,192,55716,1,0,0:0:0:0:
256,192,55859,1,8,0:0:0:0:
256,192,55930,1,8,0:0:0:0:
256,192,56002,1,0,0:0:0:0:
256,192,56287,1,8,0:0:0:0:
256,192,56430,1,8,0:0:0:0:
256,192,56716,1,0,0:0:0:0:
256,192,56859,1,8,0:0:0:0:
256,192,56954,1,8,0:0:0:0:
256,192,57144,1,0,0:0:0:0:
256,192,57430,1,8,0:0:0:0:
256,192,57573,1,0,0:0:0:0:
256,192,57716,1,8,0:0:0:0:
256,192,57859,1,8,0:0:0:0:
256,192,58002,1,0,0:0:0:0:
256,192,58144,1,8,0:0:0:0:
256,192,58287,1,0,0:0:0:0:
256,192,58573,1,8,0:0:0:0:
256,192,58716,1,0,0:0:0:0:
256,192,58787,1,0,0:0:0:0:
256,192,58859,1,0,0:0:0:0:
256,192,59002,1,8,0:0:0:0:
256,192,59287,1,8,0:0:0:0:
256,192,59430,1,0,0:0:0:0:
256,192,59716,1,8,0:0:0:0:
256,192,59859,1,0,0:0:0:0:
256,192,60002,1,8,0:0:0:0:
256,192,60144,1,8,0:0:0:0:
256,192,60287,1,0,0:0:0:0:
256,192,60430,1,8,0:0:0:0:
256,192,60502,1,8,0:0:0:0:
256,192,60573,1,0,0:0:0:0:
256,192,60859,1,8,0:0:0:0:
256,192,61002,1,8,0:0:0:0:
256,192,61287,1,0,0:0:0:0:
256,192,61430,1,8,0:0:0:0:
256,192,61525,1,8,0:0:0:0:
256,192,61716,1,0,0:0:0:0:
256,192,62002,1,8,0:0:0:0:
256,192,62144,1,0,0:0:0:0:
256,192,62287,1,8,0:0:0:0:
256,192,62430,1,8,0:0:0:0:
256,192,62573,1,0,0:0:0:0:
256,192,62716,1,8,0:0:0:0:
256,192,62859,1,0,0:0:0:0:
256,192,63144,1,8,0:0:0:0:
256,192,63287,1,0,0:0:0:0:
256,192,63359,1,0,0:0:0:0:
256,192,63430,1,0,0:0:0:0:
256,192,63573,1,8,0:0:0:0:
256,192,63716,1,0,0:0:0:0:
256,192,64002,1,0,0:0:0:0:
256,192,64144,1,8,0:0:0:0:
256,192,64287,1,8,0:0:0:0:
256,192,64430,1,0,0:0:0:0:
256,192,64573,1,8,0:0:0:0:
256,192,64716,1,8,0:0:0:0:
256,192,64859,1,0,0:0:0:0:
256,192,65002,1,8,0:0:0:0:
256,192,65144,1,8,0:0:0:0:
256,192,65430,1,8,0:0:0:0:
256,192,65573,1,8,0:0:0:0:
256,192,65859,1,0,0:0:0:0:
256,192,66002,1,8,0:0:0:0:
256,192,66097,1,8,0:0:0:0:
256,192,66287,1,0,0:0:0:0:
256,192,66430,1,8,0:0:0:0:
256,192,66572,1,8,0:0:0:0:
256,192,66858,1,8,0:0:0:0:
256,192,67001,1,8,0:0:0:0:
256,192,67288,1,8,0:0:0:0:
256,192,67430,1,8,0:0:0:0:
256,192,67716,1,8,0:0:0:0:
256,192,67859,1,8,0:0:0:0:
256,192,68430,1,8,0:0:0:0:
256,192,68572,1,8,0:0:0:0:
256,192,68715,1,0,0:0:0:0:
256,192,68858,1,8,0:0:0:0:
256,192,69001,1,8,0:0:0:0:
256,192,69287,1,8,0:0:0:0:
256,192,69430,1,8,0:0:0:0:
256,192,69572,1,0,0:0:0:0:
256,192,69715,1,8,0:0:0:0:
256,192,69858,1,8,0:0:0:0:
256,192,70144,1,8,0:0:0:0:
256,192,70287,1,8,0:0:0:0:
256,192,70430,1,0,0:0:0:0:
256,192,70572,1,8,0:0:0:0:
256,192,70715,1,8,0:0:0:0:
256,192,71001,1,8,0:0:0:0:
256,192,71144,1,8,0:0:0:0:
256,192,71287,1,0,0:0:0:0:
256,192,71430,1,8,0:0:0:0:
256,192,71572,1,8,0:0:0:0:
256,192,78001,5,8,0:0:0:0:
256,192,78228,1,0,0:0:0:0:
256,192,78370,1,0,0:0:0:0:
256,192,78513,1,8,0:0:0:0:
256,192,78728,1,8,0:0:0:0:
256,192,78799,1,8,0:0:0:0:
256,192,78942,1,8,0:0:0:0:
256,192,79156,1,8,0:0:0:0:
256,192,79299,1,8,0:0:0:0:
256,192,79370,1,0,0:0:0:0:
256,192,79513,1,0,0:0:0:0:
256,192,79656,1,0,0:0:0:0:
256,192,79799,1,0,0:0:0:0:
256,192,79942,1,8,0:0:0:0:
256,192,80013,1,8,0:0:0:0:
256,192,80085,1,0,0:0:0:0:
256,192,80228,1,0,0:0:0:0:
256,192,80656,1,8,0:0:0:0:
256,192,81085,1,0,0:0:0:0:
256,192,81370,1,8,0:0:0:0:
256,192,81513,1,0,0:0:0:0:
256,192,81942,1,8,0:0:0:0:
256,192,82085,1,0,0:0:0:0:
256,192,82156,1,0,0:0:0:0:
256,192,82228,1,8,0:0:0:0:
256,192,82370,1,8,0:0:0:0:
256,192,82513,1,0,0:0:0:0:
256,192,82942,1,0,0:0:0:0:
256,192,83085,1,8,0:0:0:0:
256,192,83370,1,0,0:0:0:0:
256,192,83656,1,8,0:0:0:0:
256,192,83799,1,0,0:0:0:0:
256,192,83942,1,8,0:0:0:0:
256,192,84228,1,8,0:0:0:0:
256,192,84299,1,8,0:0:0:0:
256,192,84370,1,0,0:0:0:0:
256,192,84513,1,8,0:0:0:0:
256,192,84799,1,0,0:0:0:0:
256,192,84942,1,8,0:0:0:0:
256,192,85228,1,0,0:0:0:0:
256,192,85370,1,0,0:0:0:0:
256,192,85656,1,0,0:0:0:0:
256,192,85799,1,0,0:0:0:0:
256,192,85942,1,8,0:0:0:0:
256,192,86013,1,0,0:0:0:0:
256,192,86085,1,0,0:0:0:0:
256,192,86228,1,8,0:0:0:0:
256,192,86299,1,0,0:0:0:0:
256,192,86370,1,0,0:0:0:0:
256,192,86513,1,8,0:0:0:0:
256,192,86585,1,0,0:0:0:0:
256,192,86728,1,8,0:0:0:0:
256,192,86799,1,0,0:0:0:0:
256,192,86942,1,8,0:0:0:0:
256,192,87013,1,8,0:0:0:0:
256,192,87085,1,0,0:0:0:0:
256,192,87228,1,8,0:0:0:0:
256,192,87513,1,0,0:0:0:0:
256,192,87656,1,0,0:0:0:0:
256,192,87942,1,0,0:0:0:0:
256,192,88085,1,0,0:0:0:0:
256,192,88228,1,8,0:0:0:0:
256,192,88370,1,0,0:0:0:0:
256,192,88513,1,0,0:0:0:0:
256,192,88656,1,8,0:0:0:0:
256,192,88799,1,8,0:0:0:0:
256,192,89085,1,0,0:0:0:0:
256,192,89370,1,8,0:0:0:0:
256,192,89466,1,8,0:0:0:0:
256,192,89561,1,0,0:0:0:0:
256,192,89656,1,0,0:0:0:0:
256,192,89751,1,8,0:0:0:0:
256,192,89942,1,0,0:0:0:0:
256,192,90037,1,0,0:0:0:0:
256,192,90132,1,8,0:0:0:0:
256,192,90228,1,8,0:0:0:0:
256,192,90323,1,0,0:0:0:0:
256,192,90513,1,8,0:0:0:0:
256,192,90703,1,0,0:0:0:0:
256,192,90798,1,8,0:0:0:0:
256,192,90989,1,8,0:0:0:0:
256,192,91084,1,0,0:0:0:0:
256,192,91370,1,0,0:0:0:0:
256,192,91465,1,0,0:0:0:0:
256,192,91560,1,8,0:0:0:0:
256,192,91751,1,0,0:0:0:0:
256,192,92036,1,0,0:0:0:0:
256,192,92322,1,0,0:0:0:0:
256,192,92512,1,8,0:0:0:0:
256,192,92608,1,0,0:0:0:0:
256,192,92703,1,0,0:0:0:0:
256,192,92798,1,0,0:0:0:0:
256,192,92893,1,8,0:0:0:0:
256,192,93084,1,8,0:0:0:0:
256,192,93274,1,8,0:0:0:0:
256,192,93465,1,8,0:0:0:0:
256,192,93560,1,8,0:0:0:0:
256,192,93656,1,0,0:0:0:0:
256,192,94513,1,8,0:0:0:0:
256,192,94584,1,8,0:0:0:0:
256,192,94656,1,8,0:0:0:0:
256,192,94727,1,8,0:0:0:0:
256,192,94799,1,0,0:0:0:0:
256,192,95370,1,8,0:0:0:0:
256,192,95441,1,8,0:0:0:0:
256,192,95513,1,8,0:0:0:0:
256,192,95584,1,8,0:0:0:0:
256,192,95656,1,0,0:0:0:0:
256,192,95846,1,0,0:0:0:0:
256,192,96037,1,0,0:0:0:0:
256,192,96228,1,8,0:0:0:0:
256,192,96323,1,0,0:0:0:0:
256,192,96418,1,8,0:0:0:0:
256,192,96513,1,0,0:0:0:0:
256,192,96608,1,8,0:0:0:0:
256,192,96799,1,8,0:0:0:0:
256,192,96894,1,8,0:0:0:0:
256,192,96989,1,0,0:0:0:0:
256,192,97085,1,0,0:0:0:0:
256,192,97180,1,8,0:0:0:0:
256,192,97370,1,0,0:0:0:0:
256,192,98228,1,8,0:0:0:0:
256,192,98299,1,8,0:0:0:0:
256,192,98370,1,8,0:0:0:0:
256,192,98442,1,8,0:0:0:0:
256,192,98513,1,0,0:0:0:0:
256,192,99370,1,8,0:0:0:0:
256,192,99442,1,8,0:0:0:0:
256,192,99513,1,8,0:0:0:0:
256,192,99585,1,8,0:0:0:0:
256,192,99656,1,0,0:0:0:0:
256,192,100799,1,0,0:0:0:0:
256,192,101370,1,0,0:0:0:0:
256,192,101656,1,8,0:0:0:0:
256,192,101942,1,0,0:0:0:0:
256,192,102085,1,0,0:0:0:0:
256,192,102156,1,0,0:0:0:0:
256,192,102228,1,8,0:0:0:0:
256,192,102370,1,8,0:0:0:0:
256,192,102513,1,0,0:0:0:0:
256,192,102656,1,8,0:0:0:0:
256,192,102799,1,0,0:0:0:0:
256,192,102870,1,8,0:0:0:0:
256,192,102942,1,0,0:0:0:0:
256,192,103085,1,8,0:0:0:0:
256,192,103370,1,0,0:0:0:0:
256,192,103513,1,8,0:0:0:0:
256,192,103656,1,8,0:0:0:0:
256,192,103799,1,8,0:0:0:0:
256,192,103942,1,0,0:0:0:0:
256,192,104228,1,0,0:0:0:0:
256,192,104370,1,0,0:0:0:0:
256,192,104442,1,0,0:0:0:0:
256,192,104513,1,8,0:0:0:0:
256,192,104656,1,8,0:0:0:0:
256,192,104799,1,0,0:0:0:0:
256,192,104942,1,0,0:0:0:0:
256,192,105085,1,8,0:0:0:0:
256,192,105370,1,8,0:0:0:0:
256,192,105466,1,8,0:0:0:0:
256,192,105561,1,0,0:0:0:0:
256,192,105799,1,0,0:0:0:0:
256,192,106085,1,0,0:0:0:0:
256,192,106228,1,8,0:0:0:0:
256,192,106513,1,2,0:0:0:0:
256,192,106656,1,0,0:0:0:0:
256,192,106799,1,2,0:0:0:0:
256,192,106942,1,0,0:0:0:0:
256,192,107085,1,2,0:0:0:0:
256,192,107228,1,2,0:0:0:0:
256,192,107370,1,2,0:0:0:0:
256,192,107656,1,2,0:0:0:0:
256,192,107799,1,0,0:0:0:0:
256,192,107942,1,2,0:0:0:0:
256,192,108085,1,0,0:0:0:0:
256,192,108228,1,2,0:0:0:0:
256,192,108370,1,2,0:0:0:0:
256,192,108513,1,0,0:0:0:0:
256,192,108799,1,0,0:0:0:0:
256,192,108942,1,8,0:0:0:0:
256,192,109085,1,8,0:0:0:0:
256,192,109370,1,8,0:0:0:0:
256,192,109513,1,8,0:0:0:0:
256,192,109656,1,0,0:0:0:0:
256,192,109728,1,0,0:0:0:0:
256,192,109799,1,0,0:0:0:0:
256,192,109870,1,0,0:0:0:0:
256,192,109942,1,8,0:0:0:0:
256,192,110132,1,8,0:0:0:0:
256,192,110323,1,0,0:0:0:0:
256,192,110418,1,0,0:0:0:0:
256,192,110513,1,8,0:0:0:0:
256,192,111085,1,0,0:0:0:0:
256,192,111228,1,8,0:0:0:0:
256,192,111370,1,8,0:0:0:0:
256,192,111513,1,0,0:0:0:0:
256,192,111585,1,0,0:0:0:0:
256,192,111656,1,8,0:0:0:0:
256,192,111728,1,0,0:0:0:0:
256,192,111799,1,8,0:0:0:0:
256,192,111942,1,0,0:0:0:0:
256,192,112084,1,8,0:0:0:0:
256,192,112156,1,0,0:0:0:0:
256,192,112227,1,8,0:0:0:0:
256,192,112370,1,8,0:0:0:0:
256,192,112513,1,0,0:0:0:0:
256,192,112656,1,8,0:0:0:0:
256,192,113085,1,0,0:0:0:0:
256,192,113227,1,8,0:0:0:0:
256,192,113370,1,0,0:0:0:0:
256,192,113513,1,0,0:0:0:0:
256,192,113585,1,0,0:0:0:0:
256,192,113656,1,8,0:0:0:0:
256,192,113727,1,8,0:0:0:0:
256,192,113799,1,0,0:0:0:0:
256,192,113942,1,0,0:0:0:0:
256,192,114085,1,8,0:0:0:0:
256,192,114156,1,0,0:0:0:0:
256,192,114227,1,8,0:0:0:0:
256,192,114299,1,0,0:0:0:0:
256,192,114370,1,8,0:0:0:0:
256,192,114513,1,8,0:0:0:0:
256,192,114799,1,0,0:0:0:0:
256,192,115085,1,8,0:0:0:0:
256,192,115370,1,8,0:0:0:0:
256,192,115513,1,8,0:0:0:0:
256,192,115656,1,8,0:0:0:0:
256,192,115942,1,8,0:0:0:0:
256,192,116085,1,8,0:0:0:0:
256,192,116369,1,8,0:0:0:0:
256,192,116512,1,8,0:0:0:0:
256,192,116655,1,8,0:0:0:0:
256,192,116941,1,8,0:0:0:0:
256,192,117227,1,8,0:0:0:0:
256,192,117512,1,8,0:0:0:0:
256,192,117655,1,0,0:0:0:0:
256,192,117798,1,0,0:0:0:0:
256,192,117941,1,8,0:0:0:0:
256,192,118084,1,0,0:0:0:0:
256,192,118155,1,0,0:0:0:0:
256,192,118227,1,0,0:0:0:0:
256,192,118298,1,0,0:0:0:0:
256,192,118369,1,8,0:0:0:0:
256,192,118512,1,0,0:0:0:0:
256,192,118655,1,0,0:0:0:0:
256,192,118798,1,8,0:0:0:0:
256,192,119085,1,0,0:0:0:0:
256,192,119227,1,0,0:0:0:0:
256,192,119370,1,8,0:0:0:0:
256,192,119656,1,8,0:0:0:0:
256,192,119751,1,8,0:0:0:0:
256,192,119846,1,0,0:0:0:0:
256,192,119942,1,0,0:0:0:0:
256,192,120037,1,8,0:0:0:0:
256,192,120227,1,0,0:0:0:0:
256,192,120323,1,0,0:0:0:0:
256,192,120418,1,8,0:0:0:0:
256,192,120513,1,8,0:0:0:0:
256,192,120608,1,0,0:0:0:0:
256,192,120799,1,8,0:0:0:0:
256,192,120989,1,0,0:0:0:0:
256,192,121085,1,8,0:0:0:0:
256,192,121275,1,8,0:0:0:0:
256,192,121370,1,8,0:0:0:0:
256,192,121465,1,0,0:0:0:0:
256,192,121656,1,8,0:0:0:0:
256,192,121942,1,0,0:0:0:0:
256,192,122037,1,0,0:0:0:0:
256,192,122227,1,8,0:0:0:0:
256,192,122418,1,0,0:0:0:0:
256,192,122513,1,8,0:0:0:0:
256,192,122608,1,0,0:0:0:0:
256,192,122799,1,0,0:0:0:0:
256,192,122894,1,0,0:0:0:0:
256,192,122989,1,8,0:0:0:0:
256,192,123180,1,0,0:0:0:0:
256,192,123275,1,8,0:0:0:0:
256,192,123370,1,0,0:0:0:0:
256,192,123561,1,8,0:0:0:0:
256,192,123656,1,8,0:0:0:0:
256,192,123751,1,0,0:0:0:0:
256,192,123942,1,0,0:0:0:0:
256,192,124132,1,8,0:0:0:0:
256,192,124323,1,8,0:0:0:0:
256,192,124513,1,0,0:0:0:0:
256,192,124656,1,8,0:0:0:0:
256,192,124799,1,0,0:0:0:0:
256,192,124870,1,0,0:0:0:0:
256,192,124942,1,8,0:0:0:0:
256,192,125013,1,8,0:0:0:0:
256,192,125085,1,0,0:0:0:0:
256,192,125227,1,8,0:0:0:0:
256,192,125370,1,8,0:0:0:0:
256,192,125513,1,0,0:0:0:0:
256,192,125656,1,8,0:0:0:0:
256,192,125942,1,0,0:0:0:0:
256,192,126085,1,8,0:0:0:0:
256,192,126227,1,8,0:0:0:0:
256,192,126370,1,0,0:0:0:0:
256,192,126513,1,8,0:0:0:0:
256,192,126799,1,0,0:0:0:0:
256,192,126942,1,8,0:0:0:0:
256,192,127085,1,8,0:0:0:0:
256,192,127227,1,0,0:0:0:0:
256,192,127370,1,8,0:0:0:0:
256,192,127656,1,0,0:0:0:0:
256,192,127727,1,0,0:0:0:0:
256,192,127798,1,0,0:0:0:0:
256,192,127870,1,0,0:0:0:0:
256,192,127941,1,8,0:0:0:0:
256,192,128013,1,8,0:0:0:0:
256,192,128084,1,8,0:0:0:0:
256,192,128156,1,8,0:0:0:0:
256,192,128228,1,0,0:0:0:0:
256,192,128799,1,0,0:0:0:0:
256,192,129370,1,0,0:0:0:0:
256,192,129942,1,0,0:0:0:0:
