osu file format v14

[General]
AudioFilename: audio.mp3
AudioLeadIn: 0
PreviewTime: 101942
Countdown: 0
SampleSet: Normal
StackLeniency: 0.2
Mode: 1
LetterboxInBreaks: 0
WidescreenStoryboard: 0

[Editor]
DistanceSpacing: 1
BeatDivisor: 2
GridSize: 32
TimelineZoom: 2.899999

[Metadata]
Title:LOSHAXI -HACK-
TitleUnicode:LOSHAXI -HACK-
Artist:Se-U-Ra
ArtistUnicode:せゆーら
Creator:Genjuro
Version:Futsuu
Source:
Tags:tree called elif electronic instrumental experimental piano
BeatmapID:2288747
BeatmapSetID:1094418

[Difficulty]
HPDrainRate:7
CircleSize:2
OverallDifficulty:3
ApproachRate:10
SliderMultiplier:1.4
SliderTickRate:1

[Events]
//Background and Video events
0,0,"bg.jpg",0,0
//Break Periods
2,71930,77359
//Storyboard Layer 0 (Background)
//Storyboard Layer 1 (Fail)
//Storyboard Layer 2 (Pass)
//Storyboard Layer 3 (Foreground)
//Storyboard Layer 4 (Overlay)
//Storyboard Sound Samples

[TimingPoints]
1127,887.573964497042,4,1,0,100,1,0
1127,-32.1905681635281,4,1,0,100,0,0
4677,402.684563758389,4,1,0,100,1,0
4677,-70.9524299433445,4,1,0,100,0,0
6287,285.714285714286,6,1,0,100,1,8
6288,285.714285714286,6,1,0,100,1,0
7859,285.714285714286,4,1,0,100,1,0
12287,285.714285714286,6,1,0,100,1,8
12288,285.714285714286,5,1,0,100,1,0
15144,285.714285714286,3,1,0,100,1,8
15145,285.714285714286,8,1,0,100,1,0
17287,285.714285714286,6,1,0,100,1,8
17288,285.714285714286,4,1,0,100,1,0
18430,285.714285714286,5,1,0,100,1,0
21001,285.714285714286,6,1,0,100,1,8
21002,285.714285714286,5,1,0,100,1,0
23573,285.714285714286,5,1,0,100,1,0
26144,285.714285714286,6,1,0,100,1,8
26145,285.714285714286,5,1,0,100,1,0
27573,285.714285714286,4,1,0,100,1,0
33287,285.714285714286,3,1,0,100,1,8
34001,285.714285714286,6,1,0,100,1,8
34002,285.714285714286,4,1,0,100,1,0
35144,285.714285714286,6,1,0,100,1,8
35145,285.714285714286,5,1,0,100,1,0
36573,285.714285714286,6,1,0,100,1,0
39144,285.714285714286,6,1,0,100,1,8
39145,285.714285714286,4,1,0,100,1,0
40287,285.714285714286,6,1,0,100,1,8
40288,285.714285714286,7,1,0,100,1,0
44288,285.714285714286,4,1,0,100,1,0
46573,285.714285714286,5,1,0,100,1,0
48001,285.714285714286,6,1,0,100,1,8
48002,285.714285714286,4,1,0,100,1,0
66287,285.714285714286,4,1,0,100,1,8
66430,285.714285714286,3,1,0,100,1,0
67287,285.714285714286,6,1,0,100,1,8
67288,285.714285714286,4,1,0,100,1,0
68430,285.714285714286,3,1,0,100,1,0
71858,285.714285714286,6,1,0,100,1,8
71859,285.714285714286,22,1,0,100,1,0
78001,303.030303030303,22,1,0,100,1,8
78001,-94.2857196734697,22,1,0,100,0,8
78228,285.714285714286,4,1,0,100,1,0
80228,285.714285714286,4,1,0,100,1,0
90513,285.714285714286,5,1,0,100,1,0
91751,285.714285714286,7,1,0,100,1,0
93655,285.714285714286,4,1,0,100,1,8
93656,285.714285714286,4,1,0,100,1,0
94798,285.714285714286,4,1,0,100,1,8
94799,285.714285714286,5,1,0,100,1,0
96227,285.714285714286,4,1,0,100,1,8
96228,285.714285714286,4,1,0,100,1,0
101942,-100,4,1,0,100,0,1
105370,-100,4,1,0,100,0,0
106513,-100,4,1,0,100,0,1
108513,-100,4,1,0,100,0,0
111085,-100,4,1,0,100,0,1
111942,285.714285714286,4,1,0,100,1,1
113084,285.714285714286,4,1,0,100,1,9
113085,285.714285714286,7,1,0,100,1,1
115085,285.714285714286,4,1,0,100,1,0
116227,285.714285714286,5,1,0,100,1,0
117655,-100,4,1,0,100,0,1
119084,285.714285714286,3,1,0,100,1,9
119085,285.714285714286,3,1,0,100,1,0
127656,285.714285714286,3,1,0,100,1,8
128227,285.714285714286,4,1,0,100,1,8
128228,285.714285714286,4,1,0,100,1,1
130513,-100,4,1,0,100,0,0

[HitObjects]
256,192,1127,8,0,3789,0:0:0:0:
256,192,4677,5,4,0:0:0:0:
256,192,6288,1,0,0:0:0:0:
256,192,6573,1,8,0:0:0:0:
256,192,7859,1,0,0:0:0:0:
256,192,8144,1,8,0:0:0:0:
256,192,8430,1,0,0:0:0:0:
256,192,9001,1,0,0:0:0:0:
256,192,9573,1,0,0:0:0:0:
256,192,9859,1,8,0:0:0:0:
256,192,10144,1,8,0:0:0:0:
256,192,10716,1,0,0:0:0:0:
256,192,11287,1,0,0:0:0:0:
256,192,11573,1,8,0:0:0:0:
256,192,12288,1,8,0:0:0:0:
256,192,12430,1,8,0:0:0:0:
256,192,13145,1,8,0:0:0:0:
256,192,13716,1,8,0:0:0:0:
256,192,14430,1,8,0:0:0:0:
256,192,14573,1,8,0:0:0:0:
256,192,15145,1,8,0:0:0:0:
256,192,15430,1,8,0:0:0:0:
256,192,15573,1,8,0:0:0:0:
256,192,15859,8,0,16966,0:0:0:0:
256,192,17288,5,0,0:0:0:0:
256,192,17573,1,8,0:0:0:0:
256,192,18002,1,0,0:0:0:0:
256,192,18430,1,0,0:0:0:0:
256,192,18715,1,8,0:0:0:0:
256,192,19287,1,0,0:0:0:0:
256,192,19858,1,0,0:0:0:0:
256,192,20144,1,8,0:0:0:0:
256,192,20572,1,0,0:0:0:0:
256,192,21002,1,0,0:0:0:0:
256,192,21287,1,8,0:0:0:0:
256,192,21859,1,8,0:0:0:0:
256,192,22430,1,0,0:0:0:0:
256,192,22716,1,8,0:0:0:0:
256,192,23144,1,0,0:0:0:0:
256,192,23573,1,0,0:0:0:0:
256,192,23858,1,8,0:0:0:0:
256,192,24430,1,0,0:0:0:0:
256,192,25001,1,0,0:0:0:0:
256,192,25287,1,8,0:0:0:0:
256,192,25715,1,0,0:0:0:0:
256,192,26145,1,0,0:0:0:0:
256,192,26430,1,8,0:0:0:0:
256,192,27002,1,8,0:0:0:0:
256,192,27573,1,0,0:0:0:0:
256,192,28001,1,0,0:0:0:0:
256,192,28287,1,0,0:0:0:0:
256,192,28715,1,8,0:0:0:0:
256,192,29001,1,0,0:0:0:0:
256,192,29287,1,0,0:0:0:0:
256,192,30144,1,8,0:0:0:0:
256,192,31001,1,0,0:0:0:0:
256,192,31573,1,8,0:0:0:0:
256,192,31858,1,8,0:0:0:0:
256,192,32144,1,0,0:0:0:0:
256,192,32430,1,0,0:0:0:0:
256,192,32573,1,0,0:0:0:0:
256,192,32715,1,0,0:0:0:0:
256,192,33001,1,8,0:0:0:0:
256,192,33287,1,8,0:0:0:0:
256,192,33429,1,8,0:0:0:0:
256,192,33572,1,8,0:0:0:0:
256,192,34002,1,0,0:0:0:0:
256,192,34287,1,8,0:0:0:0:
256,192,34716,1,8,0:0:0:0:
256,192,35145,1,0,0:0:0:0:
256,192,35287,1,0,0:0:0:0:
256,192,35430,1,0,0:0:0:0:
256,192,35716,1,8,0:0:0:0:
256,192,36287,1,8,0:0:0:0:
256,192,36573,1,0,0:0:0:0:
256,192,37001,1,8,0:0:0:0:
256,192,37287,1,0,0:0:0:0:
256,192,37430,1,0,0:0:0:0:
256,192,37715,1,8,0:0:0:0:
256,192,38287,1,0,0:0:0:0:
256,192,38715,1,8,0:0:0:0:
256,192,39145,1,0,0:0:0:0:
256,192,39573,1,0,0:0:0:0:
256,192,40002,1,8,0:0:0:0:
256,192,40288,1,0,0:0:0:0:
256,192,40859,1,8,0:0:0:0:
256,192,41430,1,0,0:0:0:0:
256,192,41573,1,0,0:0:0:0:
256,192,41716,1,0,0:0:0:0:
256,192,42002,1,8,0:0:0:0:
256,192,42288,1,0,0:0:0:0:
256,192,42859,1,8,0:0:0:0:
256,192,43430,1,0,0:0:0:0:
256,192,43716,1,8,0:0:0:0:
256,192,43859,1,8,0:0:0:0:
256,192,44002,1,8,0:0:0:0:
256,192,44288,1,0,0:0:0:0:
256,192,44859,1,8,0:0:0:0:
256,192,45430,1,0,0:0:0:0:
256,192,46002,1,8,0:0:0:0:
256,192,46573,1,0,0:0:0:0:
256,192,46715,1,0,0:0:0:0:
256,192,46858,1,0,0:0:0:0:
256,192,47144,1,8,0:0:0:0:
256,192,48002,1,0,0:0:0:0:
256,192,48287,1,8,0:0:0:0:
256,192,48573,1,8,0:0:0:0:
256,192,48716,1,8,0:0:0:0:
256,192,49002,1,8,0:0:0:0:
256,192,49144,1,0,0:0:0:0:
256,192,49430,1,8,0:0:0:0:
256,192,49859,1,8,0:0:0:0:
256,192,50144,1,8,0:0:0:0:
256,192,50287,1,0,0:0:0:0:
256,192,50573,1,8,0:0:0:0:
256,192,50859,1,8,0:0:0:0:
256,192,51002,1,8,0:0:0:0:
256,192,51430,1,0,0:0:0:0:
256,192,51716,1,8,0:0:0:0:
256,192,52573,1,0,0:0:0:0:
256,192,52859,1,8,0:0:0:0:
256,192,53144,1,8,0:0:0:0:
256,192,53287,1,8,0:0:0:0:
256,192,53716,1,0,0:0:0:0:
256,192,54002,1,8,0:0:0:0:
256,192,54287,1,8,0:0:0:0:
256,192,54430,1,8,0:0:0:0:
256,192,54859,1,0,0:0:0:0:
256,192,55002,1,8,0:0:0:0:
256,192,55144,1,8,0:0:0:0:
256,192,55430,1,8,0:0:0:0:
256,192,55573,1,8,0:0:0:0:
256,192,56002,1,0,0:0:0:0:
256,192,56287,1,8,0:0:0:0:
256,192,57144,1,0,0:0:0:0:
256,192,57430,1,8,0:0:0:0:
256,192,57716,1,8,0:0:0:0:
256,192,57859,1,8,0:0:0:0:
256,192,58144,1,8,0:0:0:0:
256,192,58287,1,0,0:0:0:0:
256,192,58573,1,8,0:0:0:0:
256,192,59002,1,8,0:0:0:0:
256,192,59287,1,8,0:0:0:0:
256,192,59430,1,0,0:0:0:0:
256,192,59716,1,8,0:0:0:0:
256,192,60002,1,8,0:0:0:0:
256,192,60144,1,8,0:0:0:0:
256,192,60573,1,0,0:0:0:0:
256,192,60859,1,8,0:0:0:0:
256,192,61716,1,0,0:0:0:0:
256,192,62002,1,8,0:0:0:0:
256,192,62287,1,8,0:0:0:0:
256,192,62430,1,8,0:0:0:0:
256,192,62859,1,0,0:0:0:0:
256,192,63144,1,8,0:0:0:0:
256,192,63430,1,8,0:0:0:0:
256,192,63573,1,8,0:0:0:0:
256,192,64002,1,0,0:0:0:0:
256,192,64144,1,8,0:0:0:0:
256,192,64287,1,8,0:0:0:0:
256,192,64573,1,8,0:0:0:0:
256,192,64716,1,8,0:0:0:0:
256,192,65002,1,8,0:0:0:0:
256,192,65144,1,8,0:0:0:0:
256,192,65430,1,0,0:0:0:0:
256,192,66430,1,8,0:0:0:0:
256,192,66858,1,8,0:0:0:0:
256,192,67288,1,8,0:0:0:0:
256,192,67716,1,8,0:0:0:0:
256,192,68430,1,8,0:0:0:0:
256,192,68572,1,8,0:0:0:0:
256,192,68858,1,8,0:0:0:0:
256,192,69287,1,8,0:0:0:0:
256,192,69430,1,8,0:0:0:0:
256,192,69715,1,8,0:0:0:0:
256,192,70144,1,8,0:0:0:0:
256,192,70287,1,8,0:0:0:0:
256,192,70572,1,8,0:0:0:0:
256,192,71001,1,8,0:0:0:0:
256,192,71144,1,8,0:0:0:0:
256,192,71430,1,8,0:0:0:0:
256,192,78228,5,0,0:0:0:0:
256,192,78513,1,8,0:0:0:0:
256,192,78942,1,8,0:0:0:0:
256,192,79370,1,0,0:0:0:0:
256,192,79513,1,0,0:0:0:0:
256,192,79656,1,0,0:0:0:0:
256,192,79942,1,8,0:0:0:0:
256,192,80228,1,0,0:0:0:0:
256,192,80656,1,8,0:0:0:0:
256,192,81085,1,0,0:0:0:0:
256,192,81370,1,8,0:0:0:0:
256,192,81942,1,0,0:0:0:0:
256,192,82228,1,8,0:0:0:0:
256,192,82513,1,0,0:0:0:0:
256,192,82942,1,8,0:0:0:0:
256,192,83370,1,0,0:0:0:0:
256,192,83656,1,8,0:0:0:0:
256,192,84228,1,8,0:0:0:0:
256,192,84513,1,8,0:0:0:0:
256,192,84799,1,0,0:0:0:0:
256,192,85228,1,0,0:0:0:0:
256,192,85656,1,0,0:0:0:0:
256,192,85942,1,8,0:0:0:0:
256,192,86228,1,8,0:0:0:0:
256,192,86513,1,0,0:0:0:0:
256,192,87085,1,8,0:0:0:0:
256,192,87513,1,0,0:0:0:0:
256,192,87942,1,0,0:0:0:0:
256,192,88228,1,8,0:0:0:0:
256,192,89370,1,8,0:0:0:0:
256,192,89942,1,0,0:0:0:0:
256,192,90513,1,8,0:0:0:0:
256,192,91751,1,0,0:0:0:0:
256,192,92036,1,0,0:0:0:0:
256,192,92322,1,0,0:0:0:0:
256,192,92893,1,8,0:0:0:0:
256,192,93274,1,8,0:0:0:0:
256,192,93656,1,0,0:0:0:0:
256,192,94513,1,8,0:0:0:0:
256,192,94656,1,8,0:0:0:0:
256,192,94799,1,0,0:0:0:0:
256,192,95370,1,8,0:0:0:0:
256,192,95513,1,8,0:0:0:0:
256,192,95656,1,0,0:0:0:0:
256,192,95941,1,0,0:0:0:0:
256,192,96228,1,0,0:0:0:0:
256,192,96608,1,8,0:0:0:0:
256,192,96799,1,8,0:0:0:0:
256,192,96989,1,8,0:0:0:0:
256,192,97370,1,0,0:0:0:0:
256,192,98228,1,8,0:0:0:0:
256,192,98370,1,8,0:0:0:0:
256,192,98513,1,0,0:0:0:0:
256,192,99370,1,8,0:0:0:0:
256,192,99513,1,8,0:0:0:0:
256,192,99656,1,0,0:0:0:0:
256,192,100799,1,0,0:0:0:0:
256,192,101370,1,0,0:0:0:0:
256,192,101656,1,8,0:0:0:0:
256,192,101942,1,0,0:0:0:0:
256,192,102228,1,8,0:0:0:0:
256,192,102656,1,8,0:0:0:0:
256,192,102799,1,0,0:0:0:0:
256,192,103085,1,0,0:0:0:0:
256,192,103370,1,8,0:0:0:0:
256,192,103942,1,8,0:0:0:0:
256,192,104228,1,0,0:0:0:0:
256,192,104513,1,8,0:0:0:0:
256,192,104656,1,8,0:0:0:0:
256,192,104799,1,8,0:0:0:0:
256,192,105085,1,0,0:0:0:0:
256,192,105370,1,8,0:0:0:0:
256,192,106513,5,2,0:0:0:0:
256,192,106799,1,2,0:0:0:0:
256,192,107085,1,2,0:0:0:0:
256,192,107228,1,2,0:0:0:0:
256,192,107656,1,2,0:0:0:0:
256,192,107942,1,2,0:0:0:0:
256,192,108228,1,2,0:0:0:0:
256,192,108370,1,2,0:0:0:0:
256,192,108799,1,0,0:0:0:0:
256,192,109656,1,0,0:0:0:0:
256,192,109799,1,0,0:0:0:0:
256,192,109942,1,8,0:0:0:0:
256,192,110228,1,0,0:0:0:0:
256,192,110513,1,8,0:0:0:0:
256,192,111085,1,0,0:0:0:0:
256,192,111228,1,8,0:0:0:0:
256,192,111513,1,0,0:0:0:0:
256,192,111656,1,8,0:0:0:0:
256,192,111942,1,0,0:0:0:0:
256,192,112084,1,0,0:0:0:0:
256,192,112227,1,0,0:0:0:0:
256,192,112370,1,8,0:0:0:0:
256,192,112656,1,8,0:0:0:0:
256,192,113085,1,0,0:0:0:0:
256,192,113227,1,0,0:0:0:0:
256,192,113370,1,0,0:0:0:0:
256,192,113656,1,8,0:0:0:0:
256,192,113942,1,8,0:0:0:0:
256,192,114085,1,8,0:0:0:0:
256,192,114227,1,8,0:0:0:0:
256,192,114370,1,8,0:0:0:0:
256,192,114513,1,0,0:0:0:0:
256,192,114799,1,8,0:0:0:0:
256,192,115085,1,0,0:0:0:0:
256,192,117655,5,0,0:0:0:0:
256,192,117798,1,0,0:0:0:0:
256,192,117941,1,0,0:0:0:0:
256,192,118084,1,8,0:0:0:0:
256,192,118369,1,0,0:0:0:0:
256,192,118512,1,0,0:0:0:0:
256,192,118798,1,8,0:0:0:0:
256,192,119085,1,0,0:0:0:0:
256,192,119656,1,8,0:0:0:0:
256,192,120227,1,0,0:0:0:0:
256,192,120799,1,0,0:0:0:0:
256,192,121656,5,8,0:0:0:0:
256,192,122227,1,8,0:0:0:0:
256,192,122608,1,0,0:0:0:0:
256,192,122989,1,8,0:0:0:0:
256,192,123370,1,0,0:0:0:0:
256,192,123751,1,8,0:0:0:0:
256,192,123942,1,0,0:0:0:0:
256,192,124132,1,0,0:0:0:0:
256,192,124513,1,8,0:0:0:0:
256,192,124656,1,8,0:0:0:0:
256,192,124799,1,8,0:0:0:0:
256,192,125085,1,0,0:0:0:0:
256,192,125513,1,8,0:0:0:0:
256,192,125942,1,8,0:0:0:0:
256,192,126370,1,8,0:0:0:0:
256,192,126799,1,8,0:0:0:0:
256,192,127227,1,8,0:0:0:0:
256,192,127656,1,0,0:0:0:0:
256,192,127798,1,0,0:0:0:0:
256,192,127941,1,8,0:0:0:0:
256,192,128084,1,8,0:0:0:0:
256,192,128228,1,0,0:0:0:0:
256,192,128799,1,0,0:0:0:0:
256,192,129370,1,0,0:0:0:0:
256,192,129942,1,0,0:0:0:0:
