osu file format v14

[General]
AudioFilename: audio.mp3
AudioLeadIn: 0
PreviewTime: 65122
Countdown: 0
SampleSet: Soft
StackLeniency: 0.7
Mode: 3
LetterboxInBreaks: 0
SpecialStyle: 0
WidescreenStoryboard: 1

[Editor]
DistanceSpacing: 0.8
BeatDivisor: 12
GridSize: 32
TimelineZoom: 2.099999

[Metadata]
Title:LOSHAXI
TitleUnicode:LOSHAXI
Artist:Se-U-Ra
ArtistUnicode:Se-U-Ra
Creator:-mint-
Version:BLACK ANOTHER
Source:
Tags:osu! featured artist mappers' guild seura 性欲望的無調音楽 battle in the mist 2ndmix bitm2nd piano bms qqqant blocko famoss electronic instrumental
BeatmapID:2212095
BeatmapSetID:1057963

[Difficulty]
HPDrainRate:8.3
CircleSize:7
OverallDifficulty:8.3
ApproachRate:5
SliderMultiplier:1.4
SliderTickRate:1

[Events]
//Background and Video events
0,0,"loshaxi.png",0,0
//Break Periods
//Storyboard Layer 0 (Background)
//Storyboard Layer 1 (Fail)
//Storyboard Layer 2 (Pass)
//Storyboard Layer 3 (Foreground)
//Storyboard Layer 4 (Overlay)
//Storyboard Sound Samples

[TimingPoints]
1122,285.714285714286,4,2,2,50,1,0
4836,-100,4,2,1,50,0,0
65122,-100,4,2,1,50,0,1
69693,-100,4,2,1,50,0,0
74264,-100,4,2,1,50,0,1
78264,-100,4,2,1,50,0,0
80836,-100,4,2,1,50,0,1
82264,-100,4,2,1,50,0,0
82336,-100,4,2,2,50,0,0
87979,-100,4,2,1,50,0,0

[HitObjects]
182,192,1122,5,0,0:0:0:0:
329,192,1122,1,0,0:0:0:0:
36,192,1336,1,0,0:0:0:0:
475,192,1336,1,0,0:0:0:0:
109,192,1407,1,0,0:0:0:0:
256,192,1479,1,0,0:0:0:0:
402,192,1550,1,0,0:0:0:0:
475,192,1622,1,0,0:0:0:0:
36,192,1693,1,0,0:0:0:0:
182,192,1764,1,0,0:0:0:0:
329,192,1836,1,0,0:0:0:0:
475,192,1907,1,0,0:0:0:0:
36,192,1979,1,0,0:0:0:0:
256,192,1979,1,0,0:0:0:0:
109,192,2050,1,0,0:0:0:0:
329,192,2122,1,0,0:0:0:0:
182,192,2122,1,0,0:0:0:0:
402,192,2193,1,0,0:0:0:0:
475,192,2264,1,0,0:0:0:0:
256,192,2264,1,0,0:0:0:0:
182,192,2336,1,0,0:0:0:0:
36,192,2407,1,0,0:0:0:0:
109,192,2407,1,0,0:0:0:0:
402,192,2479,1,0,0:0:0:0:
256,192,2550,1,0,0:0:0:0:
329,192,2550,1,0,0:0:0:0:
475,192,2622,1,0,0:0:0:0:
36,192,2693,1,0,0:0:0:0:
182,192,2693,1,0,0:0:0:0:
402,192,2764,1,0,0:0:0:0:
329,192,2836,1,0,0:0:0:0:
109,192,2836,1,0,0:0:0:0:
182,192,2907,1,0,0:0:0:0:
256,192,2979,1,0,0:0:0:0:
475,192,2979,1,0,0:0:0:0:
36,192,3050,1,0,0:0:0:0:
329,192,3122,1,0,0:0:0:0:
182,192,3122,1,0,0:0:0:0:
475,192,3193,1,0,0:0:0:0:
109,192,3264,1,0,0:0:0:0:
256,192,3264,1,0,0:0:0:0:
402,192,3336,1,0,0:0:0:0:
182,192,3407,1,0,0:0:0:0:
36,192,3407,1,0,0:0:0:0:
329,192,3479,1,0,0:0:0:0:
475,192,3479,1,0,0:0:0:0:
182,192,3550,1,0,0:0:0:0:
36,192,3550,1,0,0:0:0:0:
329,192,3622,1,0,0:0:0:0:
475,192,3622,1,0,0:0:0:0:
182,192,3693,1,0,0:0:0:0:
36,192,3693,1,0,0:0:0:0:
329,192,3764,1,0,0:0:0:0:
475,192,3764,1,0,0:0:0:0:
109,192,3836,1,0,0:0:0:0:
256,192,3836,1,0,0:0:0:0:
402,192,3907,1,0,0:0:0:0:
182,192,3979,1,0,0:0:0:0:
329,192,3979,1,0,0:0:0:0:
109,192,4122,1,0,0:0:0:0:
329,192,4122,1,0,0:0:0:0:
475,192,4193,1,0,0:0:0:0:
36,192,4264,1,0,0:0:0:0:
256,192,4264,1,0,0:0:0:0:
182,192,4407,1,0,0:0:0:0:
329,192,4407,1,0,0:0:0:0:
475,192,4479,1,0,0:0:0:0:
182,192,4550,1,0,0:0:0:0:
402,192,4550,1,0,0:0:0:0:
109,192,4622,1,0,0:0:0:0:
36,192,4693,128,0,5693:0:0:0:0:
256,192,4693,1,0,0:0:0:0:
475,192,4693,1,0,0:0:0:0:
182,192,4836,1,0,0:0:0:0:
329,192,4836,1,0,0:0:0:0:
182,192,4979,1,0,0:0:0:0:
402,192,5122,1,0,0:0:0:0:
256,192,5193,1,0,0:0:0:0:
329,192,5264,1,0,0:0:0:0:
256,192,5336,1,0,0:0:0:0:
182,192,5407,1,0,0:0:0:0:
475,192,5407,1,0,0:0:0:0:
329,192,5479,1,0,0:0:0:0:
402,192,5550,1,0,0:0:0:0:
329,192,5622,1,0,0:0:0:0:
109,192,5693,1,2,0:0:0:0:
182,192,5693,1,4,0:0:0:0:
256,192,5693,1,0,0:0:0:0:
475,192,5693,1,0,0:0:0:0:
329,192,5836,1,0,0:0:0:0:
256,192,5907,1,0,0:0:0:0:
182,192,5979,1,2,0:0:0:0:
402,192,5979,1,0,0:0:0:0:
475,192,5979,1,0,0:0:0:0:
256,192,6122,1,0,0:0:0:0:
329,192,6193,1,0,0:0:0:0:
36,192,6264,1,2,0:0:0:0:
109,192,6264,1,0,0:0:0:0:
402,192,6264,1,0,0:0:0:0:
256,192,6407,1,0,0:0:0:0:
182,192,6479,1,0,0:0:0:0:
109,192,6550,1,2,0:0:0:0:
402,192,6550,1,0,0:0:0:0:
475,192,6550,1,0,0:0:0:0:
182,192,6693,1,0,0:0:0:0:
256,192,6764,1,0,0:0:0:0:
36,192,6836,1,2,0:0:0:0:
109,192,6836,1,0,0:0:0:0:
329,192,6836,1,0,0:0:0:0:
475,192,6931,1,0,0:0:0:0:
182,192,7026,1,0,0:0:0:0:
109,192,7122,1,0,0:0:0:0:
402,192,7122,1,0,0:0:0:0:
256,192,7217,1,0,0:0:0:0:
475,192,7312,1,0,0:0:0:0:
36,192,7407,1,0,0:0:0:0:
329,192,7407,1,0,0:0:0:0:
182,192,7502,1,0,0:0:0:0:
109,192,7598,1,0,0:0:0:0:
256,192,7693,1,0,0:0:0:0:
402,192,7693,1,0,0:0:0:0:
475,192,7764,1,0,0:0:0:0:
182,192,7836,1,0,0:0:0:0:
329,192,7907,1,0,0:0:0:0:
36,192,7979,1,2,0:0:0:0:
109,192,7979,1,4,0:0:0:0:
256,192,7979,1,0,0:0:0:0:
402,192,7979,1,0,0:0:0:0:
329,192,8122,1,0,0:0:0:0:
475,192,8169,1,0,0:0:0:0:
36,192,8264,1,2,0:0:0:0:
109,192,8264,1,0,0:0:0:0:
182,192,8264,1,0,0:0:0:0:
329,192,8407,1,0,0:0:0:0:
475,192,8455,1,0,0:0:0:0:
36,192,8550,1,2,0:0:0:0:
109,192,8550,1,0,0:0:0:0:
182,192,8550,1,0,0:0:0:0:
329,192,8622,1,0,0:0:0:0:
475,192,8693,1,0,0:0:0:0:
329,192,8764,1,0,0:0:0:0:
36,192,8836,1,2,0:0:0:0:
109,192,8836,1,0,0:0:0:0:
182,192,8836,1,0,0:0:0:0:
256,192,8931,1,0,0:0:0:0:
402,192,9050,1,0,0:0:0:0:
109,192,9122,1,2,0:0:0:0:
182,192,9122,1,0,0:0:0:0:
329,192,9122,1,0,0:0:0:0:
36,192,9264,1,0,0:0:0:0:
182,192,9407,1,4,0:0:0:0:
256,192,9407,1,2,0:0:0:0:
402,192,9407,1,0,0:0:0:0:
475,192,9407,1,0,0:0:0:0:
329,192,9550,1,0,0:0:0:0:
109,192,9693,1,2,0:0:0:0:
182,192,9693,1,4,0:0:0:0:
402,192,9693,1,0,0:0:0:0:
475,192,9693,1,0,0:0:0:0:
36,192,9979,1,2,0:0:0:0:
109,192,9979,1,4,0:0:0:0:
329,192,9979,1,0,0:0:0:0:
402,192,9979,1,0,0:0:0:0:
256,192,10122,1,0,0:0:0:0:
109,192,10264,1,2,0:0:0:0:
182,192,10264,1,0,0:0:0:50:cymbal_short.wav
402,192,10264,1,0,0:0:0:0:
475,192,10264,1,0,0:0:0:0:
109,192,10407,1,2,0:0:0:0:
182,192,10407,1,0,0:0:0:50:cymbal_short.wav
402,192,10407,1,0,0:0:0:0:
475,192,10407,1,0,0:0:0:0:
36,192,10693,1,2,0:0:0:0:
109,192,10693,1,0,0:0:0:50:cymbal_short.wav
256,192,10693,1,0,0:0:0:0:
329,192,10693,1,0,0:0:0:0:
36,192,10836,1,2,0:0:0:0:
109,192,10836,1,0,0:0:0:50:cymbal_short.wav
256,192,10836,1,0,0:0:0:0:
329,192,10836,1,0,0:0:0:0:
36,192,11122,1,2,0:0:0:0:
182,192,11122,1,0,0:0:0:50:cymbal_short.wav
329,192,11122,1,0,0:0:0:0:
475,192,11122,1,0,0:0:0:0:
36,192,11264,1,2,0:0:0:0:
182,192,11264,1,0,0:0:0:50:cymbal_short.wav
329,192,11264,1,0,0:0:0:0:
475,192,11264,1,0,0:0:0:0:
109,192,11407,1,0,0:0:0:0:
256,192,11407,1,0,0:0:0:0:
329,192,11550,1,2,0:0:0:0:
402,192,11550,1,0,0:0:0:0:
36,192,11693,1,0,0:0:0:0:
182,192,11693,1,0,0:0:0:0:
402,192,11836,1,2,0:0:0:0:
475,192,11836,1,0,0:0:0:0:
182,192,11979,1,0,0:0:0:0:
329,192,11979,1,0,0:0:0:0:
36,192,12122,1,0,0:0:0:0:
109,192,12122,1,0,0:0:0:0:
182,192,12264,1,2,0:0:0:0:
256,192,12264,1,0,0:0:0:50:cymbal_short.wav
402,192,12264,1,0,0:0:0:0:
475,192,12264,1,0,0:0:0:0:
182,192,12407,1,2,0:0:0:0:
256,192,12407,1,0,0:0:0:50:cymbal_short.wav
402,192,12407,1,0,0:0:0:0:
475,192,12407,1,0,0:0:0:0:
256,192,12693,1,2,0:0:0:0:
36,192,12693,1,0,0:0:0:50:cymbal_short.wav
329,192,12693,1,0,0:0:0:0:
402,192,12693,1,0,0:0:0:0:
256,192,12836,1,2,0:0:0:0:
36,192,12836,1,0,0:0:0:50:cymbal_short.wav
329,192,12836,1,0,0:0:0:0:
402,192,12836,1,0,0:0:0:0:
36,192,13050,1,2,0:0:0:0:
109,192,13050,1,0,0:0:0:50:cymbal_short.wav
182,192,13050,1,0,0:0:0:0:
475,192,13050,1,0,0:0:0:0:
36,192,13193,1,2,0:0:0:0:
109,192,13193,1,0,0:0:0:50:cymbal_short.wav
182,192,13193,1,0,0:0:0:0:
475,192,13193,1,0,0:0:0:0:
256,192,13407,1,2,0:0:0:0:
402,192,13407,1,0,0:0:0:50:cymbal_short.wav
475,192,13407,1,0,0:0:0:0:
256,192,13502,1,2,0:0:0:0:
402,192,13502,1,0,0:0:0:50:cymbal_short.wav
475,192,13502,1,0,0:0:0:0:
256,192,13598,1,2,0:0:0:0:
402,192,13598,1,0,0:0:0:50:cymbal_short.wav
475,192,13598,1,0,0:0:0:0:
36,192,13693,1,2,0:0:0:0:
182,192,13693,128,4,13788:0:0:0:0:
329,192,13693,1,0,0:0:0:0:
402,192,13788,1,0,0:0:0:0:
109,192,13883,1,0,0:0:0:0:
329,192,13979,128,0,14074:0:0:0:0:
182,192,14074,1,0,0:0:0:0:
36,192,14169,1,0,0:0:0:0:
475,192,14264,128,0,14360:0:0:0:0:
329,192,14360,1,0,0:0:0:0:
182,192,14455,1,0,0:0:0:0:
36,192,14550,128,0,14645:0:0:0:0:
402,192,14645,1,0,0:0:0:0:
256,192,14741,1,0,0:0:0:0:
36,192,14836,1,2,0:0:0:0:
109,192,14836,1,0,0:0:0:50:cymbal_short.wav
329,192,14836,1,0,0:0:0:0:
402,192,14931,1,0,0:0:0:0:
36,192,15026,1,2,0:0:0:0:
109,192,15026,1,0,0:0:0:50:cymbal_short.wav
475,192,15026,1,0,0:0:0:0:
256,192,15122,1,0,0:0:0:0:
182,192,15217,1,2,0:0:0:0:
402,192,15217,1,0,0:0:0:50:cymbal_short.wav
475,192,15217,1,0,0:0:0:0:
109,192,15312,1,2,0:0:0:0:
402,192,15312,1,0,0:0:0:50:cymbal_short.wav
475,192,15312,1,0,0:0:0:0:
36,192,15407,1,2,0:0:0:0:
256,192,15407,1,0,0:0:0:50:cymbal_short.wav
475,192,15407,1,0,0:0:0:0:
329,192,15502,1,0,0:0:0:0:
36,192,15598,1,2,0:0:0:0:
109,192,15598,1,0,0:0:0:50:cymbal_short.wav
402,192,15598,1,0,0:0:0:0:
36,192,15693,1,2,0:0:0:0:
109,192,15693,1,0,0:0:0:50:cymbal_short.wav
475,192,15693,1,0,0:0:0:0:
256,192,15788,1,0,0:0:0:0:
36,192,15883,1,2,0:0:0:0:
109,192,15883,1,0,0:0:0:50:cymbal_short.wav
329,192,15883,1,0,0:0:0:0:
475,192,15979,1,0,0:0:0:0:
182,192,16074,1,0,0:0:0:0:
256,192,16169,1,0,0:0:0:0:
402,192,16264,1,0,0:0:0:0:
109,192,16455,1,0,0:0:0:0:
256,192,16550,1,0,0:0:0:0:
36,192,16645,1,0,0:0:0:0:
182,192,16836,1,0,0:0:0:0:
329,192,16931,1,0,0:0:0:0:
475,192,17026,1,0,0:0:0:0:
109,192,17217,1,0,0:0:0:0:
256,192,17312,1,0,0:0:0:0:
402,192,17407,1,0,0:0:0:0:
36,192,17598,1,2,0:0:0:0:
109,192,17598,1,4,0:0:0:0:
256,192,17598,1,0,0:0:0:0:
329,192,17598,1,0,0:0:0:0:
402,192,17693,1,0,0:0:0:0:
475,192,17693,1,0,0:0:0:0:
109,192,17788,1,0,0:0:0:0:
182,192,17788,1,0,0:0:0:0:
182,192,17979,1,0,0:0:0:0:
256,192,17979,1,0,0:0:0:0:
256,192,18169,1,0,0:0:0:0:
329,192,18169,1,0,0:0:0:0:
329,192,18360,1,0,0:0:0:0:
402,192,18360,1,0,0:0:0:0:
36,192,18479,1,0,0:0:0:0:
109,192,18550,1,0,0:0:0:0:
182,192,18622,1,0,0:0:0:0:
329,192,18693,1,0,0:0:0:0:
256,192,18741,1,0,0:0:0:0:
109,192,18788,1,0,0:0:0:0:
402,192,18836,1,0,0:0:0:0:
329,192,18883,1,0,0:0:0:0:
182,192,18931,1,0,0:0:0:0:
475,192,18979,1,0,0:0:0:0:
402,192,19026,1,0,0:0:0:0:
256,192,19074,1,0,0:0:0:0:
36,192,19122,1,2,0:0:0:0:
109,192,19122,1,0,0:0:0:0:
475,192,19122,1,0,0:0:0:0:
36,192,19193,1,2,0:0:0:0:
109,192,19193,1,0,0:0:0:0:
182,192,19264,1,8,0:0:0:0:
256,192,19264,1,0,0:0:0:0:
329,192,19264,1,0,0:0:0:0:
402,192,19264,1,0,0:0:0:0:
475,192,19336,1,0,0:0:0:0:
36,192,19407,1,2,0:0:0:0:
109,192,19407,1,4,0:0:0:0:
182,192,19407,1,0,0:0:0:0:
329,192,19407,1,0,0:0:0:0:
256,192,19502,1,0,0:0:0:0:
182,192,19622,1,0,0:0:0:0:
109,192,19693,1,2,0:0:0:0:
402,192,19693,1,0,0:0:0:0:
475,192,19693,1,0,0:0:0:0:
36,192,19764,1,0,0:0:0:0:
182,192,19836,1,0,0:0:0:0:
329,192,19907,1,0,0:0:0:0:
36,192,19979,1,2,0:0:0:0:
109,192,19979,1,0,0:0:0:0:
475,192,19979,1,0,0:0:0:0:
256,192,20074,1,0,0:0:0:0:
182,192,20169,1,0,0:0:0:0:
109,192,20264,1,2,0:0:0:0:
402,192,20264,1,0,0:0:0:0:
475,192,20264,1,0,0:0:0:0:
329,192,20336,1,0,0:0:0:0:
256,192,20407,1,0,0:0:0:0:
402,192,20479,1,0,0:0:0:0:
36,192,20550,1,2,0:0:0:0:
109,192,20550,1,0,0:0:0:0:
475,192,20550,1,0,0:0:0:0:
329,192,20693,1,0,0:0:0:0:
182,192,20836,1,2,0:0:0:0:
402,192,20836,1,0,0:0:0:0:
475,192,20836,1,0,0:0:0:0:
329,192,20907,1,0,0:0:0:0:
182,192,21050,1,0,0:0:0:0:
36,192,21122,1,2,0:0:0:0:
109,192,21122,1,0,0:0:0:0:
329,192,21122,1,0,0:0:0:0:
475,192,21264,128,0,21407:0:0:0:0:
36,192,21407,1,2,0:0:0:0:
109,192,21407,1,0,0:0:0:0:
329,192,21407,1,0,0:0:0:0:
256,192,21502,1,0,0:0:0:0:
402,192,21550,1,2,0:0:0:0:
475,192,21550,1,0,0:0:0:0:
182,192,21598,1,2,0:0:0:0:
329,192,21645,1,2,0:0:0:0:
109,192,21693,1,2,0:0:0:0:
256,192,21693,1,4,0:0:0:0:
402,192,21693,1,0,0:0:0:0:
475,192,21693,1,0,0:0:0:0:
36,192,21764,1,0,0:0:0:0:
182,192,21836,1,0,0:0:0:0:
329,192,21907,1,0,0:0:0:0:
36,192,21979,1,2,0:0:0:0:
109,192,21979,1,4,0:0:0:0:
475,192,21979,1,0,0:0:0:0:
256,192,22074,1,0,0:0:0:0:
182,192,22169,1,0,0:0:0:0:
109,192,22264,1,2,0:0:0:0:
402,192,22264,1,4,0:0:0:0:
475,192,22264,1,0,0:0:0:0:
329,192,22336,1,0,0:0:0:0:
256,192,22407,1,0,0:0:0:0:
402,192,22479,1,0,0:0:0:0:
475,192,22550,1,0,0:0:0:0:
182,192,22622,1,0,0:0:0:0:
36,192,22693,1,0,0:0:0:0:
182,192,22764,1,0,0:0:0:0:
36,192,22836,1,0,0:0:0:0:
329,192,22836,1,0,0:0:0:0:
182,192,22907,1,0,0:0:0:0:
36,192,22979,1,0,0:0:0:0:
182,192,23050,1,0,0:0:0:0:
36,192,23122,1,0,0:0:0:0:
329,192,23122,1,0,0:0:0:0:
182,192,23193,1,0,0:0:0:0:
36,192,23264,1,0,0:0:0:0:
182,192,23336,1,0,0:0:0:0:
109,192,23407,1,2,0:0:0:0:
256,192,23407,1,4,0:0:0:0:
329,192,23407,1,0,0:0:0:0:
475,192,23407,1,0,0:0:0:0:
182,192,23550,1,2,0:0:0:0:
402,192,23550,1,0,0:0:0:0:
475,192,23550,1,0,0:0:0:0:
36,192,23693,1,2,0:0:0:0:
109,192,23693,1,0,0:0:0:0:
256,192,23764,1,0,0:0:0:0:
182,192,23836,1,2,0:0:0:0:
329,192,23836,1,0,0:0:0:0:
402,192,23836,1,0,0:0:0:0:
182,192,23907,1,2,0:0:0:0:
329,192,23907,1,0,0:0:0:0:
402,192,23907,1,0,0:0:0:0:
182,192,24050,1,2,0:0:0:0:
329,192,24050,1,0,0:0:0:0:
402,192,24050,1,0,0:0:0:0:
256,192,24193,1,2,0:0:0:0:
329,192,24193,1,0,0:0:0:0:
475,192,24193,1,0,0:0:0:0:
36,192,24264,1,2,0:0:0:0:
109,192,24264,1,0,0:0:0:0:
329,192,24336,1,0,0:0:0:0:
475,192,24336,1,0,0:0:0:0:
36,192,24360,1,2,0:0:0:0:
109,192,24360,1,0,0:0:0:0:
256,192,24455,1,2,0:0:0:0:
402,192,24455,1,0,0:0:0:0:
475,192,24455,1,0,0:0:0:0:
109,192,24550,1,2,0:0:0:0:
182,192,24550,1,4,0:0:0:0:
402,192,24550,1,0,0:0:0:0:
475,192,24550,1,0,0:0:0:0:
36,192,24693,1,2,0:0:0:0:
182,192,24693,1,0,0:0:0:50:cymbal_short.wav
329,192,24693,1,0,0:0:0:0:
402,192,24693,1,0,0:0:0:0:
36,192,24836,1,2,0:0:0:0:
109,192,24836,1,0,0:0:0:50:cymbal_short.wav
475,192,24836,1,0,0:0:0:0:
256,192,24907,1,0,0:0:0:0:
36,192,24979,1,2,0:0:0:0:
109,192,24979,1,0,0:0:0:50:cymbal_short.wav
402,192,24979,1,0,0:0:0:0:
36,192,25050,1,2,0:0:0:0:
109,192,25050,1,0,0:0:0:50:cymbal_short.wav
402,192,25050,1,0,0:0:0:0:
36,192,25193,1,2,0:0:0:0:
256,192,25193,1,0,0:0:0:50:cymbal_short.wav
475,192,25193,1,0,0:0:0:0:
36,192,25312,1,2,0:0:0:0:
256,192,25312,1,0,0:0:0:50:cymbal_short.wav
475,192,25312,1,0,0:0:0:0:
182,192,25407,1,2,0:0:0:0:
329,192,25407,1,0,0:0:0:50:cymbal_short.wav
402,192,25407,1,0,0:0:0:0:
182,192,25502,1,2,0:0:0:0:
329,192,25502,1,0,0:0:0:50:cymbal_short.wav
402,192,25502,1,0,0:0:0:0:
182,192,25622,1,2,0:0:0:0:
329,192,25622,1,0,0:0:0:50:cymbal_short.wav
402,192,25622,1,0,0:0:0:0:
36,192,25693,1,2,0:0:0:0:
109,192,25693,1,0,0:0:0:50:cymbal_short.wav
256,192,25693,1,0,0:0:0:0:
475,192,25693,1,0,0:0:0:0:
256,192,25836,1,0,0:0:0:0:
402,192,25836,1,0,0:0:0:0:
36,192,25979,1,0,0:0:0:0:
109,192,26050,1,0,0:0:0:0:
182,192,26122,1,2,0:0:0:0:
329,192,26122,1,0,0:0:0:0:
402,192,26122,1,0,0:0:0:0:
329,192,26193,1,0,0:0:0:0:
402,192,26193,1,0,0:0:0:0:
36,192,26336,1,8,0:0:0:0:
182,192,26336,1,0,0:0:0:0:
329,192,26336,1,0,0:0:0:0:
402,192,26336,1,0,0:0:0:0:
182,192,26479,1,2,0:0:0:0:
256,192,26479,1,0,0:0:0:0:
475,192,26479,1,0,0:0:0:0:
182,192,26622,1,0,0:0:0:0:
256,192,26622,1,0,0:0:0:0:
329,192,26693,1,2,0:0:0:0:
402,192,26693,1,0,0:0:0:0:
475,192,26693,1,0,0:0:0:0:
36,192,26836,1,2,0:0:0:0:
109,192,26836,1,0,0:0:0:50:cymbal_short.wav
256,192,26836,1,0,0:0:0:0:
402,192,26836,1,0,0:0:0:0:
36,192,26979,1,2,0:0:0:0:
182,192,26979,1,4,0:0:0:0:
329,192,26979,1,0,0:0:0:0:
475,192,26979,1,0,0:0:0:0:
256,192,27050,1,0,0:0:0:0:
109,192,27122,1,2,0:0:0:0:
182,192,27122,1,0,0:0:0:50:cymbal_short.wav
402,192,27122,1,0,0:0:0:0:
109,192,27193,1,2,0:0:0:0:
182,192,27193,1,0,0:0:0:50:cymbal_short.wav
402,192,27193,1,0,0:0:0:0:
109,192,27336,1,2,0:0:0:0:
182,192,27336,1,0,0:0:0:50:cymbal_short.wav
402,192,27336,1,0,0:0:0:0:
475,192,27407,1,0,0:0:0:0:
36,192,27479,1,2,0:0:0:0:
256,192,27479,1,0,0:0:0:50:cymbal_short.wav
329,192,27479,1,0,0:0:0:0:
109,192,27550,1,2,0:0:0:0:
182,192,27550,1,0,0:0:0:50:cymbal_short.wav
402,192,27550,1,0,0:0:0:0:
475,192,27550,1,0,0:0:0:0:
36,192,27622,1,2,0:0:0:0:
256,192,27622,1,0,0:0:0:50:cymbal_short.wav
329,192,27622,1,0,0:0:0:0:
109,192,27693,128,4,27741:0:0:0:0:
182,192,27693,128,2,27741:0:0:0:0:
402,192,27693,1,0,0:0:0:0:
475,192,27693,1,0,0:0:0:0:
182,192,27979,1,0,0:0:0:0:
329,192,27979,1,0,0:0:0:0:
329,192,28169,1,0,0:0:0:0:
475,192,28169,1,0,0:0:0:0:
36,192,28360,1,0,0:0:0:0:
256,192,28550,1,0,0:0:0:0:
402,192,28550,1,0,0:0:0:0:
182,192,28741,1,0,0:0:0:0:
36,192,28931,128,0,28979:0:0:0:0:
475,192,28931,128,0,28979:0:0:0:0:
109,192,29312,1,0,0:0:0:0:
256,192,29312,1,0,0:0:0:0:
402,192,29502,1,0,0:0:0:0:
36,192,29693,128,0,29741:0:0:0:0:
109,192,29693,128,0,29741:0:0:0:0:
475,192,29693,1,0,0:0:0:0:
109,192,29883,128,0,29931:0:0:0:0:
182,192,29883,128,0,29931:0:0:0:0:
329,192,29883,1,0,0:0:0:0:
182,192,30074,128,0,30122:0:0:0:0:
256,192,30074,128,0,30122:0:0:0:0:
402,192,30074,1,0,0:0:0:0:
36,192,30264,1,2,0:0:0:0:
256,192,30264,128,0,30312:0:0:0:50:cymbal_short.wav
329,192,30264,128,0,30312:0:0:0:0:
475,192,30264,1,0,0:0:0:0:
182,192,30360,1,2,0:0:0:0:
256,192,30360,1,0,0:0:0:50:cymbal_short.wav
36,192,30455,1,2,0:0:0:0:
109,192,30455,1,0,0:0:0:50:cymbal_short.wav
329,192,30455,128,0,30502:0:0:0:0:
402,192,30455,128,0,30502:0:0:0:0:
256,192,30550,1,2,0:0:0:0:
329,192,30550,1,0,0:0:0:50:cymbal_short.wav
109,192,30645,1,2,0:0:0:0:
182,192,30645,1,0,0:0:0:50:cymbal_short.wav
402,192,30645,128,0,30693:0:0:0:0:
475,192,30645,128,0,30693:0:0:0:0:
329,192,30741,1,2,0:0:0:0:
402,192,30741,1,0,0:0:0:50:cymbal_short.wav
36,192,30836,1,2,0:0:0:0:
109,192,30836,1,4,0:0:0:0:
256,192,30836,1,0,0:0:0:0:
475,192,30836,1,0,0:0:0:0:
36,192,31026,1,2,0:0:0:0:
109,192,31026,1,0,0:0:0:0:
256,192,31050,1,0,0:0:0:0:
182,192,31122,1,2,0:0:0:0:
402,192,31122,1,0,0:0:0:0:
329,192,31193,1,0,0:0:0:0:
36,192,31217,1,2,0:0:0:0:
109,192,31217,1,0,0:0:0:0:
475,192,31264,1,0,0:0:0:0:
256,192,31407,1,2,0:0:0:0:
402,192,31407,1,0,0:0:0:0:
475,192,31407,1,0,0:0:0:0:
36,192,31622,1,0,0:0:0:0:
109,192,31693,1,0,0:0:0:0:
329,192,31693,1,0,0:0:0:0:
256,192,31764,1,0,0:0:0:0:
182,192,31836,1,0,0:0:0:0:
36,192,31979,128,2,32550:0:0:0:0:
402,192,31979,1,0,0:0:0:0:
475,192,31979,1,0,0:0:0:0:
402,192,32169,1,2,0:0:0:0:
475,192,32169,1,0,0:0:0:0:
402,192,32360,1,2,0:0:0:0:
475,192,32360,1,0,0:0:0:0:
256,192,32550,1,2,0:0:0:0:
402,192,32550,1,0,0:0:0:0:
475,192,32550,1,0,0:0:0:0:
182,192,32622,1,0,0:0:0:0:
109,192,32693,1,0,0:0:0:0:
329,192,32764,1,0,0:0:0:0:
36,192,32836,1,0,0:0:0:0:
256,192,32883,1,0,0:0:0:0:
402,192,32931,1,2,0:0:0:0:
475,192,32931,1,0,0:0:0:0:
182,192,32979,1,0,0:0:0:0:
402,192,33026,1,2,0:0:0:0:
475,192,33026,1,0,0:0:0:0:
182,192,33074,1,0,0:0:0:0:
36,192,33122,1,2,0:0:0:0:
109,192,33122,1,0,0:0:0:0:
329,192,33122,1,0,0:0:0:0:
36,192,33312,1,2,0:0:0:0:
109,192,33312,1,0,0:0:0:0:
256,192,33336,1,0,0:0:0:0:
182,192,33407,1,2,0:0:0:0:
402,192,33407,1,0,0:0:0:0:
329,192,33479,1,0,0:0:0:0:
36,192,33502,1,2,0:0:0:0:
109,192,33502,1,0,0:0:0:0:
475,192,33550,1,0,0:0:0:0:
256,192,33693,1,2,0:0:0:0:
402,192,33693,1,0,0:0:0:0:
475,192,33693,1,0,0:0:0:0:
109,192,33907,1,0,0:0:0:0:
182,192,33979,1,2,0:0:0:0:
402,192,33979,1,0,0:0:0:0:
475,192,33979,1,0,0:0:0:0:
256,192,34050,1,0,0:0:0:0:
329,192,34122,1,0,0:0:0:0:
36,192,34264,1,2,0:0:0:0:
109,192,34264,1,4,0:0:0:0:
256,192,34264,1,0,0:0:0:0:
475,192,34264,128,0,35122:0:0:0:0:
402,192,34836,1,0,0:0:0:0:
256,192,34907,1,0,0:0:0:0:
182,192,34979,1,0,0:0:0:0:
329,192,35050,1,0,0:0:0:0:
36,192,35122,1,2,0:0:0:0:
109,192,35122,1,0,0:0:0:0:
256,192,35122,1,0,0:0:0:0:
402,192,35169,1,0,0:0:0:0:
182,192,35217,1,0,0:0:0:0:
256,192,35264,1,0,0:0:0:0:
329,192,35312,1,0,0:0:0:0:
109,192,35360,1,0,0:0:0:0:
36,192,35407,1,2,0:0:0:0:
402,192,35407,1,0,0:0:0:0:
475,192,35407,1,0,0:0:0:0:
182,192,35455,1,2,0:0:0:0:
329,192,35502,1,2,0:0:0:0:
182,192,35550,1,2,0:0:0:0:
402,192,35598,1,2,0:0:0:0:
475,192,35598,1,0,0:0:0:0:
36,192,35622,1,0,0:0:0:0:
109,192,35693,1,0,0:0:0:0:
182,192,35764,1,0,0:0:0:0:
402,192,35788,1,2,0:0:0:0:
475,192,35788,1,0,0:0:0:0:
256,192,35836,1,0,0:0:0:0:
36,192,35979,1,2,0:0:0:0:
109,192,35979,1,0,0:0:0:0:
402,192,35979,1,0,0:0:0:0:
329,192,36026,1,2,0:0:0:0:
182,192,36074,1,2,0:0:0:0:
329,192,36122,1,2,0:0:0:0:
182,192,36169,1,2,0:0:0:0:
329,192,36217,1,2,0:0:0:0:
36,192,36264,1,2,0:0:0:0:
109,192,36264,1,0,0:0:0:0:
475,192,36264,1,0,0:0:0:0:
36,192,36407,1,2,0:0:0:0:
402,192,36407,1,0,0:0:0:0:
475,192,36407,1,0,0:0:0:0:
182,192,36455,1,2,0:0:0:0:
329,192,36502,1,2,0:0:0:0:
109,192,36550,1,2,0:0:0:0:
256,192,36550,1,4,0:0:0:0:
402,192,36550,1,0,0:0:0:0:
475,192,36550,128,0,37122:0:0:0:0:
182,192,37122,1,8,0:0:0:0:
256,192,37122,1,0,0:0:0:0:
329,192,37122,1,0,0:0:0:0:
402,192,37122,1,0,0:0:0:0:
182,192,37264,1,0,0:0:0:0:
402,192,37264,1,0,0:0:0:0:
36,192,37312,1,2,0:0:0:0:
109,192,37312,1,0,0:0:0:0:
329,192,37407,1,0,0:0:0:0:
475,192,37407,1,0,0:0:0:0:
36,192,37502,1,2,0:0:0:0:
109,192,37502,1,0,0:0:0:0:
256,192,37550,1,0,0:0:0:0:
329,192,37550,1,0,0:0:0:0:
109,192,37693,1,2,0:0:0:0:
182,192,37693,1,4,0:0:0:0:
402,192,37693,1,0,0:0:0:0:
475,192,37693,1,0,0:0:0:0:
182,192,37836,1,0,0:0:0:0:
256,192,37836,1,0,0:0:0:0:
329,192,37979,1,0,0:0:0:0:
475,192,37979,1,0,0:0:0:0:
36,192,38122,1,0,0:0:0:0:
475,192,38122,1,0,0:0:0:0:
36,192,38264,1,0,0:0:0:50:LR4_BassKickReverbXD.wav
256,192,38264,1,0,0:0:0:0:
402,192,38336,1,0,0:0:0:0:
256,192,38407,1,0,0:0:0:0:
109,192,38479,1,0,0:0:0:0:
256,192,38550,1,0,0:0:0:0:
402,192,38622,1,0,0:0:0:0:
329,192,38693,1,0,0:0:0:0:
182,192,38764,1,0,0:0:0:0:
36,192,38836,1,0,0:0:0:0:
182,192,38907,1,0,0:0:0:0:
329,192,38979,1,0,0:0:0:0:
182,192,39050,1,0,0:0:0:0:
36,192,39122,1,0,0:0:0:0:
182,192,39193,1,0,0:0:0:0:
329,192,39264,1,0,0:0:0:0:
182,192,39336,1,0,0:0:0:0:
36,192,39407,1,0,0:0:0:0:
182,192,39479,1,0,0:0:0:0:
329,192,39550,1,0,0:0:0:0:
182,192,39622,1,0,0:0:0:0:
475,192,39693,1,0,0:0:0:0:
329,192,39764,1,0,0:0:0:0:
182,192,39836,1,0,0:0:0:0:
329,192,39907,1,0,0:0:0:0:
475,192,39979,1,0,0:0:0:0:
329,192,40050,1,0,0:0:0:0:
182,192,40122,1,0,0:0:0:0:
329,192,40193,1,0,0:0:0:0:
475,192,40264,1,0,0:0:0:0:
329,192,40336,1,0,0:0:0:0:
182,192,40407,1,0,0:0:0:0:
109,192,40479,1,0,0:0:0:0:
256,192,40550,1,0,0:0:0:0:
402,192,40622,1,0,0:0:0:0:
256,192,40693,1,0,0:0:0:0:
109,192,40764,1,0,0:0:0:0:
256,192,40836,1,0,0:0:0:0:
402,192,40907,1,0,0:0:0:0:
256,192,40979,1,0,0:0:0:0:
109,192,41050,1,0,0:0:0:0:
256,192,41122,1,0,0:0:0:0:
402,192,41193,1,0,0:0:0:0:
182,192,41264,1,0,0:0:0:0:
36,192,41336,1,0,0:0:0:0:
109,192,41407,1,2,0:0:0:0:
256,192,41407,1,0,0:0:0:50:cymbal_short.wav
329,192,41407,1,0,0:0:0:0:
475,192,41407,1,0,0:0:0:0:
109,192,41550,1,2,0:0:0:0:
256,192,41550,1,0,0:0:0:50:cymbal_short.wav
329,192,41550,1,0,0:0:0:0:
475,192,41550,1,0,0:0:0:0:
109,192,41693,1,2,0:0:0:0:
256,192,41693,1,4,0:0:0:0:
329,192,41693,1,0,0:0:0:0:
475,192,41693,1,0,0:0:0:0:
36,192,41907,1,2,0:0:0:0:
182,192,41907,1,0,0:0:0:50:cymbal_short.wav
402,192,41907,1,0,0:0:0:0:
36,192,41979,1,2,0:0:0:0:
182,192,41979,1,0,0:0:0:50:cymbal_short.wav
402,192,41979,1,0,0:0:0:0:
36,192,42122,1,2,0:0:0:0:
182,192,42122,1,0,0:0:0:50:cymbal_short.wav
402,192,42122,1,0,0:0:0:0:
182,192,42336,1,2,0:0:0:0:
256,192,42336,1,0,0:0:0:50:cymbal_short.wav
329,192,42336,1,0,0:0:0:0:
475,192,42336,1,0,0:0:0:0:
182,192,42479,1,2,0:0:0:0:
256,192,42479,1,0,0:0:0:50:cymbal_short.wav
329,192,42479,1,0,0:0:0:0:
475,192,42479,1,0,0:0:0:0:
36,192,42550,1,2,0:0:0:0:
109,192,42550,1,0,0:0:0:50:cymbal_short.wav
256,192,42550,1,0,0:0:0:0:
329,192,42550,1,0,0:0:0:0:
36,192,42693,1,2,0:0:0:0:
109,192,42693,1,0,0:0:0:50:cymbal_short.wav
256,192,42693,1,0,0:0:0:0:
329,192,42693,1,0,0:0:0:0:
36,192,42836,1,2,0:0:0:0:
109,192,42836,1,0,0:0:0:50:cymbal_short.wav
256,192,42836,1,0,0:0:0:0:
329,192,42836,1,0,0:0:0:0:
36,192,42979,1,2,0:0:0:0:
109,192,42979,1,0,0:0:0:50:cymbal_short.wav
256,192,42979,1,0,0:0:0:0:
329,192,42979,1,0,0:0:0:0:
475,192,43122,1,0,0:0:0:0:
329,192,43169,1,0,0:0:0:0:
256,192,43217,1,0,0:0:0:0:
182,192,43264,1,0,0:0:0:0:
402,192,43312,1,0,0:0:0:0:
329,192,43360,1,0,0:0:0:0:
36,192,43407,1,2,0:0:0:0:
109,192,43407,1,4,0:0:0:0:
256,192,43407,1,0,0:0:0:0:
475,192,43407,1,0,0:0:0:0:
475,192,43550,1,0,0:0:0:0:
36,192,43693,1,0,0:0:0:0:
109,192,43836,1,2,0:0:0:0:
182,192,43836,1,4,0:0:0:0:
402,192,43836,1,0,0:0:0:0:
475,192,43836,1,0,0:0:0:0:
256,192,43979,1,0,0:0:0:0:
329,192,44122,1,0,0:0:0:0:
256,192,44193,1,0,0:0:0:0:
36,192,44264,1,2,0:0:0:0:
109,192,44264,1,4,0:0:0:0:
182,192,44264,1,0,0:0:0:0:
402,192,44264,1,0,0:0:0:0:
36,192,44407,1,0,0:0:0:0:
182,192,44550,1,8,0:0:0:0:
256,192,44550,1,0,0:0:0:0:
329,192,44550,1,0,0:0:0:0:
402,192,44550,1,0,0:0:0:0:
182,192,44693,1,2,0:0:0:0:
329,192,44693,1,0,0:0:0:0:
402,192,44693,1,0,0:0:0:0:
475,192,44693,1,0,0:0:0:0:
36,192,44836,1,0,0:0:0:0:
182,192,44979,1,2,0:0:0:0:
182,192,45122,1,8,0:0:0:0:
329,192,45122,1,0,0:0:0:0:
402,192,45122,1,0,0:0:0:0:
256,192,45122,1,0,0:0:0:0:
36,192,45193,1,2,0:0:0:0:
109,192,45193,1,0,0:0:0:0:
36,192,45264,1,2,0:0:0:0:
109,192,45264,1,0,0:0:0:0:
256,192,45336,1,8,0:0:0:0:
329,192,45336,1,0,0:0:0:0:
402,192,45336,1,0,0:0:0:0:
36,192,45407,1,2,0:0:0:0:
182,192,45407,1,0,0:0:0:50:cymbal_short.wav
475,192,45407,1,0,0:0:0:0:
256,192,45550,1,8,0:0:0:0:
329,192,45550,1,0,0:0:0:0:
402,192,45550,1,0,0:0:0:0:
36,192,45693,1,2,0:0:0:0:
109,192,45693,1,4,0:0:0:0:
256,192,45693,1,0,0:0:0:0:
475,192,45693,1,0,0:0:0:0:
475,192,45836,1,0,0:0:0:0:
36,192,45979,1,0,0:0:0:0:
109,192,46122,1,2,0:0:0:0:
182,192,46122,1,4,0:0:0:0:
402,192,46122,1,0,0:0:0:0:
475,192,46122,1,0,0:0:0:0:
256,192,46264,1,8,0:0:0:0:
329,192,46264,1,0,0:0:0:0:
402,192,46264,1,0,0:0:0:0:
329,192,46407,1,0,0:0:0:0:
256,192,46479,1,0,0:0:0:0:
36,192,46550,1,2,0:0:0:0:
109,192,46550,1,4,0:0:0:0:
182,192,46550,1,0,0:0:0:0:
402,192,46550,1,0,0:0:0:0:
36,192,46693,1,0,0:0:0:0:
182,192,46836,1,8,0:0:0:0:
256,192,46836,1,4,0:0:0:0:
329,192,46836,1,0,0:0:0:0:
402,192,46836,1,0,0:0:0:0:
329,192,46907,1,0,0:0:0:0:
402,192,46907,1,0,0:0:0:0:
36,192,46979,1,2,0:0:0:0:
109,192,46979,1,0,0:0:0:0:
182,192,46979,1,0,0:0:0:0:
475,192,46979,1,0,0:0:0:0:
182,192,47122,1,8,0:0:0:0:
256,192,47122,1,4,0:0:0:0:
329,192,47122,1,0,0:0:0:0:
402,192,47122,1,0,0:0:0:0:
109,192,47264,1,0,0:0:0:0:
256,192,47407,1,0,0:0:0:0:
182,192,47407,1,8,0:0:0:0:
329,192,47407,1,0,0:0:0:0:
402,192,47407,1,0,0:0:0:0:
36,192,47479,1,2,0:0:0:0:
109,192,47479,1,0,0:0:0:0:
402,192,47550,1,2,0:0:0:0:
475,192,47550,1,0,0:0:0:0:
36,192,47622,1,2,0:0:0:0:
109,192,47622,1,0,0:0:0:0:
256,192,47693,1,4,0:0:0:0:
329,192,47693,1,8,0:0:0:0:
402,192,47693,1,0,0:0:0:0:
475,192,47693,1,0,0:0:0:0:
36,192,47764,1,0,0:0:0:0:
109,192,47836,1,0,0:0:0:0:
182,192,47907,1,0,0:0:0:0:
36,192,47979,1,2,0:0:0:0:
109,192,47979,1,4,0:0:0:0:
256,192,47979,1,0,0:0:0:0:
402,192,47979,1,0,0:0:0:0:
182,192,48122,1,2,0:0:0:0:
256,192,48122,1,0,0:0:0:50:cymbal_short.wav
329,192,48122,1,0,0:0:0:0:
475,192,48122,1,0,0:0:0:0:
182,192,48264,1,0,0:0:0:0:
36,192,48407,1,2,0:0:0:0:
109,192,48407,1,0,0:0:0:50:cymbal_short.wav
256,192,48407,1,0,0:0:0:0:
402,192,48407,1,0,0:0:0:0:
36,192,48550,1,2,0:0:0:0:
182,192,48550,1,0,0:0:0:50:cymbal_short.wav
256,192,48550,1,0,0:0:0:0:
329,192,48550,1,0,0:0:0:0:
402,192,48693,1,0,0:0:0:0:
109,192,48836,1,2,0:0:0:0:
256,192,48836,1,0,0:0:0:50:cymbal_short.wav
329,192,48836,1,0,0:0:0:0:
475,192,48836,1,0,0:0:0:0:
36,192,48979,1,2,0:0:0:0:
182,192,48979,1,0,0:0:0:50:cymbal_short.wav
256,192,48979,1,0,0:0:0:0:
329,192,48979,1,0,0:0:0:0:
36,192,49122,1,2,0:0:0:0:
109,192,49122,1,0,0:0:0:50:cymbal_short.wav
402,192,49122,1,0,0:0:0:0:
475,192,49122,1,0,0:0:0:0:
329,192,49169,1,2,0:0:0:0:
256,192,49217,1,2,0:0:0:0:
182,192,49264,1,2,0:0:0:0:
402,192,49264,1,0,0:0:0:0:
475,192,49264,1,0,0:0:0:0:
36,192,49407,1,2,0:0:0:0:
109,192,49407,1,0,0:0:0:50:cymbal_short.wav
402,192,49407,1,0,0:0:0:0:
475,192,49407,1,0,0:0:0:0:
182,192,49455,1,2,0:0:0:0:
256,192,49502,1,2,0:0:0:0:
402,192,49550,1,2,0:0:0:0:
475,192,49550,1,0,0:0:0:0:
329,192,49550,1,0,0:0:0:0:
36,192,49693,1,2,0:0:0:0:
109,192,49693,1,0,0:0:0:50:cymbal_short.wav
182,192,49693,1,0,0:0:0:0:
475,192,49693,1,0,0:0:0:0:
402,192,49729,1,2,0:0:0:0:
329,192,49764,1,2,0:0:0:0:
36,192,49907,1,2,0:0:0:0:
109,192,49943,1,2,0:0:0:0:
182,192,49979,1,2,0:0:0:0:
256,192,49979,1,0,0:0:0:50:cymbal_short.wav
402,192,49979,1,0,0:0:0:0:
475,192,49979,1,0,0:0:0:0:
36,192,50122,1,2,0:0:0:0:
182,192,50157,1,2,0:0:0:0:
329,192,50193,1,2,0:0:0:0:
475,192,50229,1,2,0:0:0:0:
36,192,50264,1,2,0:0:0:0:
109,192,50264,1,4,0:0:0:0:
256,192,50264,1,0,0:0:0:0:
402,192,50264,1,0,0:0:0:0:
182,192,50407,1,2,0:0:0:0:
256,192,50407,1,0,0:0:0:50:cymbal_short.wav
329,192,50407,1,0,0:0:0:0:
475,192,50407,1,0,0:0:0:0:
182,192,50550,1,0,0:0:0:0:
36,192,50693,1,2,0:0:0:0:
109,192,50693,1,0,0:0:0:50:cymbal_short.wav
256,192,50693,1,0,0:0:0:0:
402,192,50693,1,0,0:0:0:0:
36,192,50836,1,2,0:0:0:0:
182,192,50836,1,0,0:0:0:50:cymbal_short.wav
256,192,50836,1,0,0:0:0:0:
329,192,50836,1,0,0:0:0:0:
402,192,50979,1,0,0:0:0:0:
109,192,51122,1,2,0:0:0:0:
256,192,51122,1,0,0:0:0:50:cymbal_short.wav
329,192,51122,1,0,0:0:0:0:
475,192,51122,1,0,0:0:0:0:
36,192,51264,1,2,0:0:0:0:
182,192,51264,1,0,0:0:0:50:cymbal_short.wav
256,192,51264,1,0,0:0:0:0:
329,192,51264,1,0,0:0:0:0:
36,192,51407,1,2,0:0:0:0:
109,192,51407,1,4,0:0:0:0:
256,192,51407,1,0,0:0:0:0:
402,192,51407,1,0,0:0:0:0:
182,192,51550,1,0,0:0:0:0:
329,192,51550,1,0,0:0:0:0:
256,192,51836,1,0,0:0:0:0:
402,192,51836,1,0,0:0:0:0:
329,192,51979,1,0,0:0:0:0:
475,192,51979,1,0,0:0:0:0:
109,192,52264,1,0,0:0:0:0:
256,192,52264,1,0,0:0:0:0:
36,192,52550,1,2,0:0:0:0:
109,192,52550,1,4,0:0:0:0:
329,192,52550,1,0,0:0:0:0:
402,192,52645,1,0,0:0:0:0:
36,192,52741,1,2,0:0:0:0:
109,192,52741,1,0,0:0:0:0:
475,192,52741,1,0,0:0:0:0:
256,192,52836,1,0,0:0:0:0:
182,192,52931,1,2,0:0:0:0:
402,192,52931,1,0,0:0:0:0:
475,192,52931,1,0,0:0:0:0:
109,192,53026,1,2,0:0:0:0:
402,192,53026,1,0,0:0:0:0:
475,192,53026,1,0,0:0:0:0:
36,192,53122,1,2,0:0:0:0:
256,192,53122,1,0,0:0:0:0:
475,192,53122,1,0,0:0:0:0:
329,192,53217,1,0,0:0:0:0:
36,192,53312,1,2,0:0:0:0:
109,192,53312,1,0,0:0:0:0:
402,192,53312,1,0,0:0:0:0:
36,192,53407,1,2,0:0:0:0:
109,192,53407,1,0,0:0:0:0:
475,192,53407,1,0,0:0:0:0:
256,192,53502,1,0,0:0:0:0:
36,192,53598,1,2,0:0:0:0:
109,192,53598,1,0,0:0:0:0:
329,192,53598,1,0,0:0:0:0:
475,192,53693,1,0,0:0:0:0:
182,192,53788,1,0,0:0:0:0:
256,192,53883,1,0,0:0:0:0:
402,192,53979,1,0,0:0:0:0:
109,192,54169,1,0,0:0:0:0:
256,192,54264,1,0,0:0:0:0:
36,192,54360,1,0,0:0:0:0:
182,192,54550,1,0,0:0:0:0:
329,192,54645,1,0,0:0:0:0:
475,192,54741,1,0,0:0:0:0:
36,192,54931,1,2,0:0:0:0:
109,192,54931,1,0,0:0:0:50:cymbal_short.wav
329,192,54931,1,0,0:0:0:0:
402,192,54931,1,0,0:0:0:0:
256,192,55026,1,0,0:0:0:0:
329,192,55122,1,0,0:0:0:0:
109,192,55217,1,2,0:0:0:0:
182,192,55217,1,0,0:0:0:50:cymbal_short.wav
402,192,55217,1,0,0:0:0:0:
475,192,55217,1,0,0:0:0:0:
256,192,55312,1,0,0:0:0:0:
182,192,55407,1,0,0:0:0:0:
36,192,55502,1,2,0:0:0:0:
109,192,55502,1,0,0:0:0:50:cymbal_short.wav
329,192,55502,1,0,0:0:0:0:
402,192,55502,1,0,0:0:0:0:
36,192,55693,1,2,0:0:0:0:
402,192,55741,1,2,0:0:0:0:
109,192,55788,1,2,0:0:0:0:
329,192,55836,1,2,0:0:0:0:
475,192,55883,1,2,0:0:0:0:
182,192,55931,1,2,0:0:0:0:
256,192,55979,1,2,0:0:0:0:
402,192,56026,1,2,0:0:0:0:
36,192,56074,1,2,0:0:0:0:
182,192,56110,1,2,0:0:0:0:
329,192,56145,1,2,0:0:0:0:
475,192,56181,1,2,0:0:0:0:
109,192,56264,1,2,0:0:0:0:
402,192,56300,1,2,0:0:0:0:
256,192,56336,1,2,0:0:0:0:
109,192,56372,1,2,0:0:0:0:
475,192,56455,1,2,0:0:0:0:
182,192,56491,1,2,0:0:0:0:
329,192,56526,1,2,0:0:0:0:
475,192,56562,1,2,0:0:0:0:
36,192,56645,1,2,0:0:0:0:
329,192,56681,1,2,0:0:0:0:
182,192,56717,1,2,0:0:0:0:
36,192,56752,1,2,0:0:0:0:
109,192,56836,1,2,0:0:0:0:
256,192,56836,1,4,0:0:0:0:
402,192,56836,1,0,0:0:0:0:
475,192,56836,1,0,0:0:0:0:
402,192,57086,1,0,0:0:0:0:
256,192,57300,1,0,0:0:0:0:
109,192,57568,1,0,0:0:0:0:
36,192,57693,1,2,0:0:0:0:
329,192,57693,1,0,0:0:0:0:
182,192,57741,1,2,0:0:0:0:
329,192,57788,1,2,0:0:0:0:
182,192,57836,1,2,0:0:0:0:
329,192,57883,1,2,0:0:0:0:
182,192,57931,1,2,0:0:0:0:
36,192,57979,1,2,0:0:0:0:
109,192,57979,1,4,0:0:0:0:
402,192,57979,1,0,0:0:0:0:
475,192,57979,1,0,0:0:0:0:
329,192,58068,1,0,0:0:0:0:
182,192,58264,1,0,0:0:0:0:
36,192,58407,1,0,0:0:0:0:
256,192,58550,1,2,0:0:0:0:
182,192,58586,1,2,0:0:0:0:
109,192,58622,1,2,0:0:0:0:
36,192,58657,1,2,0:0:0:0:
329,192,58693,1,2,0:0:0:0:
256,192,58729,1,2,0:0:0:0:
182,192,58764,1,2,0:0:0:0:
109,192,58800,1,2,0:0:0:0:
329,192,58836,1,2,0:0:0:0:
402,192,58836,1,0,0:0:0:50:cymbal_short.wav
475,192,58836,1,0,0:0:0:0:
329,192,58931,1,2,0:0:0:0:
402,192,58931,1,0,0:0:0:50:cymbal_short.wav
475,192,58931,1,0,0:0:0:0:
329,192,59026,1,2,0:0:0:0:
402,192,59026,1,0,0:0:0:50:cymbal_short.wav
475,192,59026,1,0,0:0:0:0:
36,192,59122,1,2,0:0:0:0:
109,192,59122,1,0,0:0:0:50:cymbal_short.wav
182,192,59122,1,0,0:0:0:0:
36,192,59217,1,2,0:0:0:0:
109,192,59217,1,0,0:0:0:50:cymbal_short.wav
182,192,59217,1,0,0:0:0:0:
36,192,59312,1,2,0:0:0:0:
109,192,59312,1,0,0:0:0:50:cymbal_short.wav
182,192,59312,1,0,0:0:0:0:
256,192,59407,1,2,0:0:0:0:
329,192,59443,1,2,0:0:0:0:
402,192,59479,1,2,0:0:0:0:
475,192,59514,1,2,0:0:0:0:
256,192,59598,1,2,0:0:0:0:
329,192,59633,1,2,0:0:0:0:
402,192,59669,1,2,0:0:0:0:
475,192,59705,1,2,0:0:0:0:
256,192,59788,1,2,0:0:0:0:
329,192,59824,1,2,0:0:0:0:
402,192,59860,1,2,0:0:0:0:
475,192,59895,1,2,0:0:0:0:
256,192,59979,1,2,0:0:0:0:
329,192,60014,1,2,0:0:0:0:
402,192,60050,1,2,0:0:0:0:
475,192,60086,1,2,0:0:0:0:
109,192,60169,1,2,0:0:0:0:
182,192,60205,1,2,0:0:0:0:
329,192,60241,1,2,0:0:0:0:
402,192,60276,1,2,0:0:0:0:
36,192,60360,1,2,0:0:0:0:
109,192,60395,1,2,0:0:0:0:
182,192,60431,1,2,0:0:0:0:
256,192,60467,1,2,0:0:0:0:
36,192,60550,1,2,0:0:0:0:
329,192,60550,1,4,0:0:0:0:
402,192,60550,1,0,0:0:0:0:
475,192,60550,1,0,0:0:0:0:
182,192,60622,1,0,0:0:0:0:
109,192,60693,1,0,0:0:0:0:
256,192,60764,1,0,0:0:0:0:
36,192,60836,1,0,0:0:0:0:
329,192,60907,1,0,0:0:0:0:
109,192,60979,1,0,0:0:0:0:
182,192,61050,1,0,0:0:0:0:
256,192,61122,1,0,0:0:0:0:
329,192,61193,1,0,0:0:0:0:
109,192,61264,1,0,0:0:0:0:
402,192,61336,1,0,0:0:0:0:
182,192,61407,1,2,0:0:0:0:
475,192,61407,1,0,0:0:0:0:
329,192,61455,1,2,0:0:0:0:
182,192,61502,1,2,0:0:0:0:
329,192,61550,1,2,0:0:0:0:
182,192,61598,1,2,0:0:0:0:
329,192,61645,1,2,0:0:0:0:
36,192,61693,1,2,0:0:0:0:
109,192,61693,1,4,0:0:0:0:
402,192,61693,1,0,0:0:0:0:
475,192,61693,1,0,0:0:0:0:
256,192,61764,1,0,0:0:0:0:
182,192,61836,1,0,0:0:0:0:
329,192,61907,1,0,0:0:0:0:
36,192,61979,1,0,0:0:0:0:
256,192,62050,1,0,0:0:0:0:
109,192,62122,1,0,0:0:0:0:
182,192,62193,1,0,0:0:0:0:
329,192,62264,1,0,0:0:0:0:
402,192,62336,1,0,0:0:0:0:
256,192,62407,1,0,0:0:0:0:
475,192,62479,1,0,0:0:0:0:
36,192,62550,1,2,0:0:0:0:
329,192,62550,1,0,0:0:0:0:
182,192,62598,1,2,0:0:0:0:
329,192,62645,1,2,0:0:0:0:
182,192,62693,1,2,0:0:0:0:
329,192,62741,1,2,0:0:0:0:
182,192,62788,1,2,0:0:0:0:
36,192,62836,1,4,0:0:0:0:
109,192,62836,1,2,0:0:0:0:
402,192,62836,1,0,0:0:0:0:
475,192,62836,1,0,0:0:0:0:
256,192,62907,1,0,0:0:0:0:
182,192,62979,1,0,0:0:0:0:
329,192,63050,1,0,0:0:0:0:
256,192,63122,1,0,0:0:0:0:
402,192,63193,1,0,0:0:0:0:
109,192,63264,1,0,0:0:0:0:
256,192,63336,1,0,0:0:0:0:
329,192,63407,1,0,0:0:0:0:
402,192,63479,1,0,0:0:0:0:
182,192,63550,1,0,0:0:0:0:
475,192,63622,1,0,0:0:0:0:
329,192,63693,1,0,0:0:0:0:
182,192,63836,1,0,0:0:0:0:
109,192,63907,1,0,0:0:0:0:
36,192,63979,1,2,0:0:0:0:
256,192,63979,1,0,0:0:0:50:cymbal_short.wav
402,192,63979,1,0,0:0:0:0:
475,192,63979,1,0,0:0:0:0:
329,192,64050,1,0,0:0:0:0:
475,192,64122,1,0,0:0:0:0:
329,192,64193,1,0,0:0:0:0:
475,192,64264,1,0,0:0:0:0:
329,192,64336,1,0,0:0:0:0:
475,192,64407,1,0,0:0:0:0:
329,192,64479,1,0,0:0:0:0:
36,192,64550,1,2,0:0:0:0:
182,192,64550,1,0,0:0:0:50:cymbal_short.wav
256,192,64550,1,0,0:0:0:0:
475,192,64550,1,0,0:0:0:0:
256,192,64693,1,0,0:0:0:0:
36,192,64836,1,2,0:0:0:0:
109,192,64836,1,4,0:0:0:0:
402,192,64836,1,0,0:0:0:0:
475,192,64836,1,0,0:0:0:0:
36,192,65122,1,2,0:0:0:0:
182,192,65122,1,4,0:0:0:0:
329,192,65122,1,0,0:0:0:0:
475,192,65122,1,0,0:0:0:0:
109,192,65264,1,0,0:0:0:0:
182,192,65336,1,0,0:0:0:0:
36,192,65407,1,8,0:0:0:0:
329,192,65407,1,0,0:0:0:0:
402,192,65407,1,0,0:0:0:0:
256,192,65407,1,0,0:0:0:0:
402,192,65550,1,0,0:0:0:0:
182,192,65622,1,0,0:0:0:0:
329,192,65693,1,0,0:0:0:0:
36,192,65764,1,0,0:0:0:0:
109,192,65836,1,2,0:0:0:0:
256,192,65836,1,0,0:0:0:0:
475,192,65836,1,0,0:0:0:0:
36,192,65979,1,8,0:0:0:0:
329,192,65979,1,0,0:0:0:0:
402,192,65979,1,0,0:0:0:0:
256,192,65979,1,0,0:0:0:0:
182,192,66050,1,0,0:0:0:0:
329,192,66122,1,0,0:0:0:0:
256,192,66193,1,0,0:0:0:0:
36,192,66264,1,2,0:0:0:0:
109,192,66264,1,0,0:0:0:0:
475,192,66264,1,0,0:0:0:0:
329,192,66407,1,0,0:0:0:0:
182,192,66479,1,0,0:0:0:0:
36,192,66550,1,8,0:0:0:0:
329,192,66550,1,0,0:0:0:0:
402,192,66550,1,0,0:0:0:0:
256,192,66550,1,0,0:0:0:0:
109,192,66693,1,0,0:0:0:0:
182,192,66764,1,0,0:0:0:0:
256,192,66836,1,0,0:0:0:0:
402,192,66836,1,0,0:0:0:0:
475,192,66931,1,0,0:0:0:0:
36,192,66979,1,2,0:0:0:0:
109,192,66979,1,0,0:0:0:0:
329,192,66979,1,0,0:0:0:0:
182,192,67074,1,0,0:0:0:0:
36,192,67122,1,8,0:0:0:0:
329,192,67122,1,0,0:0:0:0:
402,192,67122,1,0,0:0:0:0:
256,192,67122,1,0,0:0:0:0:
109,192,67217,1,0,0:0:0:0:
475,192,67264,1,0,0:0:0:0:
329,192,67312,1,0,0:0:0:0:
182,192,67360,1,0,0:0:0:0:
36,192,67407,1,2,0:0:0:0:
402,192,67407,1,0,0:0:0:0:
475,192,67407,1,0,0:0:0:0:
182,192,67550,1,8,0:0:0:0:
256,192,67550,1,0,0:0:0:0:
329,192,67550,1,0,0:0:0:0:
402,192,67550,1,0,0:0:0:0:
182,192,67693,1,8,0:0:0:0:
256,192,67693,1,0,0:0:0:0:
329,192,67693,1,0,0:0:0:0:
402,192,67693,1,0,0:0:0:0:
36,192,67836,1,2,0:0:0:0:
109,192,67836,1,0,0:0:0:0:
475,192,67836,1,0,0:0:0:0:
36,192,67907,1,2,0:0:0:0:
109,192,67907,1,0,0:0:0:0:
182,192,67979,1,8,0:0:0:0:
256,192,67979,1,0,0:0:0:0:
329,192,67979,1,0,0:0:0:0:
402,192,67979,1,0,0:0:0:0:
36,192,68122,1,2,0:0:0:0:
182,192,68122,1,0,0:0:0:0:
256,192,68122,1,0,0:0:0:0:
256,192,68264,1,8,0:0:0:0:
329,192,68264,1,0,0:0:0:0:
402,192,68264,1,0,0:0:0:0:
475,192,68264,1,0,0:0:0:0:
329,192,68407,1,0,0:0:0:0:
36,192,68479,1,0,0:0:0:0:
109,192,68550,1,2,0:0:0:0:
182,192,68550,1,0,0:0:0:50:cymbal_short.wav
402,192,68550,1,0,0:0:0:0:
475,192,68550,1,0,0:0:0:0:
256,192,68645,1,0,0:0:0:0:
182,192,68741,1,0,0:0:0:0:
36,192,68836,1,2,0:0:0:0:
109,192,68836,1,0,0:0:0:50:cymbal_short.wav
329,192,68836,1,0,0:0:0:0:
402,192,68836,1,0,0:0:0:0:
256,192,68931,1,0,0:0:0:0:
329,192,69026,1,0,0:0:0:0:
109,192,69122,1,2,0:0:0:0:
402,192,69122,1,0,0:0:0:0:
475,192,69122,1,0,0:0:0:0:
256,192,69217,1,0,0:0:0:0:
182,192,69312,1,0,0:0:0:0:
36,192,69407,1,2,0:0:0:0:
109,192,69407,1,0,0:0:0:50:cymbal_short.wav
402,192,69407,1,0,0:0:0:0:
256,192,69502,1,0,0:0:0:0:
329,192,69598,1,0,0:0:0:0:
182,192,69693,1,2,0:0:0:0:
402,192,69693,1,0,0:0:0:50:cymbal_short.wav
475,192,69693,128,0,69836:0:0:0:0:
256,192,69836,1,0,0:0:0:0:
36,192,69979,1,2,0:0:0:0:
402,192,69979,1,0,0:0:0:0:
475,192,69979,128,0,70122:0:0:0:0:
182,192,70122,1,0,0:0:0:0:
109,192,70264,1,2,0:0:0:0:
402,192,70264,1,0,0:0:0:0:
475,192,70264,128,0,70764:0:0:0:0:
329,192,70407,1,0,0:0:0:0:
36,192,70550,1,2,0:0:0:0:
109,192,70550,1,0,0:0:0:0:
182,192,70693,1,0,0:0:0:0:
36,192,70836,128,2,70979:0:0:0:0:
109,192,70836,1,0,0:0:0:0:
475,192,70836,1,0,0:0:0:0:
329,192,70979,1,0,0:0:0:0:
36,192,71122,128,2,71264:0:0:0:0:
109,192,71122,1,0,0:0:0:0:
256,192,71122,1,0,0:0:0:0:
402,192,71264,1,0,0:0:0:0:
36,192,71407,128,2,71907:0:0:0:0:
109,192,71407,1,0,0:0:0:0:
329,192,71407,1,0,0:0:0:0:
256,192,71550,1,0,0:0:0:0:
109,192,71693,1,2,0:0:0:0:
182,192,71693,1,0,0:0:0:50:cymbal_short.wav
402,192,71693,1,0,0:0:0:0:
475,192,71693,1,0,0:0:0:0:
36,192,71979,1,0,0:0:0:0:
402,192,72122,1,0,0:0:0:0:
402,192,72264,1,0,0:0:0:0:
109,192,72407,1,0,0:0:0:0:
182,192,72550,1,0,0:0:0:0:
256,192,72693,1,0,0:0:0:0:
182,192,72836,1,2,0:0:0:0:
402,192,72836,1,0,0:0:0:0:
475,192,72836,1,0,0:0:0:0:
36,192,72883,1,2,0:0:0:0:
109,192,72883,1,0,0:0:0:0:
256,192,72931,1,0,0:0:0:0:
402,192,72979,1,2,0:0:0:0:
475,192,72979,1,0,0:0:0:0:
329,192,73026,1,0,0:0:0:0:
36,192,73050,1,2,0:0:0:0:
109,192,73050,1,0,0:0:0:0:
36,192,73122,1,2,0:0:0:0:
182,192,73122,1,4,0:0:0:0:
402,192,73122,1,0,0:0:0:0:
475,192,73122,1,0,0:0:0:0:
256,192,73217,1,2,0:0:0:0:
402,192,73217,1,0,0:0:0:50:cymbal_short.wav
475,192,73217,1,0,0:0:0:0:
109,192,73312,1,2,0:0:0:0:
182,192,73312,1,0,0:0:0:50:cymbal_short.wav
329,192,73312,1,0,0:0:0:0:
36,192,73407,1,2,0:0:0:0:
109,192,73407,1,0,0:0:0:50:cymbal_short.wav
182,192,73407,1,0,0:0:0:0:
475,192,73407,1,0,0:0:0:0:
256,192,73502,1,2,0:0:0:0:
329,192,73502,1,0,0:0:0:50:cymbal_short.wav
402,192,73502,1,0,0:0:0:0:
182,192,73598,1,2,0:0:0:0:
329,192,73598,1,0,0:0:0:50:cymbal_short.wav
402,192,73598,1,0,0:0:0:0:
36,192,73693,1,2,0:0:0:0:
109,192,73693,1,4,0:0:0:0:
256,192,73693,1,0,0:0:0:0:
475,192,73693,1,0,0:0:0:0:
329,192,73788,1,0,0:0:0:0:
182,192,73883,1,0,0:0:0:0:
36,192,73979,1,0,0:0:0:0:
475,192,73979,1,0,0:0:0:0:
329,192,74074,1,0,0:0:0:0:
256,192,74169,1,0,0:0:0:0:
109,192,74264,1,2,0:0:0:0:
182,192,74264,1,4,0:0:0:0:
402,192,74264,1,0,0:0:0:0:
475,192,74264,1,0,0:0:0:0:
256,192,74407,1,2,0:0:0:0:
329,192,74407,1,0,0:0:0:0:
475,192,74407,1,0,0:0:0:0:
256,192,74550,1,2,0:0:0:0:
329,192,74550,1,0,0:0:0:0:
475,192,74550,1,0,0:0:0:0:
109,192,74693,1,2,0:0:0:0:
329,192,74693,1,0,0:0:0:0:
402,192,74693,1,0,0:0:0:0:
36,192,74741,1,2,0:0:0:0:
475,192,74788,1,2,0:0:0:0:
182,192,74836,1,2,0:0:0:0:
256,192,74836,1,0,0:0:0:0:
402,192,74836,1,0,0:0:0:0:
109,192,74907,1,2,0:0:0:0:
329,192,74907,1,0,0:0:0:0:
182,192,74979,1,2,0:0:0:0:
256,192,74979,1,0,0:0:0:0:
402,192,74979,1,0,0:0:0:0:
36,192,75122,1,2,0:0:0:0:
256,192,75122,1,0,0:0:0:0:
329,192,75122,1,0,0:0:0:0:
109,192,75264,1,2,0:0:0:0:
182,192,75264,1,0,0:0:0:0:
329,192,75264,1,0,0:0:0:0:
475,192,75312,1,2,0:0:0:0:
402,192,75360,1,2,0:0:0:0:
36,192,75407,1,2,0:0:0:0:
109,192,75407,1,0,0:0:0:50:cymbal_short.wav
182,192,75407,1,0,0:0:0:0:
329,192,75407,1,0,0:0:0:0:
256,192,75550,1,2,0:0:0:0:
402,192,75550,1,0,0:0:0:0:
475,192,75550,1,0,0:0:0:0:
182,192,75693,1,2,0:0:0:0:
329,192,75693,1,0,0:0:0:50:cymbal_short.wav
402,192,75693,1,0,0:0:0:0:
475,192,75693,1,0,0:0:0:0:
36,192,75836,1,2,0:0:0:0:
109,192,75836,1,0,0:0:0:0:
256,192,75836,1,0,0:0:0:0:
329,192,75883,1,2,0:0:0:0:
182,192,75931,1,2,0:0:0:0:
402,192,75979,1,2,0:0:0:0:
475,192,75979,1,0,0:0:0:0:
36,192,76050,1,2,0:0:0:0:
109,192,76050,1,0,0:0:0:0:
256,192,76122,1,2,0:0:0:0:
402,192,76122,1,0,0:0:0:0:
475,192,76122,1,0,0:0:0:0:
36,192,76264,1,2,0:0:0:0:
109,192,76264,1,0,0:0:0:50:cymbal_short.wav
329,192,76264,1,0,0:0:0:0:
402,192,76264,1,0,0:0:0:0:
182,192,76407,1,2,0:0:0:0:
329,192,76407,1,0,0:0:0:50:cymbal_short.wav
475,192,76407,1,0,0:0:0:0:
36,192,76550,1,2,0:0:0:0:
182,192,76550,1,4,0:0:0:0:
256,192,76550,1,0,0:0:0:0:
36,192,76693,1,2,0:0:0:0:
182,192,76693,1,0,0:0:0:0:
256,192,76693,1,0,0:0:0:0:
475,192,76741,1,2,0:0:0:0:
329,192,76788,1,2,0:0:0:0:
109,192,76836,1,2,0:0:0:0:
182,192,76836,1,0,0:0:0:0:
402,192,76836,1,0,0:0:0:0:
36,192,76907,1,2,0:0:0:0:
475,192,76907,1,0,0:0:0:0:
109,192,76979,1,2,0:0:0:0:
256,192,76979,1,0,0:0:0:0:
329,192,76979,1,0,0:0:0:0:
36,192,77122,1,2,0:0:0:0:
182,192,77122,1,0,0:0:0:50:cymbal_short.wav
256,192,77193,1,8,0:0:0:0:
329,192,77193,1,0,0:0:0:0:
402,192,77193,1,0,0:0:0:0:
36,192,77264,1,2,0:0:0:0:
109,192,77264,1,0,0:0:0:50:cymbal_short.wav
329,192,77336,1,8,0:0:0:0:
475,192,77336,1,0,0:0:0:0:
402,192,77336,1,0,0:0:0:0:
36,192,77407,1,2,0:0:0:0:
109,192,77407,1,0,0:0:0:50:cymbal_short.wav
182,192,77407,1,0,0:0:0:0:
256,192,77407,1,0,0:0:0:0:
329,192,77479,1,8,0:0:0:0:
475,192,77479,1,0,0:0:0:0:
402,192,77479,1,0,0:0:0:0:
109,192,77550,1,2,0:0:0:0:
182,192,77550,1,0,0:0:0:50:cymbal_short.wav
256,192,77622,1,8,0:0:0:0:
329,192,77622,1,0,0:0:0:0:
402,192,77622,1,0,0:0:0:0:
36,192,77693,1,2,0:0:0:0:
109,192,77693,1,4,0:0:0:0:
182,192,77693,1,0,0:0:0:0:
475,192,77693,128,0,77979:0:0:0:0:
256,192,77836,1,0,0:0:0:0:
182,192,77907,1,0,0:0:0:0:
36,192,77979,1,2,0:0:0:0:
109,192,77979,1,0,0:0:0:50:cymbal_short.wav
329,192,77979,1,0,0:0:0:0:
402,192,77979,1,0,0:0:0:0:
256,192,78122,1,0,0:0:0:0:
329,192,78122,1,0,0:0:0:0:
182,192,78264,1,4,0:0:0:0:
256,192,78264,1,0,0:0:0:50:LR4_BassKickReverbXD.wav
402,192,78264,1,0,0:0:0:0:
475,192,78264,1,0,0:0:0:0:
36,192,78407,1,0,0:0:0:0:
329,192,78407,1,0,0:0:0:0:
182,192,78550,1,0,0:0:0:0:
256,192,78550,1,0,0:0:0:0:
329,192,78693,1,0,0:0:0:0:
475,192,78693,1,0,0:0:0:0:
329,192,78836,1,0,0:0:0:0:
475,192,78836,1,0,0:0:0:0:
109,192,78979,1,0,0:0:0:0:
256,192,78979,1,0,0:0:0:0:
182,192,79122,1,0,0:0:0:0:
402,192,79122,1,0,0:0:0:0:
182,192,79264,1,0,0:0:0:0:
402,192,79264,1,0,0:0:0:0:
36,192,79407,1,0,0:0:0:0:
329,192,79407,1,0,0:0:0:0:
109,192,79550,1,0,0:0:0:0:
256,192,79550,1,0,0:0:0:0:
109,192,79693,1,0,0:0:0:0:
256,192,79693,1,0,0:0:0:0:
182,192,79836,1,0,0:0:0:0:
475,192,79836,1,0,0:0:0:0:
36,192,79979,1,0,0:0:0:0:
182,192,79979,1,0,0:0:0:0:
256,192,80122,1,0,0:0:0:0:
402,192,80122,1,0,0:0:0:0:
109,192,80264,1,0,0:0:0:0:
402,192,80264,1,0,0:0:0:0:
256,192,80407,1,0,0:0:0:0:
475,192,80407,1,0,0:0:0:0:
36,192,80550,1,0,0:0:0:0:
256,192,80550,1,0,0:0:0:0:
329,192,80645,1,0,0:0:0:0:
402,192,80645,1,0,0:0:0:0:
182,192,80693,1,0,0:0:0:0:
36,192,80788,1,0,0:0:0:0:
109,192,80788,1,0,0:0:0:0:
256,192,80836,1,2,0:0:0:0:
329,192,80836,1,4,0:0:0:0:
475,192,80836,1,0,0:0:0:0:
36,192,80931,1,0,0:0:0:0:
109,192,80931,1,0,0:0:0:0:
256,192,80979,1,2,0:0:0:0:
329,192,80979,1,0,0:0:0:0:
182,192,81074,1,0,0:0:0:0:
402,192,81074,1,0,0:0:0:0:
36,192,81122,1,2,0:0:0:0:
475,192,81122,1,0,0:0:0:0:
109,192,81217,1,0,0:0:0:0:
182,192,81217,1,0,0:0:0:0:
329,192,81264,1,2,0:0:0:0:
402,192,81264,1,0,0:0:0:0:
256,192,81312,1,2,0:0:0:0:
109,192,81360,1,2,0:0:0:0:
182,192,81360,1,0,0:0:0:0:
329,192,81407,1,2,0:0:0:0:
402,192,81407,1,0,0:0:0:0:
36,192,81479,1,2,0:0:0:0:
256,192,81502,1,0,0:0:0:0:
475,192,81502,1,0,0:0:0:0:
109,192,81550,1,2,0:0:0:0:
329,192,81550,1,0,0:0:0:0:
182,192,81645,1,0,0:0:0:0:
256,192,81645,1,0,0:0:0:0:
402,192,81693,1,2,0:0:0:0:
475,192,81693,1,0,0:0:0:0:
182,192,81788,1,0,0:0:0:0:
256,192,81788,1,0,0:0:0:0:
402,192,81836,1,2,0:0:0:0:
475,192,81836,1,0,0:0:0:0:
256,192,81931,1,0,0:0:0:0:
329,192,81931,1,0,0:0:0:0:
36,192,81979,1,2,0:0:0:0:
109,192,81979,1,0,0:0:0:0:
329,192,82074,1,0,0:0:0:0:
402,192,82074,1,0,0:0:0:0:
182,192,82122,1,0,0:0:0:0:
36,192,82264,1,2,0:0:0:0:
109,192,82264,1,4,0:0:0:0:
402,192,82264,1,0,0:0:0:0:
475,192,82264,1,0,0:0:0:0:
256,192,82407,1,0,0:0:0:0:
329,192,82550,1,0,0:0:0:0:
402,192,82550,1,0,0:0:0:0:
109,192,82693,1,0,0:0:0:0:
182,192,82693,1,0,0:0:0:0:
256,192,82836,1,0,0:0:0:0:
475,192,82836,1,0,0:0:0:0:
182,192,82931,1,0,0:0:0:0:
402,192,82931,1,0,0:0:0:0:
36,192,83026,1,0,0:0:0:0:
329,192,83026,1,0,0:0:0:0:
256,192,83122,1,0,0:0:0:0:
475,192,83122,1,0,0:0:0:0:
109,192,83217,1,0,0:0:0:0:
402,192,83217,1,0,0:0:0:0:
36,192,83312,1,0,0:0:0:0:
329,192,83312,1,0,0:0:0:0:
182,192,83407,1,0,0:0:0:0:
475,192,83407,1,0,0:0:0:0:
109,192,83502,1,0,0:0:0:0:
402,192,83502,1,0,0:0:0:0:
36,192,83598,1,0,0:0:0:0:
256,192,83598,1,0,0:0:0:0:
182,192,83693,1,0,0:0:0:0:
475,192,83693,1,0,0:0:0:0:
109,192,83788,1,0,0:0:0:0:
329,192,83788,1,0,0:0:0:0:
36,192,83883,1,0,0:0:0:0:
256,192,83883,1,0,0:0:0:0:
109,192,83979,1,0,0:0:0:0:
402,192,83979,1,0,0:0:0:0:
182,192,84074,1,0,0:0:0:0:
329,192,84074,1,0,0:0:0:0:
256,192,84169,1,0,0:0:0:0:
475,192,84169,1,0,0:0:0:0:
36,192,84264,1,0,0:0:0:0:
402,192,84264,1,0,0:0:0:0:
109,192,84360,1,0,0:0:0:0:
329,192,84360,1,0,0:0:0:0:
182,192,84455,1,0,0:0:0:0:
475,192,84455,1,0,0:0:0:0:
36,192,84550,1,0,0:0:0:0:
256,192,84550,1,0,0:0:0:0:
109,192,84645,1,0,0:0:0:0:
329,192,84645,1,0,0:0:0:0:
182,192,84741,1,0,0:0:0:0:
402,192,84741,1,0,0:0:0:0:
256,192,84836,1,0,0:0:0:0:
475,192,84836,1,0,0:0:0:0:
36,192,84931,1,0,0:0:0:0:
329,192,84931,1,0,0:0:0:0:
182,192,85026,1,0,0:0:0:0:
402,192,85026,1,0,0:0:0:0:
256,192,85122,1,0,0:0:0:0:
475,192,85122,1,0,0:0:0:0:
109,192,85217,1,0,0:0:0:0:
402,192,85217,1,0,0:0:0:0:
182,192,85312,1,0,0:0:0:0:
329,192,85312,1,0,0:0:0:0:
36,192,85407,1,0,0:0:0:0:
475,192,85407,1,0,0:0:0:0:
109,192,85598,1,0,0:0:0:0:
329,192,85598,1,0,0:0:0:0:
36,192,85693,1,0,0:0:0:0:
182,192,85693,1,0,0:0:0:0:
256,192,85788,1,0,0:0:0:0:
402,192,85788,1,0,0:0:0:0:
109,192,85979,1,0,0:0:0:0:
329,192,85979,1,0,0:0:0:0:
36,192,86074,1,0,0:0:0:0:
256,192,86074,1,0,0:0:0:0:
182,192,86169,1,0,0:0:0:0:
475,192,86169,1,0,0:0:0:0:
36,192,86360,1,0,0:0:0:0:
402,192,86360,1,0,0:0:0:0:
109,192,86455,1,0,0:0:0:0:
256,192,86455,1,0,0:0:0:0:
182,192,86550,1,0,0:0:0:0:
329,192,86550,1,0,0:0:0:0:
109,192,86741,1,0,0:0:0:0:
402,192,86741,1,0,0:0:0:0:
182,192,86836,1,0,0:0:0:0:
475,192,86836,1,0,0:0:0:0:
36,192,86931,1,0,0:0:0:0:
256,192,86931,1,0,0:0:0:0:
109,192,87122,1,0,0:0:0:0:
329,192,87122,1,0,0:0:0:0:
182,192,87312,1,0,0:0:0:0:
402,192,87312,1,0,0:0:0:0:
256,192,87502,1,0,0:0:0:0:
475,192,87502,1,0,0:0:0:0:
36,192,87622,1,0,0:0:0:0:
109,192,87693,1,0,0:0:0:0:
329,192,87764,1,0,0:0:0:0:
182,192,87836,1,0,0:0:0:0:
402,192,87883,1,0,0:0:0:0:
256,192,87931,1,0,0:0:0:0:
475,192,87979,1,0,0:0:0:0:
329,192,88026,1,0,0:0:0:0:
182,192,88074,1,0,0:0:0:0:
36,192,88122,1,0,0:0:0:0:
402,192,88169,1,0,0:0:0:0:
256,192,88217,1,0,0:0:0:0:
36,192,88264,1,2,0:0:0:0:
109,192,88264,1,4,0:0:0:0:
329,192,88264,1,0,0:0:0:0:
475,192,88264,1,0,0:0:0:0:
402,192,88407,1,0,0:0:0:0:
475,192,88550,1,0,0:0:0:0:
182,192,88693,1,0,0:0:0:0:
329,192,88836,1,0,0:0:0:0:
402,192,88979,1,0,0:0:0:0:
109,192,89122,1,0,0:0:0:0:
256,192,89264,1,0,0:0:0:0:
329,192,89407,1,0,0:0:0:0:
36,192,89550,1,0,0:0:0:0:
182,192,89693,1,0,0:0:0:0:
256,192,89836,1,0,0:0:0:0:
402,192,89979,1,0,0:0:0:0:
109,192,90122,1,0,0:0:0:0:
182,192,90264,1,0,0:0:0:0:
329,192,90407,1,0,0:0:0:0:
36,192,90550,1,0,0:0:0:0:
109,192,90693,1,0,0:0:0:0:
475,192,90836,1,0,0:0:0:0:
329,192,90872,1,0,0:0:0:0:
256,192,90907,1,0,0:0:0:0:
182,192,90943,1,0,0:0:0:0:
109,192,90979,1,0,0:0:0:0:
36,192,91014,1,0,0:0:0:0:
402,192,91050,1,0,0:0:0:0:
329,192,91086,1,0,0:0:0:0:
256,192,91122,1,0,0:0:0:0:
182,192,91157,1,0,0:0:0:0:
109,192,91193,1,0,0:0:0:0:
475,192,91229,1,0,0:0:0:0:
402,192,91264,1,0,0:0:0:0:
329,192,91300,1,0,0:0:0:0:
256,192,91336,1,0,0:0:0:0:
182,192,91372,1,0,0:0:0:0:
36,192,91407,1,2,0:0:0:0:
109,192,91407,128,4,91979:0:0:0:0:
402,192,91407,1,0,0:0:0:0:
475,192,91407,1,0,0:0:0:0:
182,192,91979,1,2,0:0:0:0:
256,192,91979,1,4,0:0:0:0:
402,192,91979,128,0,92550:0:0:0:0:
475,192,91979,1,0,0:0:0:0:
36,192,92550,128,2,93122:0:0:0:0:
109,192,92550,1,4,0:0:0:0:
329,192,92550,1,0,0:0:0:0:
475,192,92550,1,0,0:0:0:0:
182,192,92645,1,0,0:0:0:0:
256,192,92693,1,0,0:0:0:0:
402,192,92741,1,0,0:0:0:0:
329,192,92788,1,0,0:0:0:0:
182,192,92836,1,0,0:0:0:0:
109,192,92883,1,0,0:0:0:0:
475,192,92931,1,0,0:0:0:0:
402,192,92979,1,0,0:0:0:0:
256,192,93026,1,0,0:0:0:0:
182,192,93074,1,0,0:0:0:0:
109,192,93122,1,2,0:0:0:0:
329,192,93122,1,4,0:0:0:0:
402,192,93122,1,0,0:0:0:0:
475,192,93122,128,0,93693:0:0:0:0:
256,192,93217,1,0,0:0:0:0:
182,192,93264,1,0,0:0:0:0:
329,192,93312,1,0,0:0:0:0:
402,192,93360,1,0,0:0:0:0:
109,192,93407,1,0,0:0:0:0:
256,192,93455,1,0,0:0:0:0:
329,192,93502,1,0,0:0:0:0:
36,192,93550,1,0,0:0:0:0:
182,192,93598,1,0,0:0:0:0:
256,192,93645,1,0,0:0:0:0:
109,192,93693,1,0,0:0:0:50:LR4_BassKickReverbXD.wav
402,192,93693,1,0,0:0:0:0:
