osu file format v14

[General]
AudioFilename: audio.mp3
AudioLeadIn: 0
PreviewTime: 61967
Countdown: 0
SampleSet: Normal
StackLeniency: 0.7
Mode: 1
LetterboxInBreaks: 0
WidescreenStoryboard: 0

[Editor]
Bookmarks: 185,4937,9689,14442,19194,23947,28699,31076,35828,40581,45333,50085,54838,59590,64343,73254,73848,83353,88105,92858,97610,102363,116620,117808
DistanceSpacing: 1
BeatDivisor: 4
GridSize: 32
TimelineZoom: 2.2

[Metadata]
Title:LOA2
TitleUnicode:LOA2
Artist:Se-U-Ra
ArtistUnicode:Se-U-Ra
Creator:eiri-
Version:Kantan
Source:osu!
Tags:Ayyri seura Featured Artist FA Tree Called Elif Hi-Speed Style Instrumental Electronic せゆーら
BeatmapID:2662533
BeatmapSetID:1281878

[Difficulty]
HPDrainRate:7
CircleSize:2
OverallDifficulty:3
ApproachRate:10
SliderMultiplier:1.4
SliderTickRate:1

[Events]
//Background and Video events
0,0,"LOA2.jpg",0,0
//Break Periods
//Storyboard Layer 0 (Background)
//Storyboard Layer 1 (Fail)
//Storyboard Layer 2 (Pass)
//Storyboard Layer 3 (Foreground)
//Storyboard Layer 4 (Overlay)
//Storyboard Sound Samples

[TimingPoints]
185,297.029702970297,4,1,0,100,1,0
64343,-100,4,1,0,100,0,1
73254,-100,4,1,0,100,0,0
73848,-100,4,1,0,100,0,1
83353,-100,4,1,0,100,0,0
102363,-100,4,1,0,100,0,1
116620,-100,4,1,0,100,0,0

[HitObjects]
256,192,185,5,12,0:0:0:0:
256,192,779,1,12,0:0:0:0:
256,192,1670,1,12,0:0:0:0:
256,192,2115,1,12,0:0:0:0:
256,192,2561,1,12,0:0:0:0:
256,192,3452,1,4,0:0:0:0:
256,192,3749,1,12,0:0:0:0:
256,192,4343,1,4,0:0:0:0:
256,192,4937,1,12,0:0:0:0:
256,192,5531,1,8,0:0:0:0:
256,192,5828,1,0,0:0:0:0:
256,192,6422,1,0,0:0:0:0:
256,192,6719,1,8,0:0:0:0:
256,192,7313,1,12,0:0:0:0:
256,192,7759,1,8,0:0:0:0:
256,192,8204,1,0,0:0:0:0:
256,192,8501,1,12,0:0:0:0:
256,192,9689,1,12,0:0:0:0:
256,192,10135,1,8,0:0:0:0:
256,192,10581,1,0,0:0:0:0:
256,192,10878,1,12,0:0:0:0:
256,192,11472,1,0,0:0:0:0:
256,192,11769,1,0,0:0:0:0:
256,192,12066,1,12,0:0:0:0:
256,192,12660,1,12,0:0:0:0:
256,192,13254,1,12,0:0:0:0:
256,192,13551,1,0,0:0:0:0:
256,192,13848,1,8,0:0:0:0:
256,192,14442,1,8,0:0:0:0:
256,192,14739,1,12,0:0:0:0:
256,192,15036,1,0,0:0:0:0:
256,192,15779,1,8,0:0:0:0:
256,192,16224,1,8,0:0:0:0:
256,192,16967,1,8,0:0:0:0:
256,192,17412,1,8,0:0:0:0:
256,192,18006,1,0,0:0:0:0:
256,192,19194,1,0,0:0:0:0:
256,192,19491,1,12,0:0:0:0:
256,192,19788,1,0,0:0:0:0:
256,192,20383,1,8,0:0:0:0:
256,192,20977,1,0,0:0:0:0:
256,192,21571,1,8,0:0:0:0:
256,192,22165,1,0,0:0:0:0:
256,192,22759,1,8,0:0:0:0:
256,192,23947,1,12,0:0:0:0:
256,192,24244,1,0,0:0:0:0:
256,192,24541,1,0,0:0:0:0:
256,192,25135,1,8,0:0:0:0:
256,192,25729,1,0,0:0:0:0:
256,192,26026,1,0,0:0:0:0:
256,192,26323,1,8,0:0:0:0:
256,192,26917,1,0,0:0:0:0:
256,192,27511,1,12,0:0:0:0:
256,192,28699,1,4,0:0:0:0:
256,192,29293,1,4,0:0:0:0:
256,192,29887,1,4,0:0:0:0:
256,192,30482,1,12,0:0:0:0:
256,192,31076,1,4,0:0:0:0:
256,192,31670,1,8,0:0:0:0:
256,192,32561,1,8,0:0:0:0:
256,192,33006,1,8,0:0:0:0:
256,192,33452,1,12,0:0:0:0:
256,192,34640,1,12,0:0:0:0:
256,192,35234,1,0,0:0:0:0:
256,192,35828,1,12,0:0:0:0:
256,192,36125,1,0,0:0:0:0:
256,192,36422,1,0,0:0:0:0:
256,192,37016,1,0,0:0:0:0:
256,192,38204,1,12,0:0:0:0:
256,192,38353,8,0,39838,0:0:0:0:
256,192,39986,5,0,0:0:0:0:
256,192,40581,1,12,0:0:0:0:
256,192,41472,1,8,0:0:0:0:
256,192,41917,1,8,0:0:0:0:
256,192,42363,1,8,0:0:0:0:
256,192,42957,1,12,0:0:0:0:
256,192,43848,1,8,0:0:0:0:
256,192,44293,1,8,0:0:0:0:
256,192,45333,1,12,0:0:0:0:
256,192,46224,1,8,0:0:0:0:
256,192,46670,1,8,0:0:0:0:
256,192,47115,1,8,0:0:0:0:
256,192,47709,1,12,0:0:0:0:
256,192,48600,1,8,0:0:0:0:
256,192,48897,1,0,0:0:0:0:
256,192,49788,1,8,0:0:0:0:
256,192,50085,1,12,0:0:0:0:
256,192,51274,1,8,0:0:0:0:
256,192,51868,1,4,0:0:0:0:
256,192,52462,1,12,0:0:0:0:
256,192,53056,1,8,0:0:0:0:
256,192,53353,1,0,0:0:0:0:
256,192,53947,1,12,0:0:0:0:
256,192,54838,1,12,0:0:0:0:
256,192,55432,1,12,0:0:0:0:
256,192,55729,1,12,0:0:0:0:
256,192,56917,1,0,0:0:0:0:
256,192,57214,1,12,0:0:0:0:
256,192,57808,1,8,0:0:0:0:
256,192,58105,1,0,0:0:0:0:
256,192,58402,1,12,0:0:0:0:
256,192,59590,1,12,0:0:0:0:
256,192,60184,1,12,0:0:0:0:
256,192,60630,1,12,0:0:0:0:
256,192,61076,1,12,0:0:0:0:
256,192,61521,1,12,0:0:0:0:
256,192,61967,1,12,0:0:0:0:
256,192,62858,1,4,0:0:0:0:
256,192,63155,1,12,0:0:0:0:
256,192,63749,1,4,0:0:0:0:
256,192,64343,1,12,0:0:0:0:
256,192,64937,1,8,0:0:0:0:
256,192,65531,1,0,0:0:0:0:
256,192,65828,1,8,0:0:0:0:
256,192,66125,1,0,0:0:0:0:
256,192,66719,1,12,0:0:0:0:
256,192,67759,1,8,0:0:0:0:
256,192,68056,1,8,0:0:0:0:
256,192,68501,1,0,0:0:0:0:
256,192,68798,1,0,0:0:0:0:
256,192,69095,1,12,0:0:0:0:
256,192,69689,1,8,0:0:0:0:
256,192,69986,1,0,0:0:0:0:
256,192,70284,1,0,0:0:0:0:
256,192,70729,1,8,0:0:0:0:
256,192,71175,1,0,0:0:0:0:
256,192,71472,1,12,0:0:0:0:
256,192,72363,1,0,0:0:0:0:
256,192,72660,1,12,0:0:0:0:
256,192,73254,1,12,0:0:0:0:
256,192,73848,1,12,0:0:0:0:
256,192,74442,1,8,0:0:0:0:
256,192,75036,1,0,0:0:0:0:
256,192,75333,1,8,0:0:0:0:
256,192,75630,1,0,0:0:0:0:
256,192,76224,1,12,0:0:0:0:
256,192,77412,1,12,0:0:0:0:
256,192,78006,1,12,0:0:0:0:
256,192,78600,1,12,0:0:0:0:
256,192,79194,1,8,0:0:0:0:
256,192,79788,1,0,0:0:0:0:
256,192,80234,1,8,0:0:0:0:
256,192,80531,1,8,0:0:0:0:
256,192,80977,1,12,0:0:0:0:
256,192,81571,1,12,0:0:0:0:
256,192,82165,1,12,0:0:0:0:
256,192,82759,1,8,0:0:0:0:
256,192,83056,1,0,0:0:0:0:
256,192,83353,1,12,0:0:0:0:
256,192,86026,1,8,0:0:0:0:
256,192,86620,1,8,0:0:0:0:
256,192,88105,1,0,0:0:0:0:
256,192,88402,1,8,0:0:0:0:
256,192,88848,1,0,0:0:0:0:
256,192,90185,1,0,0:0:0:0:
256,192,90779,1,8,0:0:0:0:
256,192,91076,1,0,0:0:0:0:
256,192,91670,1,8,0:0:0:0:
256,192,92858,1,12,0:0:0:0:
256,192,93452,1,8,0:0:0:0:
256,192,93749,1,0,0:0:0:0:
256,192,94343,1,0,0:0:0:0:
256,192,94640,1,8,0:0:0:0:
256,192,95234,1,0,0:0:0:0:
256,192,96422,1,0,0:0:0:0:
256,192,97016,1,8,0:0:0:0:
256,192,97313,1,0,0:0:0:0:
256,192,97610,1,8,0:0:0:0:
256,192,98204,1,8,0:0:0:0:
256,192,98501,1,0,0:0:0:0:
256,192,99095,1,8,0:0:0:0:
256,192,99689,1,0,0:0:0:0:
256,192,99986,1,12,0:0:0:0:
256,192,100878,1,4,0:0:0:0:
256,192,101175,1,12,0:0:0:0:
256,192,101769,1,4,0:0:0:0:
256,192,102363,1,4,0:0:0:0:
256,192,102660,1,12,0:0:0:0:
256,192,102957,1,0,0:0:0:0:
256,192,103551,1,8,0:0:0:0:
256,192,103848,1,0,0:0:0:0:
256,192,104145,1,8,0:0:0:0:
256,192,104739,1,4,0:0:0:0:
256,192,105333,1,4,0:0:0:0:
256,192,105779,1,12,0:0:0:0:
256,192,106521,1,4,0:0:0:0:
256,192,107115,1,12,0:0:0:0:
256,192,107709,1,8,0:0:0:0:
256,192,108303,1,0,0:0:0:0:
256,192,108749,1,8,0:0:0:0:
256,192,109046,1,8,0:0:0:0:
256,192,109491,1,12,0:0:0:0:
256,192,109937,1,12,0:0:0:0:
256,192,111274,1,12,0:0:0:0:
256,192,111571,1,4,0:0:0:0:
256,192,111868,1,12,0:0:0:0:
256,192,113056,1,12,0:0:0:0:
256,192,113650,1,0,0:0:0:0:
256,192,113947,1,0,0:0:0:0:
256,192,114244,1,12,0:0:0:0:
256,192,114838,1,12,0:0:0:0:
256,192,115432,1,12,0:0:0:0:
256,192,115729,1,12,0:0:0:0:
256,192,116026,1,12,0:0:0:0:
256,192,116620,2,4,L|320:192,16,35
