osu file format v14

[General]
AudioFilename: audio.mp3
AudioLeadIn: 0
PreviewTime: 61967
Countdown: 0
SampleSet: Normal
StackLeniency: 0.7
Mode: 1
LetterboxInBreaks: 0
WidescreenStoryboard: 0

[Editor]
Bookmarks: 185,4937,9689,14442,19194,23947,28699,31076,35828,40581,45333,50085,54838,59590,64343,73254,73848,83353,88105,92858,97610,102363,116620,117808
DistanceSpacing: 1
BeatDivisor: 4
GridSize: 32
TimelineZoom: 2.2

[Metadata]
Title:LOA2
TitleUnicode:LOA2
Artist:Se-U-Ra
ArtistUnicode:Se-U-Ra
Creator:eiri-
Version:Inner Oni
Source:osu!
Tags:Ayyri seura Featured Artist FA Tree Called Elif Hi-Speed Style Instrumental Electronic せゆーら
BeatmapID:2662533
BeatmapSetID:1281878

[Difficulty]
HPDrainRate:6
CircleSize:2
OverallDifficulty:6
ApproachRate:10
SliderMultiplier:1.4
SliderTickRate:1

[Events]
//Background and Video events
0,0,"LOA2.jpg",0,0
//Break Periods
//Storyboard Layer 0 (Background)
//Storyboard Layer 1 (Fail)
//Storyboard Layer 2 (Pass)
//Storyboard Layer 3 (Foreground)
//Storyboard Layer 4 (Overlay)
//Storyboard Sound Samples

[TimingPoints]
185,297.029702970297,4,1,0,100,1,0
4306,-95.2380952380952,4,1,0,100,0,0
4603,-90.9090909090909,4,1,0,100,0,0
4900,-111.111111111111,4,1,0,100,0,0
9652,-105.263157894737,4,1,0,100,0,0
11732,-104.166666666667,4,1,0,100,0,0
11806,-103.092783505155,4,1,0,100,0,0
11880,-102.040816326531,4,1,0,100,0,0
11954,-101.010101010101,4,1,0,100,0,0
12029,-100,4,1,0,100,0,0
28662,-90.9090909090909,4,1,0,100,0,0
31026,-100,4,1,0,100,0,0
33266,-103.092783505155,4,1,0,100,0,0
33415,-105.263157894737,4,1,0,100,0,0
33712,-111.111111111111,4,1,0,100,0,0
34009,-114.942528735632,4,1,0,100,0,0
34306,-117.647058823529,4,1,0,100,0,0
34603,-111.111111111111,4,1,0,100,0,0
35197,-108.695652173913,4,1,0,100,0,0
35345,-106.382978723404,4,1,0,100,0,0
35494,-104.166666666667,4,1,0,100,0,0
35642,-102.040816326531,4,1,0,100,0,0
35791,-100,4,1,0,100,0,0
37128,-102.040816326531,4,1,0,100,0,0
37276,-104.166666666667,4,1,0,100,0,0
37425,-106.382978723404,4,1,0,100,0,0
37722,-108.695652173913,4,1,0,100,0,0
37870,-111.111111111111,4,1,0,100,0,0
38167,-125,4,1,0,100,0,0
38316,-125,4,1,0,50,0,0
39949,-117.647058823529,4,1,0,100,0,0
40098,-111.111111111111,4,1,0,100,0,0
40172,-108.695652173913,4,1,0,100,0,0
40246,-106.382978723404,4,1,0,100,0,0
40321,-104.166666666667,4,1,0,100,0,0
40395,-102.040816326531,4,1,0,100,0,0
40469,-101.010101010101,4,1,0,100,0,0
40543,-100,4,1,0,100,0,0
51831,-95.2380952380952,4,1,0,100,0,0
52128,-90.9090909090909,4,1,0,100,0,0
52425,-100,4,1,0,100,0,0
54207,-111.111111111111,4,1,0,100,0,0
54281,-108.695652173913,4,1,0,100,0,0
54355,-106.382978723404,4,1,0,100,0,0
54430,-104.166666666667,4,1,0,100,0,0
54504,-102.040816326531,4,1,0,100,0,0
54652,-101.010101010101,4,1,0,100,0,0
54801,-100,4,1,0,100,0,0
56732,-103.092783505155,4,1,0,100,0,0
56880,-105.263157894737,4,1,0,100,0,0
57029,-107.52688172043,4,1,0,100,0,0
57177,-100,4,1,0,100,0,0
63712,-95.2380952380952,4,1,0,100,0,0
64009,-90.9090909090909,4,1,0,100,0,0
64343,-100,4,1,0,100,0,1
73254,-100,4,1,0,100,0,0
73848,-100,4,1,0,100,0,1
83353,-100,4,1,0,100,0,0
83464,-105.263157894737,4,1,0,100,0,0
83613,-111.111111111111,4,1,0,100,0,0
84504,-117.647058823529,4,1,0,100,0,0
85692,-125,4,1,0,100,0,0
91633,-123.456790123457,4,1,0,100,0,0
91781,-121.951219512195,4,1,0,100,0,0
91930,-120.481927710843,4,1,0,100,0,0
92821,-117.647058823529,4,1,0,100,0,0
97573,-111.111111111111,4,1,0,100,0,0
98464,-107.52688172043,4,1,0,100,0,0
99504,-105.263157894737,4,1,0,100,0,0
99652,-104.166666666667,4,1,0,100,0,0
99801,-103.092783505155,4,1,0,100,0,0
99949,-100,4,1,0,100,0,0
100840,-97.0873786407767,4,1,0,100,0,0
101137,-95.2380952380952,4,1,0,100,0,0
101732,-90.9090909090909,4,1,0,100,0,0
102029,-86.9565217391304,4,1,0,100,0,0
102363,-111.111111111111,4,1,0,100,0,1
102623,-90.9090909090909,4,1,0,100,0,1
102771,-95.2380952380952,4,1,0,100,0,1
102920,-100,4,1,0,100,0,1
116620,-100,4,1,0,100,0,0

[HitObjects]
256,192,185,5,12,0:0:0:0:
256,192,333,1,0,0:0:0:0:
256,192,482,1,0,0:0:0:0:
256,192,630,1,0,0:0:0:0:
256,192,779,1,12,0:0:0:0:
256,192,927,1,0,0:0:0:0:
256,192,1076,1,0,0:0:0:0:
256,192,1224,1,12,0:0:0:0:
256,192,1373,1,0,0:0:0:0:
256,192,1447,1,0,0:0:0:0:
256,192,1521,1,0,0:0:0:0:
256,192,1595,1,0,0:0:0:0:
256,192,1670,1,8,0:0:0:0:
256,192,1744,1,0,0:0:0:0:
256,192,1818,1,8,0:0:0:0:
256,192,1892,1,0,0:0:0:0:
256,192,1967,1,8,0:0:0:0:
256,192,2041,1,8,0:0:0:0:
256,192,2115,1,0,0:0:0:0:
256,192,2189,1,0,0:0:0:0:
256,192,2264,1,8,0:0:0:0:
256,192,2313,1,8,0:0:0:0:
256,192,2363,1,8,0:0:0:0:
256,192,2412,1,8,0:0:0:0:
256,192,2561,1,12,0:0:0:0:
256,192,3452,1,4,0:0:0:0:
256,192,3749,1,12,0:0:0:0:
256,192,4343,1,4,0:0:0:0:
256,192,4640,1,12,0:0:0:0:
256,192,4937,1,12,0:0:0:0:
256,192,5085,1,8,0:0:0:0:
256,192,5234,1,0,0:0:0:0:
256,192,5383,1,0,0:0:0:0:
256,192,5531,1,8,0:0:0:0:
256,192,5828,1,0,0:0:0:0:
256,192,5977,1,8,0:0:0:0:
256,192,6125,1,0,0:0:0:0:
256,192,6274,1,8,0:0:0:0:
256,192,6422,1,0,0:0:0:0:
256,192,6719,1,8,0:0:0:0:
256,192,6868,1,8,0:0:0:0:
256,192,7016,1,0,0:0:0:0:
256,192,7165,1,0,0:0:0:0:
256,192,7313,1,12,0:0:0:0:
256,192,7462,1,0,0:0:0:0:
256,192,7610,1,8,0:0:0:0:
256,192,7759,1,8,0:0:0:0:
256,192,8056,1,8,0:0:0:0:
256,192,8204,1,0,0:0:0:0:
256,192,8353,1,0,0:0:0:0:
256,192,8501,1,12,0:0:0:0:
256,192,8650,1,0,0:0:0:0:
256,192,8798,1,0,0:0:0:0:
256,192,8947,1,8,0:0:0:0:
256,192,9095,1,4,0:0:0:0:
256,192,9392,1,4,0:0:0:0:
256,192,9689,1,12,0:0:0:0:
256,192,9838,1,0,0:0:0:0:
256,192,9986,1,8,0:0:0:0:
256,192,10135,1,8,0:0:0:0:
256,192,10432,1,8,0:0:0:0:
256,192,10581,1,0,0:0:0:0:
256,192,10729,1,0,0:0:0:0:
256,192,10803,1,0,0:0:0:0:
256,192,10878,1,12,0:0:0:0:
256,192,11026,1,0,0:0:0:0:
256,192,11175,1,8,0:0:0:0:
256,192,11323,1,8,0:0:0:0:
256,192,11472,1,0,0:0:0:0:
256,192,11620,1,8,0:0:0:0:
256,192,11769,1,0,0:0:0:0:
256,192,11843,1,0,0:0:0:0:
256,192,11917,1,0,0:0:0:0:
256,192,11991,1,0,0:0:0:0:
256,192,12066,1,12,0:0:0:0:
256,192,12214,1,0,0:0:0:0:
256,192,12363,1,0,0:0:0:0:
256,192,12511,1,0,0:0:0:0:
256,192,12660,1,12,0:0:0:0:
256,192,12808,1,0,0:0:0:0:
256,192,12957,1,0,0:0:0:0:
256,192,13105,1,0,0:0:0:0:
256,192,13254,1,8,0:0:0:0:
256,192,13328,1,8,0:0:0:0:
256,192,13402,1,0,0:0:0:0:
256,192,13477,1,0,0:0:0:0:
256,192,13551,1,8,0:0:0:0:
256,192,13625,1,0,0:0:0:0:
256,192,13699,1,8,0:0:0:0:
256,192,13774,1,0,0:0:0:0:
256,192,13848,1,8,0:0:0:0:
256,192,13922,1,8,0:0:0:0:
256,192,13996,1,8,0:0:0:0:
256,192,14071,1,8,0:0:0:0:
256,192,14145,1,0,0:0:0:0:
256,192,14219,1,0,0:0:0:0:
256,192,14293,1,0,0:0:0:0:
256,192,14368,1,0,0:0:0:0:
256,192,14442,1,8,0:0:0:0:
256,192,14739,1,12,0:0:0:0:
256,192,14887,1,8,0:0:0:0:
256,192,15036,1,0,0:0:0:0:
256,192,15184,1,0,0:0:0:0:
256,192,15259,1,0,0:0:0:0:
256,192,15333,1,8,0:0:0:0:
256,192,15482,1,8,0:0:0:0:
256,192,15630,1,0,0:0:0:0:
256,192,15779,1,8,0:0:0:0:
256,192,15853,1,8,0:0:0:0:
256,192,15927,1,0,0:0:0:0:
256,192,16076,1,0,0:0:0:0:
256,192,16224,1,8,0:0:0:0:
256,192,16298,1,8,0:0:0:0:
256,192,16373,1,0,0:0:0:0:
256,192,16521,1,8,0:0:0:0:
256,192,16595,1,8,0:0:0:0:
256,192,16670,1,0,0:0:0:0:
256,192,16818,1,0,0:0:0:0:
256,192,16967,1,8,0:0:0:0:
256,192,17041,1,8,0:0:0:0:
256,192,17115,1,0,0:0:0:0:
256,192,17264,1,0,0:0:0:0:
256,192,17412,1,8,0:0:0:0:
256,192,17486,1,8,0:0:0:0:
256,192,17561,1,0,0:0:0:0:
256,192,17709,1,0,0:0:0:0:
256,192,17858,1,8,0:0:0:0:
256,192,17932,1,8,0:0:0:0:
256,192,18006,1,0,0:0:0:0:
256,192,18155,1,0,0:0:0:0:
256,192,18378,1,0,0:0:0:0:
256,192,18600,1,0,0:0:0:0:
256,192,18675,1,0,0:0:0:0:
256,192,18749,1,0,0:0:0:0:
256,192,18823,1,0,0:0:0:0:
256,192,18897,1,8,0:0:0:0:
256,192,19194,1,0,0:0:0:0:
256,192,19491,1,8,0:0:0:0:
256,192,19566,1,8,0:0:0:0:
256,192,19640,1,0,0:0:0:0:
256,192,19714,1,0,0:0:0:0:
256,192,19788,1,8,0:0:0:0:
256,192,19863,1,0,0:0:0:0:
256,192,19937,1,8,0:0:0:0:
256,192,20011,1,8,0:0:0:0:
256,192,20085,1,0,0:0:0:0:
256,192,20160,1,0,0:0:0:0:
256,192,20234,1,8,0:0:0:0:
256,192,20308,1,0,0:0:0:0:
256,192,20383,1,8,0:0:0:0:
256,192,20457,1,8,0:0:0:0:
256,192,20531,1,0,0:0:0:0:
256,192,20605,1,8,0:0:0:0:
256,192,20680,1,0,0:0:0:0:
256,192,20754,1,0,0:0:0:0:
256,192,20828,1,8,0:0:0:0:
256,192,20902,1,8,0:0:0:0:
256,192,20977,1,0,0:0:0:0:
256,192,21051,1,8,0:0:0:0:
256,192,21125,1,8,0:0:0:0:
256,192,21199,1,8,0:0:0:0:
256,192,21274,1,0,0:0:0:0:
256,192,21348,1,0,0:0:0:0:
256,192,21422,1,8,0:0:0:0:
256,192,21496,1,0,0:0:0:0:
256,192,21571,1,8,0:0:0:0:
256,192,21645,1,8,0:0:0:0:
256,192,21719,1,0,0:0:0:0:
256,192,21793,1,8,0:0:0:0:
256,192,21868,1,0,0:0:0:0:
256,192,21942,1,0,0:0:0:0:
256,192,22016,1,8,0:0:0:0:
256,192,22090,1,8,0:0:0:0:
256,192,22165,1,0,0:0:0:0:
256,192,22239,1,0,0:0:0:0:
256,192,22313,1,8,0:0:0:0:
256,192,22387,1,8,0:0:0:0:
256,192,22462,1,0,0:0:0:0:
256,192,22536,1,0,0:0:0:0:
256,192,22610,1,8,0:0:0:0:
256,192,22685,1,0,0:0:0:0:
256,192,22759,1,8,0:0:0:0:
256,192,22833,1,8,0:0:0:0:
256,192,22907,1,0,0:0:0:0:
256,192,22982,1,8,0:0:0:0:
256,192,23056,1,0,0:0:0:0:
256,192,23130,1,0,0:0:0:0:
256,192,23204,1,8,0:0:0:0:
256,192,23279,1,8,0:0:0:0:
256,192,23353,1,0,0:0:0:0:
256,192,23427,1,0,0:0:0:0:
256,192,23501,1,8,0:0:0:0:
256,192,23576,1,0,0:0:0:0:
256,192,23650,1,8,0:0:0:0:
256,192,23798,1,0,0:0:0:0:
256,192,23947,1,12,0:0:0:0:
256,192,24170,1,8,0:0:0:0:
256,192,24244,1,0,0:0:0:0:
256,192,24318,1,8,0:0:0:0:
256,192,24392,1,8,0:0:0:0:
256,192,24541,1,0,0:0:0:0:
256,192,24689,1,8,0:0:0:0:
256,192,24838,1,0,0:0:0:0:
256,192,24912,1,0,0:0:0:0:
256,192,24986,1,0,0:0:0:0:
256,192,25135,1,0,0:0:0:0:
256,192,25209,1,8,0:0:0:0:
256,192,25358,1,8,0:0:0:0:
256,192,25432,1,0,0:0:0:0:
256,192,25506,1,8,0:0:0:0:
256,192,25581,1,8,0:0:0:0:
256,192,25729,1,0,0:0:0:0:
256,192,25878,1,8,0:0:0:0:
256,192,26026,1,0,0:0:0:0:
256,192,26175,1,0,0:0:0:0:
256,192,26323,1,0,0:0:0:0:
256,192,26397,1,8,0:0:0:0:
256,192,26546,1,8,0:0:0:0:
256,192,26620,1,0,0:0:0:0:
256,192,26694,1,8,0:0:0:0:
256,192,26769,1,8,0:0:0:0:
256,192,26917,1,0,0:0:0:0:
256,192,27066,1,8,0:0:0:0:
256,192,27214,1,8,0:0:0:0:
256,192,27288,1,8,0:0:0:0:
256,192,27363,1,0,0:0:0:0:
256,192,27511,1,12,0:0:0:0:
256,192,27660,1,0,0:0:0:0:
256,192,27808,1,0,0:0:0:0:
256,192,27883,1,8,0:0:0:0:
256,192,27957,1,0,0:0:0:0:
256,192,28105,1,0,0:0:0:0:
256,192,28254,1,8,0:0:0:0:
256,192,28402,1,0,0:0:0:0:
256,192,28551,1,8,0:0:0:0:
256,192,28699,1,4,0:0:0:0:
256,192,28996,1,4,0:0:0:0:
256,192,29293,1,4,0:0:0:0:
256,192,29491,1,12,0:0:0:0:
256,192,29590,1,4,0:0:0:0:
256,192,29887,1,4,0:0:0:0:
256,192,30185,1,4,0:0:0:0:
256,192,30482,1,12,0:0:0:0:
256,192,30680,1,4,0:0:0:0:
256,192,30779,1,12,0:0:0:0:
256,192,31076,1,4,0:0:0:0:
256,192,31224,1,0,0:0:0:0:
256,192,31373,1,0,0:0:0:0:
256,192,31670,1,8,0:0:0:0:
256,192,31744,1,8,0:0:0:0:
256,192,31818,1,0,0:0:0:0:
256,192,31967,1,0,0:0:0:0:
256,192,32115,1,8,0:0:0:0:
256,192,32189,1,8,0:0:0:0:
256,192,32264,1,0,0:0:0:0:
256,192,32412,1,0,0:0:0:0:
256,192,32561,1,8,0:0:0:0:
256,192,32635,1,8,0:0:0:0:
256,192,32709,1,0,0:0:0:0:
256,192,32784,1,0,0:0:0:0:
256,192,32858,1,0,0:0:0:0:
256,192,33006,1,8,0:0:0:0:
256,192,33303,1,0,0:0:0:0:
256,192,33452,1,12,0:0:0:0:
256,192,33749,1,0,0:0:0:0:
256,192,34046,1,8,0:0:0:0:
256,192,34343,1,0,0:0:0:0:
256,192,34640,1,12,0:0:0:0:
256,192,35234,1,8,0:0:0:0:
256,192,35383,1,0,0:0:0:0:
256,192,35531,1,8,0:0:0:0:
256,192,35680,1,8,0:0:0:0:
256,192,35828,1,12,0:0:0:0:
256,192,36125,1,0,0:0:0:0:
256,192,36422,1,0,0:0:0:0:
256,192,36571,1,0,0:0:0:0:
256,192,36645,1,0,0:0:0:0:
256,192,36719,1,0,0:0:0:0:
256,192,36868,1,0,0:0:0:0:
256,192,36942,1,0,0:0:0:0:
256,192,37016,1,0,0:0:0:0:
256,192,37165,1,0,0:0:0:0:
256,192,37313,1,0,0:0:0:0:
256,192,37462,1,0,0:0:0:0:
256,192,37759,1,0,0:0:0:0:
256,192,37907,1,0,0:0:0:0:
256,192,38204,1,12,0:0:0:0:
256,192,38353,8,0,39838,0:0:0:0:
256,192,39986,5,0,0:0:0:0:
256,192,40135,1,0,0:0:0:0:
256,192,40209,1,0,0:0:0:0:
256,192,40284,1,8,0:0:0:0:
256,192,40358,1,8,0:0:0:0:
256,192,40432,1,0,0:0:0:0:
256,192,40506,1,0,0:0:0:0:
256,192,40581,1,12,0:0:0:0:
256,192,40878,1,0,0:0:0:0:
256,192,41026,1,8,0:0:0:0:
256,192,41175,1,0,0:0:0:0:
256,192,41249,1,0,0:0:0:0:
256,192,41323,1,0,0:0:0:0:
256,192,41472,1,8,0:0:0:0:
256,192,41620,1,8,0:0:0:0:
256,192,41769,1,0,0:0:0:0:
256,192,41917,1,8,0:0:0:0:
256,192,42066,1,0,0:0:0:0:
256,192,42363,1,8,0:0:0:0:
256,192,42660,1,0,0:0:0:0:
256,192,42957,1,12,0:0:0:0:
256,192,43254,1,0,0:0:0:0:
256,192,43402,1,8,0:0:0:0:
256,192,43551,1,0,0:0:0:0:
256,192,43625,1,0,0:0:0:0:
256,192,43699,1,0,0:0:0:0:
256,192,43848,1,8,0:0:0:0:
256,192,43996,1,8,0:0:0:0:
256,192,44145,1,0,0:0:0:0:
256,192,44293,1,8,0:0:0:0:
256,192,44442,1,8,0:0:0:0:
256,192,44516,1,8,0:0:0:0:
256,192,44590,1,0,0:0:0:0:
256,192,44739,1,0,0:0:0:0:
256,192,44788,1,0,0:0:0:0:
256,192,44838,1,0,0:0:0:0:
256,192,44887,1,0,0:0:0:0:
256,192,45036,1,8,0:0:0:0:
256,192,45085,1,0,0:0:0:0:
256,192,45135,1,0,0:0:0:0:
256,192,45185,1,8,0:0:0:0:
256,192,45333,1,12,0:0:0:0:
256,192,45630,1,0,0:0:0:0:
256,192,45779,1,8,0:0:0:0:
256,192,45927,1,0,0:0:0:0:
256,192,46001,1,0,0:0:0:0:
256,192,46076,1,0,0:0:0:0:
256,192,46224,1,8,0:0:0:0:
256,192,46373,1,8,0:0:0:0:
256,192,46521,1,0,0:0:0:0:
256,192,46670,1,8,0:0:0:0:
256,192,46818,1,0,0:0:0:0:
256,192,47115,1,8,0:0:0:0:
256,192,47412,1,0,0:0:0:0:
256,192,47709,1,12,0:0:0:0:
256,192,48006,1,0,0:0:0:0:
256,192,48155,1,8,0:0:0:0:
256,192,48303,1,0,0:0:0:0:
256,192,48378,1,0,0:0:0:0:
256,192,48452,1,0,0:0:0:0:
256,192,48600,1,8,0:0:0:0:
256,192,48749,1,8,0:0:0:0:
256,192,48897,1,0,0:0:0:0:
256,192,49046,1,8,0:0:0:0:
256,192,49194,1,8,0:0:0:0:
256,192,49269,1,0,0:0:0:0:
256,192,49343,1,8,0:0:0:0:
256,192,49491,1,8,0:0:0:0:
256,192,49788,1,8,0:0:0:0:
256,192,49838,1,8,0:0:0:0:
256,192,49887,1,8,0:0:0:0:
256,192,49937,1,8,0:0:0:0:
256,192,50085,1,12,0:0:0:0:
256,192,50383,1,0,0:0:0:0:
256,192,50531,1,0,0:0:0:0:
256,192,50680,1,8,0:0:0:0:
256,192,50828,1,8,0:0:0:0:
256,192,50977,1,0,0:0:0:0:
256,192,51274,1,8,0:0:0:0:
256,192,51422,1,8,0:0:0:0:
256,192,51571,1,0,0:0:0:0:
256,192,51719,1,8,0:0:0:0:
256,192,51868,1,4,0:0:0:0:
256,192,52165,1,4,0:0:0:0:
256,192,52462,1,12,0:0:0:0:
256,192,52610,1,8,0:0:0:0:
256,192,52759,1,0,0:0:0:0:
256,192,52907,1,0,0:0:0:0:
256,192,53056,1,8,0:0:0:0:
256,192,53353,1,0,0:0:0:0:
256,192,53501,1,8,0:0:0:0:
256,192,53650,1,0,0:0:0:0:
256,192,53798,1,12,0:0:0:0:
256,192,53947,1,12,0:0:0:0:
256,192,54244,1,0,0:0:0:0:
256,192,54318,1,8,0:0:0:0:
256,192,54392,1,8,0:0:0:0:
256,192,54467,1,0,0:0:0:0:
256,192,54541,1,8,0:0:0:0:
256,192,54689,1,0,0:0:0:0:
256,192,54838,1,12,0:0:0:0:
256,192,54986,1,8,0:0:0:0:
256,192,55135,1,0,0:0:0:0:
256,192,55284,1,12,0:0:0:0:
256,192,55432,1,12,0:0:0:0:
256,192,55729,1,12,0:0:0:0:
256,192,55878,1,8,0:0:0:0:
256,192,56026,1,4,0:0:0:0:
256,192,56175,1,12,0:0:0:0:
256,192,56323,1,12,0:0:0:0:
256,192,56472,1,4,0:0:0:0:
256,192,56769,1,8,0:0:0:0:
256,192,56917,1,0,0:0:0:0:
256,192,57066,1,0,0:0:0:0:
256,192,57214,1,12,0:0:0:0:
256,192,57363,1,0,0:0:0:0:
256,192,57511,1,8,0:0:0:0:
256,192,57660,1,0,0:0:0:0:
256,192,57808,1,8,0:0:0:0:
256,192,57957,1,8,0:0:0:0:
256,192,58105,1,0,0:0:0:0:
256,192,58180,1,0,0:0:0:0:
256,192,58254,1,0,0:0:0:0:
256,192,58328,1,0,0:0:0:0:
256,192,58402,1,12,0:0:0:0:
256,192,58551,1,0,0:0:0:0:
256,192,58699,1,8,0:0:0:0:
256,192,58848,1,0,0:0:0:0:
256,192,58996,1,8,0:0:0:0:
256,192,59293,1,0,0:0:0:0:
256,192,59368,1,0,0:0:0:0:
256,192,59442,1,0,0:0:0:0:
256,192,59516,1,0,0:0:0:0:
256,192,59590,1,12,0:0:0:0:
256,192,59739,1,0,0:0:0:0:
256,192,59887,1,0,0:0:0:0:
256,192,60036,1,0,0:0:0:0:
256,192,60184,1,12,0:0:0:0:
256,192,60333,1,0,0:0:0:0:
256,192,60482,1,0,0:0:0:0:
256,192,60556,1,0,0:0:0:0:
256,192,60630,1,8,0:0:0:0:
256,192,60704,1,8,0:0:0:0:
256,192,60779,1,0,0:0:0:0:
256,192,60853,1,0,0:0:0:0:
256,192,60927,1,8,0:0:0:0:
256,192,61001,1,0,0:0:0:0:
256,192,61076,1,8,0:0:0:0:
256,192,61150,1,8,0:0:0:0:
256,192,61224,1,0,0:0:0:0:
256,192,61298,1,0,0:0:0:0:
256,192,61373,1,8,0:0:0:0:
256,192,61447,1,0,0:0:0:0:
256,192,61521,1,8,0:0:0:0:
256,192,61595,1,8,0:0:0:0:
256,192,61670,1,0,0:0:0:0:
256,192,61744,1,0,0:0:0:0:
256,192,61818,1,8,0:0:0:0:
256,192,61892,1,0,0:0:0:0:
256,192,61967,1,12,0:0:0:0:
256,192,62858,1,4,0:0:0:0:
256,192,63155,1,12,0:0:0:0:
256,192,63749,1,4,0:0:0:0:
256,192,64046,1,12,0:0:0:0:
256,192,64343,1,12,0:0:0:0:
256,192,64491,1,8,0:0:0:0:
256,192,64640,1,0,0:0:0:0:
256,192,64788,1,0,0:0:0:0:
256,192,64937,1,8,0:0:0:0:
256,192,65011,1,8,0:0:0:0:
256,192,65085,1,0,0:0:0:0:
256,192,65160,1,8,0:0:0:0:
256,192,65234,1,0,0:0:0:0:
256,192,65383,1,8,0:0:0:0:
256,192,65531,1,0,0:0:0:0:
256,192,65680,1,0,0:0:0:0:
256,192,65828,1,8,0:0:0:0:
256,192,65902,1,8,0:0:0:0:
256,192,65977,1,0,0:0:0:0:
256,192,66051,1,0,0:0:0:0:
256,192,66125,1,8,0:0:0:0:
256,192,66274,1,8,0:0:0:0:
256,192,66422,1,0,0:0:0:0:
256,192,66571,1,0,0:0:0:0:
256,192,66719,1,12,0:0:0:0:
256,192,67016,1,0,0:0:0:0:
256,192,67165,1,0,0:0:0:0:
256,192,67313,1,8,0:0:0:0:
256,192,67387,1,8,0:0:0:0:
256,192,67462,1,8,0:0:0:0:
256,192,67610,1,0,0:0:0:0:
256,192,67759,1,8,0:0:0:0:
256,192,67833,1,8,0:0:0:0:
256,192,67907,1,0,0:0:0:0:
256,192,68056,1,8,0:0:0:0:
256,192,68204,1,0,0:0:0:0:
256,192,68353,1,8,0:0:0:0:
256,192,68501,1,0,0:0:0:0:
256,192,68798,1,0,0:0:0:0:
256,192,69095,1,12,0:0:0:0:
256,192,69244,1,8,0:0:0:0:
256,192,69392,1,0,0:0:0:0:
256,192,69541,1,0,0:0:0:0:
256,192,69689,1,8,0:0:0:0:
256,192,69764,1,8,0:0:0:0:
256,192,69838,1,8,0:0:0:0:
256,192,69912,1,8,0:0:0:0:
256,192,69986,1,0,0:0:0:0:
256,192,70135,1,8,0:0:0:0:
256,192,70284,1,0,0:0:0:0:
256,192,70432,1,0,0:0:0:0:
256,192,70581,1,8,0:0:0:0:
256,192,70655,1,0,0:0:0:0:
256,192,70729,1,8,0:0:0:0:
256,192,70803,1,8,0:0:0:0:
256,192,70878,1,0,0:0:0:0:
256,192,71026,1,8,0:0:0:0:
256,192,71175,1,0,0:0:0:0:
256,192,71323,1,0,0:0:0:0:
256,192,71472,1,12,0:0:0:0:
256,192,71620,1,0,0:0:0:0:
256,192,71769,1,8,0:0:0:0:
256,192,71917,1,8,0:0:0:0:
256,192,71991,1,8,0:0:0:0:
256,192,72066,1,0,0:0:0:0:
256,192,72214,1,8,0:0:0:0:
256,192,72363,1,0,0:0:0:0:
256,192,72511,1,8,0:0:0:0:
256,192,72660,1,12,0:0:0:0:
256,192,72808,1,0,0:0:0:0:
256,192,72957,1,12,0:0:0:0:
256,192,73105,1,0,0:0:0:0:
256,192,73254,1,12,0:0:0:0:
256,192,73402,1,0,0:0:0:0:
256,192,73452,1,0,0:0:0:0:
256,192,73501,1,0,0:0:0:0:
256,192,73551,1,8,0:0:0:0:
256,192,73699,1,0,0:0:0:0:
256,192,73848,1,12,0:0:0:0:
256,192,73996,1,8,0:0:0:0:
256,192,74145,1,0,0:0:0:0:
256,192,74293,1,0,0:0:0:0:
256,192,74442,1,8,0:0:0:0:
256,192,74516,1,8,0:0:0:0:
256,192,74590,1,8,0:0:0:0:
256,192,74665,1,8,0:0:0:0:
256,192,74739,1,0,0:0:0:0:
256,192,74887,1,8,0:0:0:0:
256,192,75036,1,0,0:0:0:0:
256,192,75185,1,0,0:0:0:0:
256,192,75333,1,8,0:0:0:0:
256,192,75407,1,8,0:0:0:0:
256,192,75482,1,0,0:0:0:0:
256,192,75556,1,0,0:0:0:0:
256,192,75630,1,8,0:0:0:0:
256,192,75779,1,8,0:0:0:0:
256,192,75927,1,0,0:0:0:0:
256,192,76076,1,0,0:0:0:0:
256,192,76224,1,12,0:0:0:0:
256,192,76521,1,0,0:0:0:0:
256,192,76670,1,0,0:0:0:0:
256,192,76818,1,8,0:0:0:0:
256,192,76892,1,8,0:0:0:0:
256,192,76967,1,8,0:0:0:0:
256,192,77115,1,0,0:0:0:0:
256,192,77264,1,8,0:0:0:0:
256,192,77338,1,0,0:0:0:0:
256,192,77412,1,12,0:0:0:0:
256,192,77561,1,0,0:0:0:0:
256,192,77709,1,12,0:0:0:0:
256,192,77858,1,0,0:0:0:0:
256,192,78006,1,12,0:0:0:0:
256,192,78155,1,0,0:0:0:0:
256,192,78303,1,12,0:0:0:0:
256,192,78452,1,0,0:0:0:0:
256,192,78526,1,0,0:0:0:0:
256,192,78600,1,12,0:0:0:0:
256,192,78749,1,0,0:0:0:0:
256,192,78823,1,8,0:0:0:0:
256,192,78972,1,0,0:0:0:0:
256,192,79046,1,8,0:0:0:0:
256,192,79194,1,0,0:0:0:0:
256,192,79343,1,8,0:0:0:0:
256,192,79417,1,8,0:0:0:0:
256,192,79491,1,0,0:0:0:0:
256,192,79640,1,0,0:0:0:0:
256,192,79788,1,8,0:0:0:0:
256,192,79863,1,0,0:0:0:0:
256,192,80011,1,8,0:0:0:0:
256,192,80085,1,0,0:0:0:0:
256,192,80234,1,8,0:0:0:0:
256,192,80308,1,8,0:0:0:0:
256,192,80383,1,0,0:0:0:0:
256,192,80457,1,0,0:0:0:0:
256,192,80531,1,8,0:0:0:0:
256,192,80680,1,0,0:0:0:0:
256,192,80828,1,0,0:0:0:0:
256,192,80977,1,12,0:0:0:0:
256,192,81125,1,0,0:0:0:0:
256,192,81199,1,0,0:0:0:0:
256,192,81274,1,12,0:0:0:0:
256,192,81422,1,0,0:0:0:0:
256,192,81571,1,12,0:0:0:0:
256,192,81719,1,0,0:0:0:0:
256,192,81793,1,0,0:0:0:0:
256,192,81868,1,12,0:0:0:0:
256,192,82016,1,0,0:0:0:0:
256,192,82165,1,8,0:0:0:0:
256,192,82239,1,8,0:0:0:0:
256,192,82313,1,0,0:0:0:0:
256,192,82387,1,0,0:0:0:0:
256,192,82462,1,8,0:0:0:0:
256,192,82536,1,0,0:0:0:0:
256,192,82610,1,8,0:0:0:0:
256,192,82685,1,0,0:0:0:0:
256,192,82759,1,8,0:0:0:0:
256,192,82833,1,8,0:0:0:0:
256,192,82907,1,0,0:0:0:0:
256,192,82982,1,0,0:0:0:0:
256,192,83056,1,8,0:0:0:0:
256,192,83105,1,8,0:0:0:0:
256,192,83155,1,8,0:0:0:0:
256,192,83204,1,8,0:0:0:0:
256,192,83353,1,12,0:0:0:0:
256,192,83501,1,0,0:0:0:0:
256,192,83650,1,8,0:0:0:0:
256,192,85878,1,0,0:0:0:0:
256,192,86026,1,8,0:0:0:0:
256,192,86175,1,0,0:0:0:0:
256,192,86620,1,8,0:0:0:0:
256,192,86769,1,0,0:0:0:0:
256,192,88105,1,0,0:0:0:0:
256,192,88254,1,8,0:0:0:0:
256,192,88402,1,0,0:0:0:0:
256,192,88848,1,0,0:0:0:0:
256,192,89293,1,0,0:0:0:0:
256,192,89739,1,0,0:0:0:0:
256,192,90185,1,0,0:0:0:0:
256,192,90630,1,0,0:0:0:0:
256,192,90779,1,8,0:0:0:0:
256,192,91076,1,0,0:0:0:0:
256,192,91224,1,8,0:0:0:0:
256,192,91373,1,0,0:0:0:0:
256,192,91521,1,0,0:0:0:0:
256,192,91670,1,8,0:0:0:0:
256,192,91818,1,0,0:0:0:0:
256,192,91967,1,8,0:0:0:0:
256,192,92115,1,8,0:0:0:0:
256,192,92264,1,0,0:0:0:0:
256,192,92412,1,0,0:0:0:0:
256,192,92561,1,0,0:0:0:0:
256,192,92858,1,12,0:0:0:0:
256,192,93006,1,8,0:0:0:0:
256,192,93155,1,0,0:0:0:0:
256,192,93303,1,0,0:0:0:0:
256,192,93452,1,8,0:0:0:0:
256,192,93749,1,0,0:0:0:0:
256,192,93897,1,8,0:0:0:0:
256,192,94046,1,0,0:0:0:0:
256,192,94194,1,0,0:0:0:0:
256,192,94343,1,8,0:0:0:0:
256,192,94640,1,8,0:0:0:0:
256,192,94788,1,8,0:0:0:0:
256,192,94937,1,0,0:0:0:0:
256,192,95085,1,8,0:0:0:0:
256,192,95234,1,0,0:0:0:0:
256,192,95531,1,8,0:0:0:0:
256,192,95680,1,0,0:0:0:0:
256,192,95828,1,8,0:0:0:0:
256,192,96125,1,0,0:0:0:0:
256,192,96274,1,8,0:0:0:0:
256,192,96422,1,0,0:0:0:0:
256,192,96719,1,0,0:0:0:0:
256,192,96868,1,0,0:0:0:0:
256,192,97016,1,8,0:0:0:0:
256,192,97313,1,0,0:0:0:0:
256,192,97610,1,8,0:0:0:0:
256,192,97759,1,8,0:0:0:0:
256,192,97907,1,0,0:0:0:0:
256,192,98056,1,0,0:0:0:0:
256,192,98204,1,8,0:0:0:0:
256,192,98501,1,0,0:0:0:0:
256,192,98650,1,8,0:0:0:0:
256,192,98798,1,0,0:0:0:0:
256,192,98947,1,0,0:0:0:0:
256,192,99095,1,8,0:0:0:0:
256,192,99244,1,0,0:0:0:0:
256,192,99541,1,0,0:0:0:0:
256,192,99689,1,0,0:0:0:0:
256,192,99838,1,0,0:0:0:0:
256,192,99986,1,12,0:0:0:0:
256,192,100135,1,8,0:0:0:0:
256,192,100284,1,0,0:0:0:0:
256,192,100432,1,0,0:0:0:0:
256,192,100581,1,8,0:0:0:0:
256,192,100878,1,4,0:0:0:0:
256,192,101175,1,12,0:0:0:0:
256,192,101323,1,8,0:0:0:0:
256,192,101472,1,0,0:0:0:0:
256,192,101620,1,8,0:0:0:0:
256,192,101769,1,4,0:0:0:0:
256,192,102066,1,12,0:0:0:0:
256,192,102363,1,4,0:0:0:0:
256,192,102660,1,12,0:0:0:0:
256,192,102808,1,8,0:0:0:0:
256,192,102957,1,0,0:0:0:0:
256,192,103031,1,0,0:0:0:0:
256,192,103105,1,0,0:0:0:0:
256,192,103254,1,8,0:0:0:0:
256,192,103402,1,0,0:0:0:0:
256,192,103551,1,8,0:0:0:0:
256,192,103699,1,8,0:0:0:0:
256,192,103848,1,0,0:0:0:0:
256,192,103922,1,0,0:0:0:0:
256,192,103996,1,0,0:0:0:0:
256,192,104145,1,8,0:0:0:0:
256,192,104293,1,8,0:0:0:0:
256,192,104442,1,0,0:0:0:0:
256,192,104590,1,8,0:0:0:0:
256,192,104739,1,4,0:0:0:0:
256,192,104962,1,4,0:0:0:0:
256,192,105185,1,12,0:0:0:0:
256,192,105333,1,4,0:0:0:0:
256,192,105556,1,4,0:0:0:0:
256,192,105779,1,12,0:0:0:0:
256,192,106076,1,4,0:0:0:0:
256,192,106298,1,4,0:0:0:0:
256,192,106521,1,12,0:0:0:0:
256,192,106818,1,4,0:0:0:0:
256,192,107115,1,12,0:0:0:0:
256,192,107338,1,8,0:0:0:0:
256,192,107412,1,0,0:0:0:0:
256,192,107561,1,8,0:0:0:0:
256,192,107709,1,8,0:0:0:0:
256,192,107784,1,8,0:0:0:0:
256,192,107858,1,8,0:0:0:0:
256,192,108006,1,0,0:0:0:0:
256,192,108155,1,0,0:0:0:0:
256,192,108303,1,8,0:0:0:0:
256,192,108378,1,0,0:0:0:0:
256,192,108526,1,8,0:0:0:0:
256,192,108600,1,0,0:0:0:0:
256,192,108749,1,8,0:0:0:0:
256,192,108823,1,8,0:0:0:0:
256,192,108897,1,8,0:0:0:0:
256,192,109046,1,0,0:0:0:0:
256,192,109194,1,8,0:0:0:0:
256,192,109343,1,0,0:0:0:0:
256,192,109491,1,12,0:0:0:0:
256,192,109788,1,12,0:0:0:0:
256,192,109937,1,12,0:0:0:0:
256,192,110234,1,12,0:0:0:0:
256,192,110531,1,12,0:0:0:0:
256,192,110828,1,12,0:0:0:0:
256,192,111125,1,12,0:0:0:0:
256,192,111274,1,12,0:0:0:0:
256,192,111422,1,0,0:0:0:0:
256,192,111571,1,12,0:0:0:0:
256,192,111719,1,0,0:0:0:0:
256,192,111868,1,12,0:0:0:0:
256,192,112759,1,0,0:0:0:0:
256,192,112907,1,0,0:0:0:0:
256,192,112982,1,0,0:0:0:0:
256,192,113056,1,12,0:0:0:0:
256,192,113650,1,0,0:0:0:0:
256,192,113798,1,8,0:0:0:0:
256,192,113947,1,0,0:0:0:0:
256,192,114021,1,0,0:0:0:0:
256,192,114095,1,0,0:0:0:0:
256,192,114170,1,0,0:0:0:0:
256,192,114244,1,12,0:0:0:0:
256,192,114392,1,0,0:0:0:0:
256,192,114541,1,0,0:0:0:0:
256,192,114689,1,0,0:0:0:0:
256,192,114838,1,12,0:0:0:0:
256,192,114986,1,0,0:0:0:0:
256,192,115135,1,0,0:0:0:0:
256,192,115284,1,0,0:0:0:0:
256,192,115432,1,8,0:0:0:0:
256,192,115506,1,8,0:0:0:0:
256,192,115581,1,0,0:0:0:0:
256,192,115655,1,0,0:0:0:0:
256,192,115729,1,8,0:0:0:0:
256,192,115803,1,0,0:0:0:0:
256,192,115878,1,8,0:0:0:0:
256,192,115952,1,0,0:0:0:0:
256,192,116026,1,8,0:0:0:0:
256,192,116100,1,8,0:0:0:0:
256,192,116175,1,8,0:0:0:0:
256,192,116249,1,8,0:0:0:0:
256,192,116323,1,0,0:0:0:0:
256,192,116397,1,0,0:0:0:0:
256,192,116472,1,0,0:0:0:0:
256,192,116546,1,0,0:0:0:0:
256,192,116620,1,12,0:0:0:0:
256,192,116769,2,4,L|320:192,14,35
