osu file format v14

[General]
AudioFilename: audio.mp3
AudioLeadIn: 0
PreviewTime: 61870
Countdown: 0
SampleSet: Soft
StackLeniency: 0.7
Mode: 0
LetterboxInBreaks: 0
WidescreenStoryboard: 0

[Editor]
DistanceSpacing: 0.2
BeatDivisor: 4
GridSize: 32
TimelineZoom: 2.4

[Metadata]
Title:LOA2
TitleUnicode:LOA2
Artist:Se-U-Ra
ArtistUnicode:せゆーら
Creator:Azzedd
Version:Extra
Source:
Tags:se yu-ra KKipalt Dored b00 Regou thiev instrumental electronic Hi-Speed Style boo
BeatmapID:1941568
BeatmapSetID:929622

[Difficulty]
HPDrainRate:5.5
CircleSize:4
OverallDifficulty:8.3
ApproachRate:9.3
SliderMultiplier:1.8
SliderTickRate:1

[Events]
//Background and Video events
0,0,"wallhaven-701252.jpg",0,0
//Break Periods
2,83531,92282
//Storyboard Layer 0 (Background)
//Storyboard Layer 1 (Fail)
//Storyboard Layer 2 (Pass)
//Storyboard Layer 3 (Foreground)
//Storyboard Sound Samples

[TimingPoints]
163,297.029702970297,4,2,1,65,1,0
2539,-133.333333333333,4,2,1,40,0,0
3430,-90.9090909090909,4,2,1,50,0,0
3727,-55.5555555555556,4,2,1,50,0,0
4024,-100,4,2,1,50,0,0
4915,-100,4,2,1,60,0,0
14420,-100,4,2,1,70,0,0
15757,-80,4,2,1,70,0,0
18133,-133.333333333333,4,2,1,40,0,0
18875,-100,4,2,1,40,0,0
19469,-100,4,2,1,60,0,0
20806,-100,4,2,1,65,0,0
21994,-100,4,2,1,70,0,0
22737,-100,4,2,1,70,0,0
23034,-83.3333333333333,4,2,1,50,0,0
23331,-71.4285714285714,4,2,1,55,0,0
23925,-90.9090909090909,4,2,1,65,0,0
28677,-66.6666666666667,4,2,2,65,0,0
30163,-100,4,2,2,50,0,0
30460,-142.857142857143,4,2,2,40,0,0
30757,-142.857142857143,4,2,1,40,0,0
31054,-100,4,2,1,65,0,0
31648,-80,4,2,1,65,0,0
33430,-133.333333333333,4,2,1,30,0,0
34618,-111.111111111111,4,2,1,40,0,0
35806,-100,4,2,1,65,0,0
38182,-333.333333333333,4,2,1,25,0,0
39964,-333.333333333333,4,2,1,40,0,0
40559,-100,4,2,1,65,0,0
44717,-125,4,2,1,60,0,0
45014,-153.846153846153,4,2,1,60,0,0
45311,-100,4,2,1,65,0,0
49469,-133.333333333333,4,2,1,60,0,0
49766,-100,4,2,1,65,0,0
50063,-83.3333333333333,4,2,1,65,0,0
50361,-133.333333333333,4,2,1,65,0,0
50955,-125,4,2,1,65,0,0
51252,-133.333333333333,4,2,1,65,0,0
51846,-133.333333333333,4,2,1,50,0,0
52440,-133.333333333333,4,2,1,60,0,0
53034,-100,4,2,1,60,0,0
57192,-100,4,2,1,60,0,0
59568,-100,4,2,1,70,0,0
61945,-133.333333333333,4,2,1,40,0,0
62836,-90.9090909090909,4,2,1,40,0,0
63133,-55.5555555555556,4,2,1,40,0,0
63430,-100,4,2,1,40,0,0
64321,-74.0740740740741,4,2,1,80,0,1
67291,-100,4,2,1,80,0,1
68479,-153.846153846154,4,2,1,80,0,1
69073,-74.0740740740741,4,2,1,80,0,1
78578,-90.9090909090909,4,2,1,80,0,1
83331,-100,4,2,1,65,0,0
92836,-133.333333333333,4,2,1,50,0,0
99964,-133.333333333333,4,2,1,55,0,0
102341,-100,4,2,1,80,0,1
104717,-100,4,2,1,80,0,0
107093,-90.9090909090909,4,2,1,80,0,1
109469,-100,4,2,1,70,0,0
111549,-166.666666666667,4,2,1,70,0,0
114222,-166.666666666667,4,2,1,80,0,0
115856,-83.3333333333333,4,2,1,80,0,0
117786,-83.3333333333333,4,2,1,5,0,0

[Colours]
Combo1 : 243,171,156
Combo2 : 106,205,226
Combo3 : 244,150,50
Combo4 : 213,112,154

[HitObjects]
256,290,163,5,2,3:2:0:0:
322,109,311,1,2,3:2:0:0:
190,109,460,1,6,3:2:0:0:
256,319,608,5,2,3:2:0:0:
173,94,756,1,2,3:2:0:0:
338,94,905,1,6,3:2:0:0:
152,279,1054,5,2,3:2:0:0:
360,279,1202,1,2,3:2:0:0:
256,38,1351,5,6,3:2:0:0:
234,22,1425,1,0,3:0:0:0:
208,13,1499,1,0,3:0:0:0:
181,11,1573,1,0,3:0:0:0:
155,17,1648,1,4,3:0:0:0:
131,29,1722,1,0,3:0:0:0:
112,48,1796,1,0,3:0:0:0:
99,71,1870,1,0,3:0:0:0:
92,98,1945,6,0,L|105:145,1,45,2|0,3:2|3:0,0:0:0:0:
193,185,2093,2,0,L|179:232,1,45,6|0,3:2|3:0,0:0:0:0:
106,355,2242,6,0,L|150:348,1,45,2|0,3:2|0:0,0:0:0:0:
269,304,2390,2,0,L|313:311,1,45,2|0,3:2|0:0,0:0:0:0:
444,326,2539,6,0,P|442:286|424:253,3,67.5000025749208,6|2|2|2,3:2|0:0|0:0|0:0,0:0:0:0:
410,163,3133,2,0,B|353:160|376:194|317:195,1,101.250003862381,2|0,0:0|0:0,0:0:0:0:
229,222,3430,2,0,B|184:201|184:201|225:175,1,99.0000030212403,2|0,3:2|0:0,0:0:0:0:
18,94,3727,6,0,B|8:69|-12:55|-12:55|57:18|126:55|126:55|106:72|95:98,1,242.999992584229,2|0,3:2|0:0,0:0:0:0:
46,184,4024,2,0,P|35:206|38:232,1,45,2|0,0:0|0:0,0:0:0:0:
115,285,4172,2,0,P|125:307|123:333,1,45,2|0,0:0|0:0,0:0:0:0:
18,365,4321,5,0,3:0:0:0:
6,378,4618,1,10,0:0:0:0:
345,342,4915,5,6,0:0:0:0:
423,253,5063,1,2,0:0:0:0:
352,156,5212,1,2,0:0:0:0:
431,67,5360,1,2,0:0:0:0:
511,269,5509,2,0,L|412:251,1,90,8|0,0:0|0:0,0:0:0:0:
276,248,5806,5,2,0:0:0:0:
187,170,5954,1,2,0:0:0:0:
90,241,6103,1,2,0:0:0:0:
1,162,6251,1,2,0:0:0:0:
203,82,6400,2,0,L|185:181,1,90,2|0,3:2|0:0,0:0:0:0:
179,319,6697,5,10,0:0:0:0:
273,146,6846,1,2,0:0:0:0:
183,245,6994,1,2,0:0:0:0:
268,219,7143,1,2,0:0:0:0:
0,138,7291,5,6,3:2:0:0:
102,122,7440,1,2,0:0:0:0:
77,19,7588,1,2,0:0:0:0:
77,19,7737,2,0,B|184:0|143:74|258:53,1,180,2|0,0:0|0:0,0:0:0:0:
358,47,8182,5,2,0:0:0:0:
308,144,8331,1,2,0:0:0:0:
443,109,8479,2,0,P|469:146|461:206,1,90,2|0,3:2|0:0,0:0:0:0:
427,279,8776,1,2,0:0:0:0:
385,170,8925,1,2,0:0:0:0:
349,324,9073,2,0,B|416:310|416:310|473:345,1,135,2|0,3:2|0:0,0:0:0:0:
225,345,9370,2,0,B|292:358|292:358|349:323,1,135,2|0,3:2|0:0,0:0:0:0:
270,258,9667,5,6,0:0:0:0:
147,280,9816,1,2,0:0:0:0:
192,131,9964,1,2,0:0:0:0:
192,131,10113,2,0,P|214:85|126:98,1,180,2|0,0:0|0:0,0:0:0:0:
102,177,10559,1,2,3:2:0:0:
224,41,10707,1,0,3:0:0:0:
224,41,10781,1,0,3:0:0:0:
224,41,10856,5,6,0:0:0:0:
46,4,11004,1,2,0:0:0:0:
126,85,11153,1,2,0:0:0:0:
7,114,11301,2,0,L|17:163,1,45,2|0,0:0|0:0,0:0:0:0:
73,282,11450,5,2,3:2:0:0:
102,177,11598,1,2,3:2:0:0:
173,363,11747,1,2,3:2:0:0:
199,356,11821,1,0,3:0:0:0:
225,349,11895,1,2,3:2:0:0:
251,343,11969,1,0,3:0:0:0:
277,336,12044,5,6,3:2:0:0:
131,194,12192,1,2,3:2:0:0:
373,278,12341,1,2,3:2:0:0:
169,281,12489,1,2,3:2:0:0:
364,164,12638,5,6,3:2:0:0:
394,384,12786,1,2,3:2:0:0:
481,212,12935,1,2,3:2:0:0:
277,336,13083,1,2,3:2:0:0:
451,130,13232,5,6,3:2:0:0:
435,102,13306,1,0,3:0:0:0:
412,81,13380,1,0,3:0:0:0:
383,70,13454,1,0,3:0:0:0:
351,68,13529,1,4,3:0:0:0:
321,77,13603,1,0,3:0:0:0:
296,96,13677,2,0,P|284:119|281:146,1,45,2|0,3:2|3:0,0:0:0:0:
122,200,13826,5,6,3:2:0:0:
136,220,13900,1,0,3:0:0:0:
158,230,13974,2,0,P|184:228|208:218,1,45,0|0,3:0|3:0,0:0:0:0:
335,329,14123,5,6,3:2:0:0:
346,307,14197,1,0,3:0:0:0:
343,282,14271,2,0,P|328:260|307:244,1,45,0|0,3:0|3:0,0:0:0:0:
148,343,14420,6,0,P|74:324|20:355,1,135,2|0,0:2|0:0,0:0:0:0:
2,375,14717,2,0,P|51:358|68:323,1,90,10|0,0:0|0:0,0:0:0:0:
49,210,15014,1,2,0:2:0:0:
158,230,15162,1,2,0:0:0:0:
121,126,15311,2,0,B|120:74|96:42|96:42|128:59|190:52,1,180,10|0,0:0|0:0,0:0:0:0:
289,156,15757,6,0,L|414:182,1,112.5,2|8,0:0|0:0,0:0:0:0:
489,294,16054,1,0,0:0:0:0:
275,123,16202,2,0,L|400:149,1,112.5,2|0,0:2|0:0,0:0:0:0:
503,322,16499,2,0,L|283:276,1,225,10|0,0:0|0:0,0:0:0:0:
136,171,16945,6,0,P|98:216|101:271,1,112.5,2|8,0:0|0:0,0:0:0:0:
250,267,17242,1,0,0:0:0:0:
173,128,17390,2,0,P|114:133|77:174,1,112.5,2|0,0:2|0:0,0:0:0:0:
181,314,17687,1,8,0:0:0:0:
229,123,17836,2,0,P|183:85|128:88,1,112.5,2|0,0:0|0:0,0:0:0:0:
215,8,18059,1,2,0:0:0:0:
215,8,18133,6,0,L|306:19,1,67.5000025749208,2|0,0:0|0:0,0:0:0:0:
301,48,18356,2,0,L|392:59,1,67.5000025749208,2|0,0:0|0:0,0:0:0:0:
410,65,18578,5,0,3:0:0:0:
403,76,18652,1,0,3:0:0:0:
398,89,18726,1,0,3:0:0:0:
395,102,18800,1,0,3:0:0:0:
393,115,18875,6,0,P|414:167|481:107,1,180,2|0,0:0|3:0,0:0:0:0:
471,354,19469,5,4,3:0:0:0:
454,338,19543,1,0,3:0:0:0:
436,325,19617,1,0,3:0:0:0:
417,314,19691,1,0,3:0:0:0:
396,305,19766,1,0,3:0:0:0:
374,300,19840,1,0,3:0:0:0:
352,297,19914,1,0,3:0:0:0:
329,298,19988,1,0,3:0:0:0:
307,301,20063,1,0,3:0:0:0:
285,308,20137,1,0,3:0:0:0:
265,317,20211,1,0,3:0:0:0:
245,328,20285,1,0,3:0:0:0:
228,342,20361,6,0,P|271:371|314:369,1,90,2|0,0:0|0:0,0:0:0:0:
268,239,20583,2,0,P|216:249|187:281,1,90,2|0,0:0|0:0,0:0:0:0:
123,332,20806,5,0,3:0:0:0:
118,309,20880,1,0,3:0:0:0:
112,288,20954,1,0,3:0:0:0:
104,267,21028,1,0,3:0:0:0:
94,247,21103,1,0,3:0:0:0:
83,227,21177,1,0,3:0:0:0:
70,209,21251,1,0,3:0:0:0:
55,192,21325,1,0,3:0:0:0:
40,176,21400,1,0,3:0:0:0:
22,161,21474,1,0,3:0:0:0:
4,148,21549,6,0,P|-3:193|16:241,1,90,2|0,0:0|0:0,0:0:0:0:
130,165,21771,2,0,P|107:126|61:101,1,90,2|0,0:0|0:0,0:0:0:0:
10,35,21994,5,0,3:0:0:0:
30,26,22068,1,0,3:0:0:0:
52,20,22142,1,0,3:0:0:0:
74,16,22216,1,0,3:0:0:0:
96,13,22291,1,0,3:0:0:0:
119,13,22365,1,0,3:0:0:0:
141,16,22439,1,0,3:0:0:0:
163,20,22513,1,0,3:0:0:0:
185,26,22588,1,0,3:0:0:0:
206,34,22662,1,0,3:0:0:0:
226,45,22737,6,0,P|243:58|259:78,3,45,2|0|0|0,0:0|3:0|3:0|3:0,0:0:0:0:
327,150,23034,2,0,P|301:160|268:165,3,53.9999983520508,2|0|0|0,0:0|3:0|3:0|3:0,0:0:0:0:
173,196,23331,2,0,P|177:162|191:125,3,62.9999980773926,2|0|0|0,0:0|3:0|3:0|3:0,0:0:0:0:
191,285,23628,5,2,0:0:0:0:
275,165,23776,1,2,0:0:0:0:
313,358,23925,6,0,P|353:328|410:330,1,99.0000030212403,6|0,0:2|0:0,0:0:0:0:
440,339,24148,1,0,0:0:0:0:
440,339,24222,2,0,L|462:390,2,49.5000015106202,10|0|0,0:0|0:0|0:0,0:0:0:0:
458,123,24519,1,2,0:2:0:0:
384,211,24667,1,2,0:0:0:0:
497,231,24816,1,10,0:0:0:0:
199,358,25113,6,0,P|159:328|102:330,1,99.0000030212403,2|0,0:2|0:0,0:0:0:0:
72,339,25336,1,0,0:0:0:0:
72,339,25410,2,0,L|50:390,2,49.5000015106202,10|0|0,0:0|0:0|0:0,0:0:0:0:
54,123,25707,1,2,0:2:0:0:
128,211,25855,1,2,0:0:0:0:
15,231,26004,1,10,0:0:0:0:
167,103,26153,2,0,L|219:89,1,49.5000015106202,2|0,0:0|0:0,0:0:0:0:
333,89,26301,6,0,L|430:115,1,99.0000030212403,2|0,0:2|0:0,0:0:0:0:
461,131,26524,1,0,0:0:0:0:
461,131,26598,2,0,P|472:157|468:187,2,49.5000015106202,10|0|0,0:0|0:0|0:0,0:0:0:0:
374,12,26895,5,2,0:2:0:0:
326,174,27044,1,2,0:0:0:0:
138,12,27192,1,10,0:0:0:0:
186,174,27341,2,0,L|175:227,1,49.5000015106202,2|0,0:0|0:0,0:0:0:0:
63,332,27489,6,0,L|83:235,1,99.0000030212403,6|0,0:2|0:0,0:0:0:0:
88,205,27712,1,0,0:0:0:0:
88,205,27786,2,0,L|58:164,2,49.5000015106202,10|0|0,0:0|0:0|0:0,0:0:0:0:
183,360,28083,5,2,0:2:0:0:
298,284,28232,1,2,0:0:0:0:
175,222,28380,1,10,0:0:0:0:
270,135,28529,2,0,L|319:139,1,49.5000015106202,2|0,0:0|0:0,0:0:0:0:
411,75,28677,6,0,P|434:133|368:248,1,180.000006866455,8|0,0:0|0:0,0:0:0:0:
298,284,28974,2,0,L|391:326,2,90.0000034332277,8|0|0,0:0|0:0|0:0,0:0:0:0:
138,115,29271,2,0,B|150:158|150:158|129:202,1,90.0000034332277,8|0,0:0|0:0,0:0:0:0:
48,149,29469,1,0,0:0:0:0:
159,76,29568,2,0,B|183:162|183:162|141:250,1,180.000006866455,8|0,0:0|0:0,0:0:0:0:
30,358,29865,6,0,P|111:322|194:350,1,180.000006866455,8|0,0:0|0:0,0:0:0:0:
208,361,30163,2,0,P|272:389|339:367,1,120,8|0,0:0|0:0,0:0:0:0:
330,377,30460,2,0,P|375:356|421:372,1,83.9999974365235,8|0,0:0|0:0,0:0:0:0:
407,362,30757,1,8,0:0:0:0:
419,101,31054,5,4,3:0:0:0:
512,64,31202,1,0,3:0:0:0:
350,45,31351,2,0,P|328:104|359:167,1,135,0|0,3:0|0:0,0:0:0:0:
394,193,31648,6,0,B|339:204|339:204|323:258,1,112.5,2|0,0:2|0:0,0:0:0:0:
214,318,31945,1,8,0:0:0:0:
253,103,32093,2,0,B|221:149|221:149|248:199,1,112.5,2|0,0:0|0:0,0:0:0:0:
214,318,32390,1,0,0:0:0:0:
90,139,32539,2,0,B|101:193|101:193|155:210,1,112.5,10|0,0:0|0:0,0:0:0:0:
214,318,32836,1,0,3:0:0:0:
0,280,32984,2,0,B|46:311|46:311|96:284,1,112.5,2|8,3:2|0:0,0:0:0:0:
214,318,33281,1,0,3:0:0:0:
155,210,33430,6,0,B|145:137|187:160|179:78,2,135.000005149842,6|0|8,0:0|0:0|0:0,0:0:0:0:
512,150,34618,6,0,B|464:176|409:157|409:157|384:208|384:208|336:173|251:191,1,283.499991348267,2|0,0:0|0:0,0:0:0:0:
274,267,35212,2,0,P|312:284|352:278,1,80.9999975280763,2|0,0:0|0:0,0:0:0:0:
471,226,35509,2,0,L|454:188,1,40.4999987640381,2|0,0:0|0:0,0:0:0:0:
455,84,35658,2,0,L|416:69,1,40.4999987640381,2|0,0:0|0:0,0:0:0:0:
275,34,35806,6,0,P|233:43|202:77,1,90,6|0,3:2|0:0,0:0:0:0:
189,193,36103,2,0,P|147:184|116:150,1,90,2|0,3:2|0:0,0:0:0:0:
108,33,36400,1,0,3:0:0:0:
22,190,36549,1,2,3:2:0:0:
28,206,36623,1,2,3:2:0:0:
33,224,36697,1,2,3:2:0:0:
19,50,36846,1,2,3:2:0:0:
14,32,36920,1,2,3:2:0:0:
9,16,36994,5,2,3:2:0:0:
123,223,37143,1,2,3:2:0:0:
131,30,37291,1,2,3:2:0:0:
219,119,37440,2,0,B|291:100|267:156|352:139,1,135,2|0,3:2|0:0,0:0:0:0:
386,127,37737,1,2,3:2:0:0:
403,25,37885,2,0,P|352:28|311:57,1,90,0|0,3:0|0:0,0:0:0:0:
495,128,38182,6,0,L|482:90,4,40.4999987640381,6|2|2|2|2,0:0|0:0|0:0|0:0|0:0,0:0:0:0:
390,232,39370,2,0,L|403:193,2,40.4999987640381,2|2|2,0:0|0:0|0:0,0:0:0:0:
461,317,39964,5,2,0:0:0:0:
351,335,40113,1,0,3:0:0:0:
338,327,40187,1,0,3:0:0:0:
324,321,40261,1,0,3:0:0:0:
310,318,40335,1,0,3:0:0:0:
295,317,40410,1,0,3:0:0:0:
280,319,40484,1,0,3:0:0:0:
266,323,40559,6,0,P|239:330|220:346,1,45,6|0,3:2|0:0,0:0:0:0:
138,252,40707,2,0,P|101:277|57:288,1,90,2|8,0:0|0:0,0:0:0:0:
266,61,41004,6,0,P|239:54|220:38,1,45,2|0,0:0|0:0,0:0:0:0:
138,132,41153,2,0,P|101:107|57:96,1,90,2|0,3:2|0:0,0:0:0:0:
463,323,41450,6,0,P|436:330|417:346,1,45,10|0,0:0|0:0,0:0:0:0:
335,252,41598,2,0,P|298:277|254:288,1,90,2|0,0:0|3:0,0:0:0:0:
463,61,41895,6,0,P|436:54|417:38,1,45,2|0,0:0|0:0,0:0:0:0:
335,132,42043,2,0,P|298:107|254:96,1,90,10|0,0:0|0:0,0:0:0:0:
463,238,42341,6,0,P|436:245|417:261,1,45,2|0,3:2|0:0,0:0:0:0:
463,146,42489,2,0,P|436:139|417:123,1,45,2|0,0:0|0:0,0:0:0:0:
256,192,42638,1,10,0:0:0:0:
256,192,42786,1,2,0:0:0:0:
24,256,42935,6,0,L|68:245,1,45,6|0,3:2|0:0,0:0:0:0:
144,357,43083,2,0,L|169:271,1,90,2|8,0:0|0:0,0:0:0:0:
488,256,43380,6,0,L|444:245,1,45,2|0,0:0|0:0,0:0:0:0:
367,357,43528,2,0,L|343:271,1,90,2|0,3:2|0:0,0:0:0:0:
24,128,43826,6,0,L|68:139,1,45,10|0,0:0|0:0,0:0:0:0:
144,26,43974,2,0,L|169:113,1,90,2|0,0:0|3:0,0:0:0:0:
488,128,44271,6,0,L|444:139,1,45,2|0,0:0|0:0,0:0:0:0:
367,26,44419,2,0,L|343:113,1,90,10|0,0:0|0:0,0:0:0:0:
206,196,44717,6,0,B|260:177|250:219|326:194,1,108,2|0,3:2|0:0,0:0:0:0:
251,322,45014,2,0,P|230:291|237:253,1,58.4999973220826,10|0,0:0|0:0,0:0:0:0:
493,276,45311,6,0,P|482:295|479:318,1,45,6|0,3:2|0:0,0:0:0:0:
375,255,45460,2,0,P|363:298|368:342,1,90,2|8,0:0|0:0,0:0:0:0:
17,275,45757,6,0,P|29:295|31:317,1,45,2|0,0:0|0:0,0:0:0:0:
136,254,45906,2,0,P|147:297|142:341,1,90,2|0,3:2|0:0,0:0:0:0:
492,107,46202,6,0,P|481:87|477:64,1,45,10|0,0:0|0:0,0:0:0:0:
374,128,46351,2,0,P|362:84|367:40,1,90,2|0,0:0|3:0,0:0:0:0:
18,107,46648,6,0,P|28:88|32:66,1,45,2|0,0:0|0:0,0:0:0:0:
137,128,46797,2,0,P|147:85|143:41,1,90,10|0,0:0|0:0,0:0:0:0:
351,125,47093,6,0,L|300:147,1,45,2|0,3:2|0:0,0:0:0:0:
351,259,47242,2,0,L|300:237,1,45,2|0,0:0|0:0,0:0:0:0:
208,192,47390,1,10,0:0:0:0:
208,192,47539,1,2,0:0:0:0:
311,358,47687,6,0,P|332:345|359:342,1,45,2|0,3:2|0:0,0:0:0:0:
451,267,47836,2,0,P|487:301|507:353,1,90,2|8,0:0|0:0,0:0:0:0:
201,358,48133,6,0,P|180:345|153:342,1,45,2|0,0:0|0:0,0:0:0:0:
61,267,48282,2,0,P|24:301|4:353,1,90,2|0,3:2|0:0,0:0:0:0:
309,241,48578,6,0,L|358:227,1,45,10|0,0:0|0:0,0:0:0:0:
203,143,48727,2,0,L|154:157,1,45,2|0,0:0|0:0,0:0:0:0:
255,301,48875,5,2,3:2:0:0:
257,83,49024,1,2,0:0:0:0:
203,241,49172,2,0,L|154:227,1,45,10|0,0:0|0:0,0:0:0:0:
309,143,49321,2,0,L|358:157,1,45,2|0,0:0|0:0,0:0:0:0:
465,178,49469,6,0,P|436:223|436:271,1,101.250003862381,2|0,0:0|0:0,0:0:0:0:
503,94,49766,2,0,P|449:86|406:107,1,90,10|0,0:0|0:0,0:0:0:0:
99,17,50063,6,0,L|111:134,1,107.999996704102,6|0,0:1|0:0,0:0:0:0:
149,365,50361,2,0,L|115:369,1,33.7500012874604,2|0,0:1|0:0,0:0:0:0:
53,313,50509,2,0,L|47:279,1,33.7500012874604,2|0,0:1|0:0,0:0:0:0:
105,219,50658,2,0,L|138:214,1,33.7500012874604,2|0,0:1|0:0,0:0:0:0:
200,269,50806,2,0,L|204:302,1,33.7500012874604,2|0,0:1|0:0,0:0:0:0:
110,124,50955,6,0,L|98:16,1,108,2|0,0:1|0:0,0:0:0:0:
235,50,51252,6,0,P|254:51|273:60,1,33.7500012874604,2|0,0:1|0:0,0:0:0:0:
358,36,51400,2,0,P|362:54|360:75,1,33.7500012874604,2|0,0:1|0:0,0:0:0:0:
408,148,51549,2,0,P|394:156|378:161,1,33.7500012874604,2|0,0:1|0:0,0:0:0:0:
318,231,51697,2,0,P|304:220|295:206,1,33.7500012874604,2|0,0:1|0:0,0:0:0:0:
210,170,51846,5,4,0:0:0:0:
215,159,52143,1,4,0:0:0:0:
458,207,52440,5,6,3:2:0:0:
318,231,52588,1,2,0:0:0:0:
344,372,52736,1,2,0:0:0:0:
482,346,52885,1,2,0:0:0:0:
258,305,53034,2,0,P|230:342|224:388,1,90,10|0,0:0|0:0,0:0:0:0:
33,210,53331,5,2,3:2:0:0:
173,186,53479,1,2,0:0:0:0:
147,45,53627,1,2,0:0:0:0:
9,71,53776,1,6,3:2:0:0:
233,112,53925,2,0,P|261:75|267:29,1,90,6|0,3:2|0:0,0:0:0:0:
462,82,54222,6,0,P|432:83|407:98,1,45,2|0,0:0|0:0,0:0:0:0:
355,180,54370,1,2,0:0:0:0:
355,180,54445,1,2,0:0:0:0:
355,180,54519,2,0,P|319:206|275:212,1,90,10|0,0:0|0:0,0:0:0:0:
54,207,54816,5,6,3:2:0:0:
194,231,54964,1,2,0:0:0:0:
168,372,55112,1,2,0:0:0:0:
30,346,55262,1,6,3:2:0:0:
254,305,55410,2,0,P|282:342|288:388,1,90,4|0,3:2|0:0,0:0:0:0:
479,210,55707,5,6,3:2:0:0:
339,186,55855,1,2,0:0:0:0:
365,45,56003,1,6,3:2:0:0:
503,71,56152,1,6,3:2:0:0:
283,107,56301,1,6,3:2:0:0:
399,274,56450,2,0,B|340:283|340:283|301:320|301:320|227:334,1,180,6|0,3:2|3:0,0:0:0:0:
119,271,56895,1,2,3:2:0:0:
243,225,57044,1,2,3:2:0:0:
235,362,57192,5,6,3:2:0:0:
127,163,57341,1,2,3:2:0:0:
361,327,57489,1,2,3:2:0:0:
144,262,57638,1,2,3:2:0:0:
426,212,57786,5,2,3:2:0:0:
227,321,57935,1,2,3:2:0:0:
391,86,58083,1,2,3:2:0:0:
364,83,58157,1,2,3:2:0:0:
337,79,58231,1,2,3:2:0:0:
310,75,58305,1,2,3:2:0:0:
284,72,58380,5,6,3:2:0:0:
126,263,58529,1,2,3:2:0:0:
143,15,58677,1,2,3:2:0:0:
273,225,58825,1,2,3:2:0:0:
44,132,58974,6,0,P|-1:109|4:174,1,135,2|0,3:2|0:0,0:0:0:0:
66,204,59271,1,2,3:2:0:0:
89,216,59345,1,2,3:2:0:0:
109,235,59419,1,2,3:2:0:0:
124,257,59493,1,2,3:2:0:0:
133,283,59568,5,4,3:2:0:0:
260,69,59718,1,4,3:2:0:0:
381,285,59865,1,4,3:2:0:0:
133,101,60014,5,0,3:2:0:0:
260,315,60162,1,4,3:2:0:0:
381,99,60311,1,0,3:2:0:0:
133,283,60460,6,0,P|116:270|94:266,1,45,4|0,3:0|3:0,0:0:0:0:
381,285,60608,2,0,P|398:272|420:268,1,45,4|0,3:0|3:0,0:0:0:0:
260,192,60757,5,0,3:0:0:0:
277,171,60831,1,0,3:0:0:0:
288,147,60905,1,0,3:0:0:0:
294,120,60979,1,0,3:0:0:0:
294,93,61054,1,4,3:0:0:0:
287,67,61128,1,0,3:0:0:0:
274,44,61202,1,0,3:0:0:0:
256,24,61276,1,0,3:0:0:0:
234,8,61351,5,2,3:2:0:0:
203,14,61425,1,0,3:0:0:0:
179,34,61499,1,6,3:2:0:0:
169,63,61573,1,0,3:0:0:0:
175,94,61648,2,2,P|177:113|192:143,1,45,2|0,3:2|3:2,0:0:0:0:
381,86,61796,2,0,P|396:74|414:47,1,45,2|0,3:2|3:0,0:0:0:0:
284,268,61945,6,0,P|259:257|215:254,3,67.5000025749208,6|2|2|2,3:2|0:0|0:0|0:0,0:0:0:0:
340,373,62539,2,0,B|337:316|371:339|372:280,1,101.250003862381,2|0,0:0|0:0,0:0:0:0:
352,204,62836,2,0,B|378:163|378:163|399:208,1,99.0000030212403,2|0,3:2|0:0,0:0:0:0:
135,56,63133,6,0,B|59:1|-24:56|-24:56|15:73|43:111,1,242.999992584229,2|0,3:2|0:0,0:0:0:0:
101,184,63430,2,0,P|111:206|109:232,1,45,2|0,0:0|0:0,0:0:0:0:
32,285,63578,2,0,P|21:307|24:333,1,45,2|0,0:0|0:0,0:0:0:0:
129,365,63727,5,4,0:0:0:0:
141,378,64024,1,10,0:0:0:0:
430,235,64321,5,6,3:2:0:0:
299,192,64469,1,2,0:0:0:0:
430,13,64618,1,10,0:0:0:0:
510,124,64766,1,2,0:0:0:0:
299,55,64915,2,0,B|236:70|236:70|204:121,1,121.500000463486,2|0,3:2|0:0,0:0:0:0:
82,380,65212,5,10,0:0:0:0:
213,337,65360,1,2,0:0:0:0:
82,158,65509,1,2,3:2:0:0:
2,269,65657,1,2,0:0:0:0:
213,200,65806,2,0,B|275:215|275:215|308:266,1,121.500000463486,10|0,0:0|0:0,0:0:0:0:
512,384,66103,5,2,3:2:0:0:
321,282,66252,1,2,0:0:0:0:
476,313,66400,1,10,0:0:0:0:
354,352,66549,1,2,0:0:0:0:
469,168,66697,2,0,P|458:100|417:55,1,121.500000463486,2|0,3:2|0:0,0:0:0:0:
226,111,66994,5,10,0:0:0:0:
341,127,67143,1,2,0:0:0:0:
163,35,67291,2,0,P|130:73|128:128,1,90,2|0,3:2|0:0,0:0:0:0:
325,148,67588,1,10,0:0:0:0:
244,216,67737,1,2,0:0:0:0:
226,111,67885,5,2,3:2:0:0:
237,233,68034,1,2,0:0:0:0:
92,372,68331,5,2,0:0:0:0:
44,271,68479,2,0,P|11:290|-4:316,1,58.4999973220826,2|0,3:2|0:0,0:0:0:0:
176,299,68776,2,0,P|192:321|199:349,1,58.4999973220826,10|0,0:0|0:0,0:0:0:0:
465,128,69073,5,2,3:2:0:0:
456,276,69221,1,2,0:0:0:0:
354,168,69370,1,10,0:0:0:0:
460,297,69519,1,2,0:0:0:0:
370,41,69667,2,0,P|310:24|256:44,1,121.500000463486,2|0,3:2|0:0,0:0:0:0:
47,128,69964,5,10,0:0:0:0:
56,276,70113,1,2,0:0:0:0:
158,168,70262,1,2,3:2:0:0:
52,297,70409,1,2,0:0:0:0:
142,41,70559,1,10,0:0:0:0:
240,313,70707,6,0,B|112:305|170:402|9:381,1,243.000000926971,2|0,0:0|0:0,0:0:0:0:
56,276,71153,1,10,0:0:0:0:
176,367,71301,1,2,0:0:0:0:
320,207,71450,5,2,3:2:0:0:
410,313,71598,1,2,0:0:0:0:
273,338,71746,1,10,0:0:0:0:
458,182,71895,2,0,B|494:95|432:27|432:27|416:69|382:91,1,243.000000926971,2|0,0:0|0:0,0:0:0:0:
206,48,72341,1,10,0:0:0:0:
344,18,72489,1,2,0:0:0:0:
283,294,72638,5,6,3:2:0:0:
103,80,72786,1,2,3:2:0:0:
334,200,72935,1,14,3:2:0:0:
86,277,73083,1,2,3:2:0:0:
206,48,73232,5,6,3:2:0:0:
181,327,73380,2,0,L|176:361,2,30.3750001158714,0|0|0,3:0|3:0|3:0,0:0:0:0:
194,186,73529,1,10,3:2:0:0:
54,175,73677,1,0,3:0:0:0:
300,286,73826,6,0,P|320:264|349:257,1,60.7500002317429,6|0,3:2|0:0,0:0:0:0:
505,286,73974,1,2,0:0:0:0:
300,97,74123,2,0,P|320:119|349:126,1,60.7500002317429,10|0,0:0|0:0,0:0:0:0:
505,98,74271,1,2,0:0:0:0:
253,193,74420,2,0,B|187:191|207:236|138:237,1,121.500000463486,2|0,3:2|0:0,0:0:0:0:
39,24,74717,6,0,P|75:24|100:44,1,60.7500002317429,10|0,0:0|0:0,0:0:0:0:
184,178,74865,1,0,0:0:0:0:
300,24,75014,2,0,P|336:24|361:44,1,60.7500002317429,2|0,3:2|0:0,0:0:0:0:
445,178,75162,1,2,0:0:0:0:
184,178,75311,2,0,B|118:176|138:221|69:222,1,121.500000463486,10|0,0:0|0:0,0:0:0:0:
308,380,75608,5,2,3:2:0:0:
143,236,75757,1,2,0:0:0:0:
301,302,75905,1,10,0:0:0:0:
149,313,76054,1,2,0:0:0:0:
380,236,76202,2,0,L|389:357,1,121.500000463486,2|0,3:2|0:0,0:0:0:0:
470,140,76499,6,0,L|465:79,1,60.7500002317429,10|0,0:0|0:0,0:0:0:0:
508,265,76648,1,2,0:0:0:0:
290,140,76796,2,0,L|294:79,1,60.7500002317429,2|0,3:2|0:0,0:0:0:0:
252,265,76945,1,2,0:0:0:0:
380,148,77093,2,0,L|389:27,1,121.500000463486,10|0,0:0|0:0,0:0:0:0:
173,72,77390,5,4,3:0:0:0:
292,3,77539,1,0,0:0:0:0:
66,3,77687,1,12,0:0:0:0:
173,72,77836,1,0,0:0:0:0:
292,3,77984,5,6,3:2:0:0:
178,198,78133,1,0,3:2:0:0:
66,3,78281,1,14,3:2:0:0:
179,220,78430,1,0,3:0:0:0:
180,242,78504,1,0,3:0:0:0:
181,264,78578,6,0,L|188:365,1,99.0000030212403,6|0,3:2|0:0,0:0:0:0:
278,293,78801,1,2,0:0:0:0:
297,280,78875,2,0,P|337:271|390:289,1,99.0000030212403,10|0,0:0|0:0,0:0:0:0:
484,269,79098,1,2,0:0:0:0:
485,247,79172,2,0,L|492:149,1,99.0000030212403,2|0,0:0|0:0,0:0:0:0:
395,178,79395,1,2,0:0:0:0:
376,165,79469,2,0,P|336:156|283:174,1,99.0000030212403,10|0,0:0|0:0,0:0:0:0:
68,74,79766,6,0,L|175:92,1,99.0000030212403,2|0,3:2|0:0,0:0:0:0:
244,105,79989,1,2,0:0:0:0:
244,105,80063,1,10,0:0:0:0:
54,247,80212,2,0,P|75:324|123:260,1,198.000006042481,2|0,0:0|0:0,0:0:0:0:
108,133,80658,1,10,0:0:0:0:
209,223,80806,1,2,0:0:0:0:
241,34,80955,5,4,3:0:0:0:
265,9,81029,1,0,3:0:0:0:
297,0,81103,1,0,3:0:0:0:
331,7,81177,1,0,3:0:0:0:
357,29,81252,1,4,3:0:0:0:
368,62,81326,1,0,3:0:0:0:
362,95,81400,1,0,3:0:0:0:
341,122,81474,1,0,3:0:0:0:
309,135,81549,5,4,3:0:0:0:
274,118,81623,1,0,3:0:0:0:
235,114,81697,1,0,3:0:0:0:
196,120,81771,1,0,3:0:0:0:
161,138,81846,1,4,3:0:0:0:
132,166,81920,1,0,3:0:0:0:
114,200,81994,1,0,3:0:0:0:
106,239,82068,1,0,3:0:0:0:
110,278,82143,5,6,3:2:0:0:
44,21,82291,1,2,0:0:0:0:
226,232,82440,1,6,3:2:0:0:
0,107,82588,1,2,0:0:0:0:
309,135,82737,6,0,P|341:169|355:221,1,99.0000030212403,6|0,3:2|0:0,0:0:0:0:
512,384,83034,2,0,P|480:350|466:298,1,99.0000030212403,6|0,3:2|0:0,0:0:0:0:
482,163,83331,5,2,3:2:0:0:
100,144,92836,5,2,3:2:0:0:
29,121,92984,1,2,0:0:0:0:
29,46,93133,1,2,0:0:0:0:
100,23,93281,1,2,0:0:0:0:
143,83,93430,2,0,P|162:102|173:140,1,67.5000025749208,10|0,0:0|0:0,0:0:0:0:
100,240,93727,5,2,3:2:0:0:
29,263,93875,1,2,0:0:0:0:
29,338,94024,1,2,0:0:0:0:
100,361,94172,1,2,0:0:0:0:
143,301,94321,2,0,P|162:281|173:243,1,67.5000025749208,2|0,3:2|0:0,0:0:0:0:
254,184,94618,6,0,L|322:201,1,67.5000025749208,10|2,0:0|0:0,0:0:0:0:
316,325,94915,1,2,3:2:0:0:
316,325,95063,2,0,P|368:298|442:312,1,135.000005149842,2|0,0:0|0:0,0:0:0:0:
512,384,95509,5,2,0:0:0:0:
497,365,95658,1,2,0:0:0:0:
482,322,95806,2,0,P|488:288|515:253,1,67.5000025749208,10|0,0:0|0:0,0:0:0:0:
490,159,96103,1,2,0:0:0:0:
367,254,96252,2,0,B|293:253|318:298|240:300,1,135.000005149842,2|0,0:0|0:0,0:0:0:0:
141,143,96846,5,2,3:2:0:0:
228,132,96994,2,0,P|216:94|189:72,1,67.5000025749208,10|0,0:0|0:0,0:0:0:0:
141,143,97291,2,0,P|117:166|109:199,1,67.5000025749208,2|0,3:2|0:0,0:0:0:0:
174,328,97588,5,2,3:2:0:0:
240,266,97737,1,2,0:0:0:0:
296,334,97885,1,2,0:0:0:0:
362,272,98034,1,2,0:0:0:0:
418,340,98182,2,0,L|485:320,1,67.5000025749208,10|0,0:0|0:0,0:0:0:0:
428,210,98479,5,2,3:2:0:0:
362,272,98628,1,2,0:0:0:0:
306,204,98776,1,2,0:0:0:0:
240,266,98925,1,2,3:2:0:0:
184,198,99073,1,2,0:0:0:0:
246,91,99222,6,0,L|316:105,1,67.5000025749208,2|8,3:2|0:0,0:0:0:0:
253,4,99519,1,2,3:2:0:0:
178,34,99667,1,2,3:2:0:0:
160,114,99816,1,2,3:2:0:0:
340,109,99964,6,0,L|410:123,3,67.5000025749208,2|0|0|0,3:2|0:0|0:0|0:0,0:0:0:0:
472,248,100559,2,0,L|339:274,1,135.000005149842,2|0,0:0|3:0,0:0:0:0:
172,109,101153,6,0,L|102:123,3,67.5000025749208,2|0|0|0,3:2|0:0|0:0|0:0,0:0:0:0:
39,248,101747,1,2,3:2:0:0:
172,275,102044,1,10,0:0:0:0:
257,27,102341,6,0,B|292:90|213:95|257:160,1,135,6|0,3:2|0:0,0:0:0:0:
276,181,102638,5,14,0:0:0:0:
368,118,102786,1,2,0:0:0:0:
431,288,102935,2,0,P|386:283|345:299,1,90,2|0,3:2|0:0,0:0:0:0:
263,358,103232,1,10,0:0:0:0:
276,215,103380,1,2,0:0:0:0:
407,366,103529,5,2,3:2:0:0:
145,366,103677,1,2,0:0:0:0:
276,215,103826,2,0,P|271:171|232:140,1,90,14|0,0:0|0:0,0:0:0:0:
84,105,104123,1,2,3:2:0:0:
150,193,104271,1,2,0:0:0:0:
84,281,104420,1,10,0:0:0:0:
145,366,104568,1,2,0:0:0:0:
84,105,104717,6,0,L|109:16,1,90,6|0,3:2|0:0,0:0:0:0:
238,142,104940,2,0,L|159:185,1,90,6|0,3:2|0:0,0:0:0:0:
207,39,105163,1,6,3:2:0:0:
346,107,105311,6,0,P|365:149|352:195,1,90,6|0,3:2|0:0,0:0:0:0:
314,264,105534,2,0,P|295:306|308:352,1,90,6|0,3:2|0:0,0:0:0:0:
464,294,105757,2,0,B|429:231|508:226|464:161,1,135,6|0,3:2|0:0,0:0:0:0:
454,132,106054,5,6,3:2:0:0:
314,264,106276,5,6,3:2:0:0:
347,73,106499,6,0,L|258:91,1,90,6|0,3:2|0:0,0:0:0:0:
159,21,106796,2,0,L|130:107,1,90,6|0,3:2|0:0,0:0:0:0:
33,240,107093,6,0,P|77:218|126:226,1,99.0000030212403,6|0,3:2|0:0,0:0:0:0:
208,262,107316,1,2,0:0:0:0:
201,285,107390,2,0,L|168:382,1,99.0000030212403,10|0,0:0|0:0,0:0:0:0:
339,370,107613,1,2,0:0:0:0:
334,354,107687,2,0,L|303:261,1,99.0000030212403,2|0,0:0|0:0,0:0:0:0:
387,239,107910,1,2,0:0:0:0:
407,225,107984,2,0,P|455:217|498:239,1,99.0000030212403,10|0,0:0|0:0,0:0:0:0:
354,26,108281,6,0,L|337:130,1,99.0000030212403,2|0,3:2|0:0,0:0:0:0:
440,93,108504,1,2,0:0:0:0:
440,93,108578,1,10,0:0:0:0:
251,37,108727,2,0,B|186:46|186:46|143:87|143:87|61:103,1,198.000006042481,2|0,0:0|0:0,0:0:0:0:
22,263,109172,1,10,0:0:0:0:
126,195,109321,1,2,0:0:0:0:
70,367,109469,6,0,P|117:344|164:353,1,90,6|0,3:2|0:0,0:0:0:0:
256,384,109766,1,6,3:2:0:0:
441,366,109915,2,0,P|403:345|358:348,1,90,4|0,3:0|0:0,0:0:0:0:
292,188,110212,2,0,P|325:218|337:261,1,90,4|0,3:0|0:0,0:0:0:0:
442,11,110509,2,0,P|403:32|359:30,1,90,4|0,3:0|0:0,0:0:0:0:
292,188,110806,2,0,P|325:159|337:116,1,90,4|0,3:0|0:0,0:0:0:0:
269,0,111103,5,6,3:2:0:0:
117,113,111252,1,2,3:2:0:0:
292,188,111400,1,6,3:2:0:0:
226,98,111549,6,0,L|143:109,1,80.9999975280763,6|0,0:0|0:0,0:0:0:0:
117,113,111846,5,6,3:2:0:0:
117,113,112737,1,2,3:2:0:0:
34,248,112885,1,2,3:2:0:0:
55,245,112959,1,2,3:2:0:0:
77,242,113033,5,6,3:2:0:0:
77,242,113628,1,2,3:2:0:0:
159,350,113776,1,2,3:2:0:0:
230,143,113925,1,2,3:2:0:0:
216,160,113999,1,0,3:0:0:0:
207,179,114073,1,2,3:2:0:0:
201,200,114147,1,0,3:0:0:0:
199,221,114222,5,6,3:2:0:0:
465,186,114370,1,2,3:2:0:0:
269,370,114519,1,2,3:2:0:0:
320,106,114667,1,2,3:2:0:0:
436,352,114816,5,6,3:2:0:0:
316,81,114964,1,2,3:2:0:0:
258,383,115112,1,2,3:2:0:0:
312,56,115261,1,2,3:2:0:0:
449,363,115410,5,6,3:2:0:0:
458,329,115484,1,0,3:0:0:0:
461,294,115558,1,0,3:0:0:0:
457,259,115632,1,0,3:0:0:0:
445,226,115707,1,6,3:2:0:0:
427,196,115781,1,0,3:0:0:0:
404,170,115856,2,0,P|381:149|353:140,1,53.9999983520508,2|0,3:2|3:0,0:0:0:0:
127,266,116004,5,6,3:2:0:0:
150,237,116078,1,0,3:0:0:0:
185,223,116153,2,0,P|215:215|244:221,1,53.9999983520508,0|0,3:0|3:0,0:0:0:0:
376,356,116301,5,6,3:2:0:0:
341,342,116375,1,0,3:0:0:0:
304,347,116450,2,0,P|274:355|251:374,1,53.9999983520508,0|0,3:0|3:0,0:0:0:0:
122,383,116598,5,2,3:2:0:0:
256,192,116672,12,0,117786,0:0:0:0:
