osu file format v14

[General]
AudioFilename: audio.mp3
AudioLeadIn: 0
PreviewTime: 66889
Countdown: 0
SampleSet: Normal
StackLeniency: 0.2
Mode: 1
LetterboxInBreaks: 0
WidescreenStoryboard: 1

[Editor]
Bookmarks: 293,11601,17884,29193,39245,50554,61863,68146,81968,86994,94533,104586
DistanceSpacing: 0.8
BeatDivisor: 4
GridSize: 32
TimelineZoom: 1.4

[Metadata]
Title:Hope 4 Hopeful
TitleUnicode:Hope 4 Hopeful
Artist:Se-U-Ra
ArtistUnicode:Se-U-Ra
Creator:Hivie
Version:Futsuu
Source:osu!
Tags:ulqui fa featured artist electronic instrumental mpg mappers' guild seura happy hardcore The Endless for Traveler
BeatmapID:2746255
BeatmapSetID:1302274

[Difficulty]
HPDrainRate:7
CircleSize:2
OverallDifficulty:4
ApproachRate:9
SliderMultiplier:1.4
SliderTickRate:1

[Events]
//Background and Video events
0,0,"bg.jpg",0,-70
//Break Periods
//Storyboard Layer 0 (Background)
//Storyboard Layer 1 (Fail)
//Storyboard Layer 2 (Pass)
//Storyboard Layer 3 (Foreground)
//Storyboard Layer 4 (Overlay)
//Storyboard Sound Samples

[TimingPoints]
293,314.13612565445,4,1,0,100,1,0
293,-125,4,1,0,100,0,0
11601,-100,4,1,0,100,0,0
12230,-111.111111111111,4,1,0,100,0,0
13486,-100,4,1,0,100,0,0
16549,-111.111111111111,4,1,0,100,0,0
17884,-100,4,1,0,100,0,0
48669,-105.263157894737,4,1,0,100,0,0
49298,-111.111111111111,4,1,0,100,0,0
50554,-100,4,1,0,100,0,0
61942,-125,4,1,0,100,0,0
67675,-111.111111111111,4,1,0,100,0,0
68146,-100,4,1,0,100,0,1
76942,-100,4,1,0,100,0,0
77256,-111.111111111111,4,1,0,100,0,0
78198,-100,4,1,0,100,0,1
81968,-100,4,1,0,100,0,0
82125,-125,4,1,0,100,0,0
94533,-100,4,1,0,100,0,1
104586,-100,4,1,0,100,0,0
104900,-100,4,1,0,50,0,0
105214,-100,4,1,0,40,0,0
105528,-100,4,1,0,30,0,0
105842,-100,4,1,0,25,0,0
106156,-100,4,1,0,15,0,0

[HitObjects]
256,192,293,5,0,0:0:0:0:
256,192,607,1,8,0:0:0:0:
256,192,764,1,0,0:0:0:0:
256,192,1078,1,0,0:0:0:0:
256,192,1235,1,8,0:0:0:0:
256,192,1392,1,0,0:0:0:0:
256,192,1706,1,0,0:0:0:0:
256,192,1863,1,0,0:0:0:0:
256,192,2177,1,8,0:0:0:0:
256,192,2806,1,0,0:0:0:0:
256,192,3120,1,8,0:0:0:0:
256,192,3277,1,0,0:0:0:0:
256,192,3591,1,0,0:0:0:0:
256,192,3748,1,8,0:0:0:0:
256,192,3905,1,0,0:0:0:0:
256,192,4219,1,0,0:0:0:0:
256,192,4376,1,8,0:0:0:0:
256,192,4690,1,8,0:0:0:0:
256,192,5319,1,4,0:0:0:0:
256,192,5947,1,8,0:0:0:0:
256,192,6418,1,0,0:0:0:0:
256,192,6732,1,0,0:0:0:0:
256,192,6889,1,0,0:0:0:0:
256,192,7203,1,8,0:0:0:0:
256,192,7832,1,0,0:0:0:0:
256,192,8460,1,8,0:0:0:0:
256,192,9088,1,8,0:0:0:0:
256,192,9717,1,0,0:0:0:0:
256,192,10031,1,0,0:0:0:0:
256,192,10345,1,12,0:0:0:0:
256,192,11601,1,4,0:0:0:0:
256,192,12858,1,0,0:0:0:0:
256,192,13800,1,8,0:0:0:0:
256,192,14114,1,0,0:0:0:0:
256,192,14743,1,0,0:0:0:0:
256,192,15371,1,0,0:0:0:0:
256,192,15685,1,0,0:0:0:0:
256,192,15999,1,8,0:0:0:0:
256,192,16628,1,0,0:0:0:0:
256,192,17570,1,8,0:0:0:0:
256,192,17884,1,4,0:0:0:0:
256,192,18198,1,0,0:0:0:0:
256,192,18512,1,8,0:0:0:0:
256,192,18669,1,8,0:0:0:0:
256,192,18827,1,0,0:0:0:0:
256,192,18984,1,8,0:0:0:0:
256,192,19141,1,0,0:0:0:0:
256,192,19455,1,8,0:0:0:0:
256,192,19769,1,0,0:0:0:0:
256,192,20397,1,0,0:0:0:0:
256,192,20711,1,8,0:0:0:0:
256,192,21025,1,8,0:0:0:0:
256,192,21183,1,0,0:0:0:0:
256,192,21340,1,8,0:0:0:0:
256,192,21654,1,0,0:0:0:0:
256,192,21968,1,8,0:0:0:0:
256,192,22125,1,8,0:0:0:0:
256,192,22282,1,0,0:0:0:0:
256,192,22596,1,8,0:0:0:0:
256,192,22910,1,0,0:0:0:0:
256,192,23224,1,8,0:0:0:0:
256,192,23382,1,8,0:0:0:0:
256,192,23539,1,0,0:0:0:0:
256,192,24167,1,0,0:0:0:0:
256,192,24481,1,8,0:0:0:0:
256,192,24638,1,0,0:0:0:0:
256,192,24795,1,8,0:0:0:0:
256,192,25109,1,8,0:0:0:0:
256,192,25423,1,0,0:0:0:0:
256,192,25738,1,8,0:0:0:0:
256,192,25895,1,0,0:0:0:0:
256,192,26052,1,8,0:0:0:0:
256,192,26366,1,8,0:0:0:0:
256,192,26680,12,0,27832,0:0:0:0:
256,192,29193,5,4,0:0:0:0:
256,192,29507,1,8,0:0:0:0:
256,192,29821,1,0,0:0:0:0:
256,192,29978,1,8,0:0:0:0:
256,192,30135,1,0,0:0:0:0:
256,192,30450,1,0,0:0:0:0:
256,192,30764,1,8,0:0:0:0:
256,192,30921,1,8,0:0:0:0:
256,192,31078,1,8,0:0:0:0:
256,192,31706,1,0,0:0:0:0:
256,192,32020,1,8,0:0:0:0:
256,192,32334,1,0,0:0:0:0:
256,192,32491,1,8,0:0:0:0:
256,192,32649,1,0,0:0:0:0:
256,192,32963,1,8,0:0:0:0:
256,192,33591,1,8,0:0:0:0:
256,192,33905,1,8,0:0:0:0:
256,192,34219,1,4,0:0:0:0:
256,192,34533,1,8,0:0:0:0:
256,192,34847,1,0,0:0:0:0:
256,192,35005,1,0,0:0:0:0:
256,192,35162,1,8,0:0:0:0:
256,192,35476,1,0,0:0:0:0:
256,192,35790,1,8,0:0:0:0:
256,192,35947,1,0,0:0:0:0:
256,192,36104,1,8,0:0:0:0:
256,192,36732,1,0,0:0:0:0:
256,192,37046,1,8,0:0:0:0:
256,192,37361,1,8,0:0:0:0:
256,192,37518,1,8,0:0:0:0:
256,192,37675,1,0,0:0:0:0:
256,192,37989,1,8,0:0:0:0:
256,192,38617,1,8,0:0:0:0:
256,192,38931,1,8,0:0:0:0:
256,192,39245,1,4,0:0:0:0:
256,192,39560,1,8,0:0:0:0:
256,192,39717,1,8,0:0:0:0:
256,192,39874,1,0,0:0:0:0:
256,192,40031,1,8,0:0:0:0:
256,192,40188,1,8,0:0:0:0:
256,192,40502,1,0,0:0:0:0:
256,192,41130,1,8,0:0:0:0:
256,192,41444,1,8,0:0:0:0:
256,192,41758,1,4,0:0:0:0:
256,192,42073,1,8,0:0:0:0:
256,192,42230,1,8,0:0:0:0:
256,192,42387,1,0,0:0:0:0:
256,192,42544,1,8,0:0:0:0:
256,192,42701,1,8,0:0:0:0:
256,192,43015,1,0,0:0:0:0:
256,192,43643,1,8,0:0:0:0:
256,192,43957,1,8,0:0:0:0:
256,192,44272,1,4,0:0:0:0:
256,192,44586,1,8,0:0:0:0:
256,192,44743,1,8,0:0:0:0:
256,192,44900,1,0,0:0:0:0:
256,192,45214,1,0,0:0:0:0:
256,192,45528,1,4,0:0:0:0:
256,192,45842,1,8,0:0:0:0:
256,192,45999,1,8,0:0:0:0:
256,192,46156,1,4,0:0:0:0:
256,192,46785,1,8,0:0:0:0:
256,192,47099,1,8,0:0:0:0:
256,192,47413,1,8,0:0:0:0:
256,192,48041,1,4,0:0:0:0:
256,192,48669,1,4,0:0:0:0:
256,192,49298,1,4,0:0:0:0:
256,192,50554,1,4,0:0:0:0:
256,192,50868,1,0,0:0:0:0:
256,192,51025,1,8,0:0:0:0:
256,192,51183,1,0,0:0:0:0:
256,192,51497,1,0,0:0:0:0:
256,192,51654,1,8,0:0:0:0:
256,192,51811,1,0,0:0:0:0:
256,192,52439,1,8,0:0:0:0:
256,192,52596,1,8,0:0:0:0:
256,192,52753,1,8,0:0:0:0:
256,192,53067,1,4,0:0:0:0:
256,192,53382,1,8,0:0:0:0:
256,192,53539,1,0,0:0:0:0:
256,192,53696,1,8,0:0:0:0:
256,192,54010,1,8,0:0:0:0:
256,192,54167,1,0,0:0:0:0:
256,192,54324,1,8,0:0:0:0:
256,192,54952,1,8,0:0:0:0:
256,192,55266,1,0,0:0:0:0:
256,192,55580,1,4,0:0:0:0:
256,192,55895,1,8,0:0:0:0:
256,192,56052,1,8,0:0:0:0:
256,192,56209,1,0,0:0:0:0:
256,192,56523,1,0,0:0:0:0:
256,192,56837,1,4,0:0:0:0:
256,192,57151,1,8,0:0:0:0:
256,192,57308,1,8,0:0:0:0:
256,192,57465,1,4,0:0:0:0:
256,192,58094,1,8,0:0:0:0:
256,192,58408,1,8,0:0:0:0:
256,192,58722,1,8,0:0:0:0:
256,192,59036,1,8,0:0:0:0:
256,192,59350,12,8,61235,0:0:0:0:
256,192,61863,5,4,0:0:0:0:
256,192,64062,1,8,0:0:0:0:
256,192,64376,1,0,0:0:0:0:
256,192,65005,1,0,0:0:0:0:
256,192,65633,1,8,0:0:0:0:
256,192,66261,1,0,0:0:0:0:
256,192,66575,1,8,0:0:0:0:
256,192,67832,1,8,0:0:0:0:
256,192,68146,1,4,0:0:0:0:
256,192,68774,1,0,0:0:0:0:
256,192,68931,1,8,0:0:0:0:
256,192,69088,1,8,0:0:0:0:
256,192,69402,1,0,0:0:0:0:
256,192,69717,1,8,0:0:0:0:
256,192,70031,1,0,0:0:0:0:
256,192,70345,1,0,0:0:0:0:
256,192,70502,1,8,0:0:0:0:
256,192,70659,1,0,0:0:0:0:
256,192,70973,1,0,0:0:0:0:
256,192,71287,1,8,0:0:0:0:
256,192,71444,1,8,0:0:0:0:
256,192,71601,1,0,0:0:0:0:
256,192,71916,1,8,0:0:0:0:
256,192,72230,1,0,0:0:0:0:
256,192,72544,1,8,0:0:0:0:
256,192,73172,1,0,0:0:0:0:
256,192,73486,1,8,0:0:0:0:
256,192,73800,1,0,0:0:0:0:
256,192,73957,1,8,0:0:0:0:
256,192,74114,1,0,0:0:0:0:
256,192,74429,1,8,0:0:0:0:
256,192,74743,1,0,0:0:0:0:
256,192,75057,1,0,0:0:0:0:
256,192,75371,1,8,0:0:0:0:
256,192,75685,1,4,0:0:0:0:
256,192,76313,1,12,0:0:0:0:
256,192,76628,1,12,0:0:0:0:
256,192,76942,1,4,0:0:0:0:
256,192,77884,1,8,0:0:0:0:
256,192,78198,1,4,0:0:0:0:
256,192,78512,1,0,0:0:0:0:
256,192,78827,1,8,0:0:0:0:
256,192,78984,1,8,0:0:0:0:
256,192,79141,1,8,0:0:0:0:
256,192,79455,1,0,0:0:0:0:
256,192,79769,1,0,0:0:0:0:
256,192,79926,1,0,0:0:0:0:
256,192,80083,1,8,0:0:0:0:
256,192,80397,1,0,0:0:0:0:
256,192,80711,1,8,0:0:0:0:
256,192,80868,1,0,0:0:0:0:
256,192,81025,1,0,0:0:0:0:
256,192,81340,1,12,0:0:0:0:
256,192,81654,1,12,0:0:0:0:
256,192,81968,1,4,0:0:0:0:
256,192,82910,1,8,0:0:0:0:
256,192,83067,1,0,0:0:0:0:
256,192,83382,1,0,0:0:0:0:
256,192,83539,1,0,0:0:0:0:
256,192,83853,1,8,0:0:0:0:
256,192,84481,1,0,0:0:0:0:
256,192,84795,1,8,0:0:0:0:
256,192,84952,1,0,0:0:0:0:
256,192,85266,1,0,0:0:0:0:
256,192,85423,1,8,0:0:0:0:
256,192,85580,1,0,0:0:0:0:
256,192,85895,1,0,0:0:0:0:
256,192,86052,1,8,0:0:0:0:
256,192,86366,1,8,0:0:0:0:
256,192,86994,1,4,0:0:0:0:
256,192,87622,1,8,0:0:0:0:
256,192,88094,1,0,0:0:0:0:
256,192,88408,1,8,0:0:0:0:
256,192,88565,1,0,0:0:0:0:
256,192,88879,1,8,0:0:0:0:
256,192,89507,1,0,0:0:0:0:
256,192,90135,1,0,0:0:0:0:
256,192,90450,1,8,0:0:0:0:
256,192,90764,1,0,0:0:0:0:
256,192,91392,1,0,0:0:0:0:
256,192,91706,1,8,0:0:0:0:
256,192,92020,1,0,0:0:0:0:
256,192,92649,1,0,0:0:0:0:
256,192,92806,1,0,0:0:0:0:
256,192,92963,1,0,0:0:0:0:
256,192,93277,1,12,0:0:0:0:
256,192,93591,12,0,94219,0:0:0:0:
256,192,94533,5,4,0:0:0:0:
256,192,94847,1,8,0:0:0:0:
256,192,95083,1,0,0:0:0:0:
256,192,95476,1,8,0:0:0:0:
256,192,95790,1,0,0:0:0:0:
256,192,96104,1,8,0:0:0:0:
256,192,96261,1,8,0:0:0:0:
256,192,96418,1,0,0:0:0:0:
256,192,97046,1,4,0:0:0:0:
256,192,97361,1,8,0:0:0:0:
256,192,97596,1,0,0:0:0:0:
256,192,97989,1,8,0:0:0:0:
256,192,98146,1,8,0:0:0:0:
256,192,98303,1,0,0:0:0:0:
256,192,98931,1,12,0:0:0:0:
256,192,99245,1,12,0:0:0:0:
256,192,99560,1,4,0:0:0:0:
256,192,100188,1,0,0:0:0:0:
256,192,100502,1,0,0:0:0:0:
256,192,100659,1,8,0:0:0:0:
256,192,100816,1,0,0:0:0:0:
256,192,101444,1,0,0:0:0:0:
256,192,101601,1,8,0:0:0:0:
256,192,101758,1,0,0:0:0:0:
256,192,102073,1,8,0:0:0:0:
256,192,102387,1,8,0:0:0:0:
256,192,102622,1,0,0:0:0:0:
256,192,103015,1,8,0:0:0:0:
256,192,103329,1,0,0:0:0:0:
256,192,103486,1,0,0:0:0:0:
256,192,103643,1,0,0:0:0:0:
256,192,103957,1,12,0:0:0:0:
256,192,104272,1,12,0:0:0:0:
256,192,104586,1,4,0:0:0:0:
256,192,104743,12,0,107099,0:0:0:0:
