osu file format v14

[General]
AudioFilename: audio.mp3
AudioLeadIn: 0
PreviewTime: 39007
Countdown: 0
SampleSet: Normal
StackLeniency: 0.7
Mode: 1
LetterboxInBreaks: 0
WidescreenStoryboard: 1

[Editor]
Bookmarks: 12853,25161,39007,51315,63622
DistanceSpacing: 0.9
BeatDivisor: 8
GridSize: 32
TimelineZoom: 3.499999

[Metadata]
Title:Graffiti:Code -V0TL 3.90-
TitleUnicode:Graffiti:Code -V0TL 3.90-
Artist:Se-U-Ra
ArtistUnicode:Se-U-Ra
Creator:Eyenine
Version:Inner Oni
Source:osu!
Tags:electronic instrumental featured artist fa seura
BeatmapID:2701796
BeatmapSetID:1302562

[Difficulty]
HPDrainRate:6
CircleSize:5
OverallDifficulty:7
ApproachRate:8
SliderMultiplier:1.4
SliderTickRate:1

[Events]
//Background and Video events
0,0,"gold-abstract.jpg",0,0
//Break Periods
//Storyboard Layer 0 (Background)
//Storyboard Layer 1 (Fail)
//Storyboard Layer 2 (Pass)
//Storyboard Layer 3 (Foreground)
//Storyboard Layer 4 (Overlay)
//Storyboard Sound Samples

[TimingPoints]
598,384.615384615385,4,1,0,50,1,0
5598,-62.5,4,1,0,100,0,1
6751,-62.5,4,1,0,70,0,0
7040,-67.9371825635145,4,1,0,70,0,0
7136,-68.3715336487084,4,1,0,70,0,0
7328,-69.2570656058331,4,1,0,70,0,0
7521,-70.1658369556447,4,1,0,70,0,0
7617,-70.6292501151257,4,1,0,70,0,0
7713,-71.0987746837171,4,1,0,70,0,0
8098,-73.0411638086877,4,1,0,70,0,0
8290,-74.0526810773184,4,1,0,70,0,0
8578,-75.6236302669968,4,1,0,70,0,0
8674,-76.1622163814265,4,1,0,70,0,0
8867,-77.2626761009545,4,1,0,70,0,0
8963,-77.8249483436905,4,1,0,70,0,0
9059,-78.3954643520144,4,1,0,70,0,0
9251,-79.5619003519023,4,1,0,70,0,0
9636,-82.002097613657,4,1,0,70,0,0
9796,-76.9230769230769,4,1,0,70,0,0
9860,-83.3333333333333,4,1,0,70,0,0
10598,-83.3333333333333,4,1,0,70,0,0
10790,-81.6326530612245,4,1,0,70,0,0
10886,-80.8080808080808,4,1,0,70,0,0
11078,-79.2079207920792,4,1,0,70,0,0
11174,-78.4313725490196,4,1,0,70,0,0
11319,-66.6666666666667,4,1,0,80,0,0
11367,-76.9230769230769,4,1,0,70,0,0
11463,-76.1904761904762,4,1,0,70,0,0
11559,-75.4716981132076,4,1,0,70,0,0
11655,-74.7663551401869,4,1,0,70,0,0
11751,-74.0740740740741,4,1,0,70,0,0
11848,-73.394495412844,4,1,0,70,0,0
11944,-72.7272727272727,4,1,0,70,0,0
12040,-72.0720720720721,4,1,0,70,0,0
12088,-66.6666666666667,4,1,0,90,0,0
12136,-71.4285714285714,4,1,0,70,0,0
12200,-71.0059339659015,4,1,0,70,0,0
12264,-70.588218685125,4,1,0,70,0,0
12328,-70.1754385964912,4,1,0,70,0,0
12424,-69.5652173913043,4,1,0,70,0,0
12521,-68.9655172413793,4,1,0,70,0,0
12585,-68.5714442449015,4,1,0,70,0,0
12649,-68.1818026859539,4,1,0,70,0,0
12713,-67.7966101694915,4,1,0,70,0,0
12777,-67.4157454866844,4,1,0,70,0,0
12841,-67.0390911644489,4,1,0,70,0,0
12905,-66.6666666666667,4,1,0,70,0,0
12953,-83.3333333333333,4,1,0,80,0,0
15950,-71.4285714285714,4,1,0,80,0,0
16046,-83.3333333333333,4,1,0,80,0,0
17489,-76.9230769230769,4,1,0,80,0,0
17553,-83.3333333333333,4,1,0,80,0,0
18290,-83.3333333333333,4,1,0,80,0,0
18354,-82.3170606223993,4,1,0,80,0,0
18418,-81.325276709254,4,1,0,80,0,0
18482,-80.3571715561327,4,1,0,80,0,0
18546,-79.4117810553667,4,1,0,80,0,0
18610,-78.488376656301,4,1,0,80,0,0
18674,-77.5862002080862,4,1,0,80,0,0
18867,-75.0000187500047,4,1,0,80,0,0
18963,-73.7704676162401,4,1,0,80,0,0
19059,-72.5806334547365,4,1,0,80,0,0
19123,-66.6666666666667,4,1,0,80,0,0
19187,-83.3333333333333,4,1,0,80,0,0
21367,-76.9230769230769,4,1,0,80,0,0
21431,-75.9493478609246,4,1,0,80,0,0
21495,-75.0000187500047,4,1,0,80,0,0
21559,-74.0740740740741,4,1,0,80,0,0
21751,-71.4285714285714,4,1,0,80,0,0
21944,-68.9655172413793,4,1,0,80,0,0
22104,-62.5,4,1,0,80,0,0
22424,-79.6019900497512,4,1,0,80,0,0
22521,-78.4313725490196,4,1,0,80,0,0
22617,-77.2946859903382,4,1,0,80,0,0
22713,-76.1904761904762,4,1,0,80,0,0
22809,-75.1173708920188,4,1,0,80,0,0
22905,-74.0740740740741,4,1,0,80,0,0
23098,-72.0720720720721,4,1,0,80,0,0
23194,-71.1111111111111,4,1,0,80,0,0
23290,-70.1754385964912,4,1,0,80,0,0
23386,-69.2640692640693,4,1,0,80,0,0
23482,-68.3760683760684,4,1,0,80,0,0
23578,-67.5105485232068,4,1,0,80,0,0
23626,-62.5,4,1,0,100,0,0
24973,-66.6666666666667,4,1,0,90,0,0
35950,-58.8235294117647,4,1,0,90,0,0
36046,-66.6666666666667,4,1,0,90,0,0
37489,-76.9230769230769,4,1,0,60,0,0
37809,-83.3333333333333,4,1,0,60,0,0
37905,-85.7142612244968,4,1,0,60,0,0
38386,-100,4,1,0,60,0,0
39011,-71.4285714285714,4,1,0,90,0,0
49828,-66.6666666666667,4,1,0,90,0,0
49924,-66.3914519677762,4,1,0,90,0,0
50021,-66.1185439374254,4,1,0,90,0,0
50117,-65.8478269887855,4,1,0,90,0,0
50213,-65.579360863549,4,1,0,90,0,0
50309,-65.3130323012133,4,1,0,90,0,0
50405,-65.0488581973921,4,1,0,90,0,0
50501,-64.786854488077,4,1,0,90,0,0
50598,-64.5269112709801,4,1,0,90,0,0
50662,-64.3547853574844,4,1,0,90,0,0
50726,-64.1835752947149,4,1,0,90,0,0
50790,-64.0132737924536,4,1,0,90,0,0
50854,-63.8438736376515,4,1,0,90,0,0
50918,-63.6753676934107,4,1,0,90,0,0
50982,-63.5077488979818,4,1,0,90,0,0
51046,-63.3410102637773,4,1,0,90,0,0
51110,-63.1751049654369,4,1,0,90,0,0
51174,-63.010106190932,4,1,0,90,0,0
51239,-62.8459670486026,4,1,0,90,0,0
51303,-62.6826808379671,4,1,0,90,0,0
51367,-62.5202409280004,4,1,0,90,0,0
51415,-83.3333333333333,4,1,0,80,0,0
55934,-76.9230769230769,4,1,0,90,0,0
56174,-75.4791036101655,4,1,0,90,0,0
56271,-74.7772013286413,4,1,0,90,0,0
56367,-74.0882880493369,4,1,0,90,0,0
56463,-73.4119526404811,4,1,0,90,0,0
56559,-72.7478537564446,4,1,0,90,0,0
56607,-72.4202634794026,4,1,0,90,0,0
56655,-72.0956103145748,4,1,0,90,0,0
56751,-71.4550097821908,4,1,0,90,0,0
56815,-71.0342299747402,4,1,0,90,0,0
56880,-70.6183768789785,4,1,0,90,0,0
56944,-70.2073644717036,4,1,0,90,0,0
57008,-69.8011087208109,4,1,0,90,0,0
57072,-69.3994793651058,4,1,0,90,0,0
57136,-69.0024930600743,4,1,0,90,0,0
57328,-67.83832499035,4,1,0,90,0,0
57489,-66.7127429344534,4,1,0,90,0,0
57617,-66.5284206086419,4,1,0,90,0,0
57713,-66.3907467232847,4,1,0,90,0,0
57809,-66.2536414657691,4,1,0,90,0,0
57905,-66.1171013204907,4,1,0,90,0,0
58001,-65.9811663358811,4,1,0,90,0,0
58098,-65.8457458051321,4,1,0,90,0,0
58194,-65.7108800132473,4,1,0,90,0,0
58290,-65.576565558532,4,1,0,90,0,0
58386,-65.4427990670475,4,1,0,90,0,0
58482,-65.3095771923282,4,1,0,90,0,0
58578,-65.176896615103,4,1,0,90,0,0
58674,-65.0447540430193,4,1,0,90,0,0
58771,-64.9131883475634,4,1,0,90,0,0
58867,-64.7821118450205,4,1,0,90,0,0
58963,-64.6515636303922,4,1,0,90,0,0
59059,-64.5215405163014,4,1,0,90,0,0
59155,-64.3920393409604,4,1,0,90,0,0
59251,-64.2630569679148,4,1,0,90,0,0
59348,-64.1345902857902,4,1,0,90,0,0
59444,-64.0066362080421,4,1,0,90,0,0
59540,-63.8791916727086,4,1,0,90,0,0
59636,-63.7522942856906,4,1,0,90,0,0
59732,-63.625859585363,4,1,0,90,0,0
59828,-63.4999253875877,4,1,0,90,0,0
59924,-63.3744887263122,4,1,0,90,0,0
59973,-63.31193600936,4,1,0,90,0,0
60021,-63.2495466588743,4,1,0,90,0,0
60117,-63.1250962657718,4,1,0,90,0,0
60213,-63.0011346504351,4,1,0,90,0,0
60277,-62.9187636966284,4,1,0,90,0,0
60341,-62.8366078536963,4,1,0,90,0,0
60405,-62.754705661604,4,1,0,90,0,0
60501,-62.6321930725037,4,1,0,90,0,0
60598,-62.5101579006589,4,1,0,90,0,0
60790,-74.0740740740741,4,1,0,90,0,0
60886,-74.7615480425184,4,1,0,90,0,0
60982,-75.4619023040028,4,1,0,90,0,0
61174,-76.9026681380711,4,1,0,90,0,0
61367,-78.3995822870256,4,1,0,90,0,0
61463,-79.1701072675783,4,1,0,90,0,0
61559,-79.9558643628717,4,1,0,90,0,0
61751,-81.5752507215331,4,1,0,90,0,0
61944,-83.261589596964,4,1,0,90,0,0
62136,-66.6666666666667,4,1,0,90,0,0
62232,-66.3900414937759,4,1,0,90,0,0
62328,-66.1157024793389,4,1,0,90,0,0
62424,-65.843621399177,4,1,0,90,0,0
62521,-65.5737704918033,4,1,0,90,0,0
62617,-65.3061224489796,4,1,0,90,0,0
62713,-65.0406504065041,4,1,0,90,0,0
62809,-64.7773279352227,4,1,0,90,0,0
62905,-64.5161290322581,4,1,0,90,0,0
63001,-64.2570281124498,4,1,0,90,0,0
63098,-64,4,1,0,90,0,0
63194,-63.7450199203187,4,1,0,90,0,0
63290,-63.4920634920635,4,1,0,90,0,0
63386,-63.2411067193676,4,1,0,90,0,0
63482,-62.992125984252,4,1,0,90,0,0
63578,-62.7450980392157,4,1,0,90,0,0
63642,-58.8235294117647,4,1,0,90,0,0
63706,-71.4285714285714,4,1,0,90,0,0
66703,-64.5161290322581,4,1,0,90,0,0
66767,-71.4285714285714,4,1,0,90,0,0
68242,-64.5161290322581,4,1,0,90,0,0
68338,-83.3333333333333,4,1,0,70,0,0
68674,-83.3333333333333,4,1,0,70,0,0
68867,-80.0220860957624,4,1,0,70,0,0
68963,-78.4631886027511,4,1,0,70,0,0
69251,-74.130852816157,4,1,0,70,0,0
69540,-70.2519515992154,4,1,0,70,0,0
69636,-69.047612471656,4,1,0,70,0,0
69732,-67.8839157886448,4,1,0,70,0,0
69780,-62.5,4,1,0,90,0,0
69860,-71.4285714285714,4,1,0,90,0,0
72900,-76.9230769230769,4,1,0,60,0,0
72996,-77.1349607267347,4,1,0,60,0,0
73093,-77.3480748450911,4,1,0,60,0,0
73285,-77.7777950617322,4,1,0,60,0,0
73381,-77.9944202791732,4,1,0,60,0,0
73573,-78.4313725490196,4,1,0,60,0,0
73766,-78.8732483237463,4,1,0,60,0,0
73862,-79.0960273229317,4,1,0,60,0,0
74054,-79.5454455061994,4,1,0,60,0,0
74246,-80,4,1,0,60,0,0
74439,-90.9090909090909,4,1,0,60,0,0
74535,-91.324200913242,4,1,0,60,0,0
74727,-92.1658986175115,4,1,0,60,0,0
74823,-92.5925925925926,4,1,0,60,0,0
75016,-93.4579439252336,4,1,0,60,0,0
75112,-93.8967136150235,4,1,0,60,0,0
75304,-94.7867298578199,4,1,0,60,0,0
75400,-95.2380952380952,4,1,0,60,0,0
75934,-71.4285714285714,4,1,0,90,0,0
82184,-76.9230769230769,4,1,0,90,0,0
82392,-75.4716981132076,4,1,0,90,0,0
82585,-72.7272727272727,4,1,0,90,0,0
82681,-66.6666666666667,4,1,0,90,0,0
82809,-83.3333333333333,4,1,0,90,0,0
83098,-78.4313725490196,4,1,0,90,0,0
83194,-76.1904761904762,4,1,0,90,0,0
83386,-72.0720720720721,4,1,0,90,0,0
83482,-70.1754385964912,4,1,0,90,0,0
83578,-68.3760683760684,4,1,0,90,0,0
83642,-62.5,4,1,0,90,0,0
83963,-79.6204334695639,4,1,0,90,0,0
84251,-76.2243343138324,4,1,0,90,0,0
84540,-73.1060417757165,4,1,0,90,0,0
84636,-72.1225968750721,4,1,0,90,0,0
84828,-70.2329063640846,4,1,0,90,0,0
85021,-68.4397114581765,4,1,0,90,0,0
85213,-66.6666666666667,4,1,0,100,0,0
89828,-66.6666666666667,4,1,0,100,0,0
89892,-66.4829521090054,4,1,0,100,0,0
89956,-66.3002472999224,4,1,0,100,0,0
90021,-66.1185439374254,4,1,0,100,0,0
90117,-65.8478269887855,4,1,0,100,0,0
90213,-65.579360863549,4,1,0,100,0,0
90277,-65.4015392906287,4,1,0,100,0,0
90341,-65.2247219959287,4,1,0,100,0,0
90405,-65.0488581973921,4,1,0,100,0,0
90501,-64.786854488077,4,1,0,100,0,0
90598,-64.5269112709801,4,1,0,100,0,0
90694,-64.2690456496604,4,1,0,100,0,0
90790,-64.0132737924536,4,1,0,100,0,0
90982,-63.5077488979818,4,1,0,100,0,0
91046,-63.3410102637773,4,1,0,100,0,0
91110,-63.1751049654369,4,1,0,100,0,0
91174,-63.010106190932,4,1,0,100,0,0
91271,-62.7642374396208,4,1,0,100,0,0
91367,-62.5202409280004,4,1,0,100,0,1
97521,-62.5,4,1,0,80,0,0
97585,-66.6666666666667,4,1,0,80,0,0
97809,-67.5675675675676,4,1,0,80,0,0
97905,-68.4931506849315,4,1,0,80,0,0
98098,-70.4225352112676,4,1,0,80,0,0
98290,-72.463768115942,4,1,0,80,0,0
98386,-73.5294117647059,4,1,0,80,0,0
98482,-74.6268656716418,4,1,0,80,0,0
98674,-76.9230769230769,4,1,0,80,0,0
98867,-66.6666666666667,4,1,0,80,0,0
98931,-65.2174054820447,4,1,0,80,0,0
98995,-63.8297736532396,4,1,0,80,0,0
99059,-62.5,4,1,0,100,0,1
105213,-62.5,4,1,0,100,0,0
105261,-50,4,1,0,40,0,0
106703,-83.3333333333333,4,1,0,40,0,0
108242,-111.111111111111,4,1,0,40,0,0
109780,-148.148148148148,4,1,0,40,0,0
111319,-197.511356903022,4,1,0,40,0,0

[HitObjects]
352,128,598,5,8,0:0:0:0:
352,128,886,1,8,0:0:0:0:
160,128,1559,1,0,0:0:0:0:
160,128,1751,1,0,0:0:0:0:
352,128,1944,1,8,0:0:0:0:
352,128,3482,1,8,0:0:0:0:
160,128,3674,1,0,0:0:0:0:
352,128,3867,1,8,0:0:0:0:
160,128,4059,1,0,0:0:0:0:
160,128,4444,1,0,0:0:0:0:
160,128,4828,1,0,0:0:0:0:
352,128,5021,1,8,0:0:0:0:
160,128,5213,1,0,0:0:0:0:
352,128,5309,1,8,0:0:0:0:
160,128,5405,1,0,0:0:0:0:
352,256,5598,1,12,0:0:0:0:
160,128,5790,1,0,0:0:0:0:
352,128,5982,1,8,0:0:0:0:
160,128,6078,1,0,0:0:0:0:
352,128,6271,1,8,0:0:0:0:
352,128,6463,1,8,0:0:0:0:
352,128,6559,1,8,0:0:0:0:
352,128,6655,1,8,0:0:0:0:
160,256,6751,1,4,0:0:0:0:
160,128,7040,1,0,0:0:0:0:
352,128,7136,1,8,0:0:0:0:
160,128,7328,1,0,0:0:0:0:
352,128,7521,1,8,0:0:0:0:
352,128,7617,1,8,0:0:0:0:
352,128,7713,1,8,0:0:0:0:
160,128,8098,1,0,0:0:0:0:
160,128,8290,1,0,0:0:0:0:
160,128,8578,1,0,0:0:0:0:
352,128,8674,1,8,0:0:0:0:
160,128,8867,1,0,0:0:0:0:
160,128,8963,1,0,0:0:0:0:
352,128,9059,1,8,0:0:0:0:
352,128,9251,1,8,0:0:0:0:
352,128,9636,1,8,0:0:0:0:
352,256,9828,1,12,0:0:0:0:
352,128,10021,1,8,0:0:0:0:
160,128,10598,1,0,0:0:0:0:
160,128,10790,1,0,0:0:0:0:
352,128,10886,1,8,0:0:0:0:
160,128,11078,1,0,0:0:0:0:
352,128,11174,1,8,0:0:0:0:
160,128,11367,1,0,0:0:0:0:
160,128,11463,1,0,0:0:0:0:
352,128,11559,1,8,0:0:0:0:
352,128,11655,1,8,0:0:0:0:
160,128,11751,1,0,0:0:0:0:
160,128,11848,1,0,0:0:0:0:
352,128,11944,1,8,0:0:0:0:
352,128,12040,1,8,0:0:0:0:
160,128,12136,1,0,0:0:0:0:
160,128,12200,1,0,0:0:0:0:
160,128,12264,1,0,0:0:0:0:
352,128,12328,1,8,0:0:0:0:
160,128,12424,1,0,0:0:0:0:
352,128,12521,1,8,0:0:0:0:
352,128,12585,1,8,0:0:0:0:
352,128,12649,1,8,0:0:0:0:
160,128,12713,1,0,0:0:0:0:
352,128,12777,1,8,0:0:0:0:
352,128,12841,1,8,0:0:0:0:
160,128,12905,1,0,0:0:0:0:
160,128,13290,1,0,0:0:0:0:
160,128,13482,1,0,0:0:0:0:
160,128,13674,1,0,0:0:0:0:
352,128,13771,1,8,0:0:0:0:
160,128,13963,1,0,0:0:0:0:
352,128,14059,1,8,0:0:0:0:
352,128,14187,1,8,0:0:0:0:
352,128,14315,1,8,0:0:0:0:
160,128,14444,1,0,0:0:0:0:
160,128,14828,1,0,0:0:0:0:
352,128,15213,1,8,0:0:0:0:
352,128,15277,1,8,0:0:0:0:
352,128,15341,1,8,0:0:0:0:
160,128,15405,1,0,0:0:0:0:
352,128,15598,1,8,0:0:0:0:
352,128,15790,1,8,0:0:0:0:
160,256,15982,1,4,0:0:0:0:
352,128,16367,1,8,0:0:0:0:
160,128,16559,1,0,0:0:0:0:
352,128,16655,1,8,0:0:0:0:
160,128,16848,1,0,0:0:0:0:
352,128,16944,1,8,0:0:0:0:
160,128,17040,1,0,0:0:0:0:
352,128,17232,1,8,0:0:0:0:
160,128,17328,1,0,0:0:0:0:
160,256,17521,1,4,0:0:0:0:
352,128,17905,1,8,0:0:0:0:
352,128,18098,1,8,0:0:0:0:
160,128,18290,1,0,0:0:0:0:
160,128,18354,1,0,0:0:0:0:
160,128,18418,1,0,0:0:0:0:
352,128,18482,1,8,0:0:0:0:
352,128,18546,1,8,0:0:0:0:
352,128,18610,1,8,0:0:0:0:
160,128,18674,1,0,0:0:0:0:
352,128,18867,1,8,0:0:0:0:
352,128,18963,1,8,0:0:0:0:
160,128,19059,1,0,0:0:0:0:
352,128,19155,1,12,0:0:0:0:
160,128,19444,1,0,0:0:0:0:
160,128,19636,1,0,0:0:0:0:
160,128,19828,1,0,0:0:0:0:
352,128,19924,1,8,0:0:0:0:
160,128,20117,1,0,0:0:0:0:
352,128,20213,1,8,0:0:0:0:
352,128,20341,1,8,0:0:0:0:
352,128,20469,1,8,0:0:0:0:
160,128,20598,1,0,0:0:0:0:
160,128,20982,1,0,0:0:0:0:
352,128,21367,1,8,0:0:0:0:
160,128,21431,1,0,0:0:0:0:
160,128,21495,1,0,0:0:0:0:
352,128,21559,1,8,0:0:0:0:
352,128,21751,1,8,0:0:0:0:
352,128,21944,1,8,0:0:0:0:
160,256,22136,1,4,0:0:0:0:
160,128,22424,1,0,0:0:0:0:
352,128,22521,1,8,0:0:0:0:
160,128,22617,1,0,0:0:0:0:
160,128,22713,1,0,0:0:0:0:
352,128,22809,1,8,0:0:0:0:
160,128,22905,1,0,0:0:0:0:
352,128,23098,1,8,0:0:0:0:
352,128,23194,1,8,0:0:0:0:
160,128,23290,1,0,0:0:0:0:
160,128,23386,1,0,0:0:0:0:
160,128,23482,1,0,0:0:0:0:
352,128,23578,1,8,0:0:0:0:
160,256,23674,1,4,0:0:0:0:
352,256,23963,1,12,0:0:0:0:
352,256,24251,1,12,0:0:0:0:
160,256,24540,1,4,0:0:0:0:
352,256,24828,1,12,0:0:0:0:
160,128,25021,1,0,0:0:0:0:
352,128,25117,1,8,0:0:0:0:
160,128,25213,1,0,0:0:0:0:
160,128,25309,1,0,0:0:0:0:
160,128,25405,1,0,0:0:0:0:
160,128,25501,1,0,0:0:0:0:
352,128,25598,1,8,0:0:0:0:
352,128,25790,1,8,0:0:0:0:
352,128,25886,1,8,0:0:0:0:
160,128,25982,1,0,0:0:0:0:
160,128,26078,1,0,0:0:0:0:
352,128,26174,1,8,0:0:0:0:
352,128,26271,1,8,0:0:0:0:
160,128,26367,1,0,0:0:0:0:
352,128,26559,1,8,0:0:0:0:
352,128,26655,1,8,0:0:0:0:
160,128,26751,1,0,0:0:0:0:
160,128,26848,1,0,0:0:0:0:
160,128,26944,1,0,0:0:0:0:
352,128,27040,1,8,0:0:0:0:
160,128,27136,1,0,0:0:0:0:
160,128,27232,1,0,0:0:0:0:
352,128,27328,1,8,0:0:0:0:
352,128,27424,1,8,0:0:0:0:
160,128,27521,1,0,0:0:0:0:
352,128,27585,1,8,0:0:0:0:
352,128,27649,1,8,0:0:0:0:
160,128,27713,1,0,0:0:0:0:
352,128,27809,1,8,0:0:0:0:
160,128,27905,1,0,0:0:0:0:
160,128,27969,1,0,0:0:0:0:
160,128,28033,1,0,0:0:0:0:
352,128,28098,1,8,0:0:0:0:
352,128,28162,1,8,0:0:0:0:
352,128,28226,1,8,0:0:0:0:
160,128,28290,1,0,0:0:0:0:
160,128,28386,1,0,0:0:0:0:
160,128,28482,1,0,0:0:0:0:
160,128,28578,1,0,0:0:0:0:
352,128,28674,1,8,0:0:0:0:
160,128,28867,1,0,0:0:0:0:
352,128,28963,1,8,0:0:0:0:
160,128,29059,1,0,0:0:0:0:
160,128,29155,1,0,0:0:0:0:
352,128,29251,1,8,0:0:0:0:
352,128,29348,1,8,0:0:0:0:
160,128,29444,1,0,0:0:0:0:
352,128,29636,1,8,0:0:0:0:
160,128,29732,1,0,0:0:0:0:
352,128,29828,1,8,0:0:0:0:
352,128,29892,1,8,0:0:0:0:
352,128,29956,1,8,0:0:0:0:
160,128,30021,1,0,0:0:0:0:
160,128,30117,1,0,0:0:0:0:
352,128,30213,1,8,0:0:0:0:
160,128,30309,1,0,0:0:0:0:
160,128,30405,1,0,0:0:0:0:
352,128,30501,1,8,0:0:0:0:
352,128,30598,1,8,0:0:0:0:
352,128,30694,1,8,0:0:0:0:
352,128,30886,1,8,0:0:0:0:
352,128,30982,1,8,0:0:0:0:
352,128,31174,1,8,0:0:0:0:
352,128,31271,1,8,0:0:0:0:
160,128,31367,1,0,0:0:0:0:
352,128,31463,1,8,0:0:0:0:
352,128,31559,1,8,0:0:0:0:
352,128,31655,1,8,0:0:0:0:
352,128,31848,1,8,0:0:0:0:
160,128,31944,1,0,0:0:0:0:
160,128,32008,1,0,0:0:0:0:
352,128,32072,1,8,0:0:0:0:
160,128,32136,1,0,0:0:0:0:
160,128,32232,1,0,0:0:0:0:
352,128,32328,1,8,0:0:0:0:
352,128,32424,1,8,0:0:0:0:
352,128,32617,1,8,0:0:0:0:
352,128,32713,1,8,0:0:0:0:
352,128,32809,1,8,0:0:0:0:
352,128,33001,1,8,0:0:0:0:
352,128,33049,1,8,0:0:0:0:
160,128,33098,1,0,0:0:0:0:
352,128,33194,1,8,0:0:0:0:
160,128,33290,1,0,0:0:0:0:
160,128,33354,1,0,0:0:0:0:
160,128,33418,1,0,0:0:0:0:
352,128,33482,1,8,0:0:0:0:
352,128,33578,1,8,0:0:0:0:
160,128,33674,1,0,0:0:0:0:
160,128,33771,1,0,0:0:0:0:
352,128,33867,1,8,0:0:0:0:
160,128,33931,1,0,0:0:0:0:
160,128,33995,1,0,0:0:0:0:
352,128,34059,1,8,0:0:0:0:
160,128,34155,1,0,0:0:0:0:
352,128,34251,1,8,0:0:0:0:
352,128,34315,1,8,0:0:0:0:
352,128,34380,1,8,0:0:0:0:
160,128,34444,1,0,0:0:0:0:
352,128,34636,1,8,0:0:0:0:
352,128,34732,1,8,0:0:0:0:
160,128,34924,1,0,0:0:0:0:
352,128,35021,1,8,0:0:0:0:
352,128,35117,1,8,0:0:0:0:
160,128,35309,1,0,0:0:0:0:
352,128,35405,1,8,0:0:0:0:
160,128,35501,1,0,0:0:0:0:
160,128,35598,1,0,0:0:0:0:
352,128,35694,1,8,0:0:0:0:
352,128,35790,1,8,0:0:0:0:
160,128,35886,1,0,0:0:0:0:
352,256,35982,1,12,0:0:0:0:
352,128,36174,1,8,0:0:0:0:
352,128,36271,1,8,0:0:0:0:
160,128,36367,1,0,0:0:0:0:
160,128,36463,1,0,0:0:0:0:
352,128,36559,1,8,0:0:0:0:
352,128,36655,1,8,0:0:0:0:
160,128,36751,1,0,0:0:0:0:
352,128,36944,1,8,0:0:0:0:
160,128,37040,1,0,0:0:0:0:
352,128,37232,1,8,0:0:0:0:
160,128,37328,1,0,0:0:0:0:
352,128,37521,1,8,0:0:0:0:
352,128,37809,1,8,0:0:0:0:
352,128,37905,1,8,0:0:0:0:
352,128,38386,1,8,0:0:0:0:
160,128,39059,1,0,0:0:0:0:
160,128,39155,1,0,0:0:0:0:
352,128,39251,1,8,0:0:0:0:
352,128,39348,1,8,0:0:0:0:
160,128,39444,1,0,0:0:0:0:
352,128,39636,1,8,0:0:0:0:
352,128,39732,1,8,0:0:0:0:
160,128,39828,1,0,0:0:0:0:
352,128,39924,1,8,0:0:0:0:
160,128,40021,1,0,0:0:0:0:
160,128,40213,1,0,0:0:0:0:
352,128,40309,1,8,0:0:0:0:
352,128,40405,1,8,0:0:0:0:
352,128,40501,1,8,0:0:0:0:
160,128,40598,1,0,0:0:0:0:
352,128,40790,1,8,0:0:0:0:
160,128,40886,1,0,0:0:0:0:
352,128,40982,1,8,0:0:0:0:
352,128,41078,1,8,0:0:0:0:
160,128,41174,1,0,0:0:0:0:
160,128,41367,1,0,0:0:0:0:
352,128,41463,1,8,0:0:0:0:
352,128,41511,1,8,0:0:0:0:
160,128,41559,1,0,0:0:0:0:
352,128,41655,1,8,0:0:0:0:
160,128,41751,1,0,0:0:0:0:
352,128,41815,1,8,0:0:0:0:
352,128,41880,1,8,0:0:0:0:
160,128,41944,1,0,0:0:0:0:
352,128,42040,1,8,0:0:0:0:
352,128,42136,1,8,0:0:0:0:
160,128,42232,1,0,0:0:0:0:
352,128,42328,1,8,0:0:0:0:
352,128,42424,1,8,0:0:0:0:
160,128,42521,1,0,0:0:0:0:
352,128,42713,1,8,0:0:0:0:
352,128,42809,1,8,0:0:0:0:
160,128,42905,1,0,0:0:0:0:
352,128,43001,1,8,0:0:0:0:
160,128,43098,1,0,0:0:0:0:
352,128,43290,1,8,0:0:0:0:
160,128,43386,1,0,0:0:0:0:
352,128,43482,1,8,0:0:0:0:
352,128,43578,1,8,0:0:0:0:
160,128,43674,1,0,0:0:0:0:
160,128,43739,1,0,0:0:0:0:
160,128,43803,1,0,0:0:0:0:
352,128,43867,1,8,0:0:0:0:
160,128,43963,1,0,0:0:0:0:
160,128,44155,1,0,0:0:0:0:
352,128,44251,1,8,0:0:0:0:
352,128,44299,1,8,0:0:0:0:
352,128,44348,1,8,0:0:0:0:
160,128,44444,1,0,0:0:0:0:
160,128,44508,1,0,0:0:0:0:
352,128,44572,1,8,0:0:0:0:
160,128,44636,1,0,0:0:0:0:
352,128,44700,1,8,0:0:0:0:
352,128,44764,1,8,0:0:0:0:
160,128,44828,1,0,0:0:0:0:
352,128,45021,1,8,0:0:0:0:
160,128,45213,1,0,0:0:0:0:
160,128,45309,1,0,0:0:0:0:
352,128,45405,1,8,0:0:0:0:
352,128,45501,1,8,0:0:0:0:
160,128,45598,1,0,0:0:0:0:
352,128,45790,1,8,0:0:0:0:
352,128,45886,1,8,0:0:0:0:
160,128,45982,1,0,0:0:0:0:
352,128,46078,1,8,0:0:0:0:
160,128,46174,1,0,0:0:0:0:
160,128,46367,1,0,0:0:0:0:
352,128,46463,1,8,0:0:0:0:
352,128,46559,1,8,0:0:0:0:
352,128,46655,1,8,0:0:0:0:
160,128,46751,1,0,0:0:0:0:
352,128,46944,1,8,0:0:0:0:
352,128,47040,1,8,0:0:0:0:
160,128,47136,1,0,0:0:0:0:
352,128,47232,1,8,0:0:0:0:
160,128,47328,1,0,0:0:0:0:
160,128,47521,1,0,0:0:0:0:
352,128,47617,1,8,0:0:0:0:
352,128,47665,1,8,0:0:0:0:
160,128,47713,1,0,0:0:0:0:
352,128,47809,1,8,0:0:0:0:
160,128,47905,1,0,0:0:0:0:
352,128,47969,1,8,0:0:0:0:
352,128,48033,1,8,0:0:0:0:
160,128,48098,1,0,0:0:0:0:
160,128,48194,1,0,0:0:0:0:
352,128,48290,1,8,0:0:0:0:
160,128,48386,1,0,0:0:0:0:
352,128,48482,1,8,0:0:0:0:
352,128,48578,1,8,0:0:0:0:
160,128,48674,1,0,0:0:0:0:
352,128,48867,1,8,0:0:0:0:
352,128,48963,1,8,0:0:0:0:
160,128,49059,1,0,0:0:0:0:
352,128,49155,1,8,0:0:0:0:
160,128,49251,1,0,0:0:0:0:
352,128,49444,1,8,0:0:0:0:
160,128,49540,1,0,0:0:0:0:
352,128,49636,1,8,0:0:0:0:
352,128,49732,1,8,0:0:0:0:
160,128,49828,1,0,0:0:0:0:
160,128,49924,1,0,0:0:0:0:
160,128,50021,1,0,0:0:0:0:
160,128,50117,1,0,0:0:0:0:
160,128,50213,1,0,0:0:0:0:
160,128,50309,1,0,0:0:0:0:
160,128,50405,1,0,0:0:0:0:
160,128,50501,1,0,0:0:0:0:
352,128,50598,1,8,0:0:0:0:
352,128,50662,1,8,0:0:0:0:
352,128,50726,1,8,0:0:0:0:
352,128,50790,1,8,0:0:0:0:
352,128,50854,1,8,0:0:0:0:
352,128,50918,1,8,0:0:0:0:
160,128,50982,1,0,0:0:0:0:
160,128,51046,1,0,0:0:0:0:
160,128,51110,1,0,0:0:0:0:
352,128,51174,1,8,0:0:0:0:
352,128,51239,1,8,0:0:0:0:
352,128,51303,1,8,0:0:0:0:
160,128,51367,1,0,0:0:0:0:
352,128,51655,1,8,0:0:0:0:
160,128,51848,1,0,0:0:0:0:
352,128,51944,1,8,0:0:0:0:
160,128,52040,1,0,0:0:0:0:
352,128,52232,1,8,0:0:0:0:
352,128,52328,1,8,0:0:0:0:
160,128,52521,1,0,0:0:0:0:
352,128,52713,1,8,0:0:0:0:
160,128,52905,1,0,0:0:0:0:
352,128,53001,1,8,0:0:0:0:
160,128,53290,1,0,0:0:0:0:
352,128,53482,1,8,0:0:0:0:
160,128,53674,1,0,0:0:0:0:
352,128,53771,1,8,0:0:0:0:
352,128,53819,1,8,0:0:0:0:
160,128,53867,1,0,0:0:0:0:
160,128,53963,1,0,0:0:0:0:
352,128,54059,1,8,0:0:0:0:
160,128,54123,1,0,0:0:0:0:
160,128,54187,1,0,0:0:0:0:
352,128,54251,1,8,0:0:0:0:
160,128,54348,1,0,0:0:0:0:
352,128,54444,1,8,0:0:0:0:
352,128,54636,1,8,0:0:0:0:
160,128,54732,1,0,0:0:0:0:
352,128,55021,1,8,0:0:0:0:
160,128,55213,1,0,0:0:0:0:
352,128,55309,1,8,0:0:0:0:
352,128,55598,1,8,0:0:0:0:
352,128,55790,1,8,0:0:0:0:
352,128,55886,1,8,0:0:0:0:
160,256,55982,1,4,0:0:0:0:
352,128,56174,1,8,0:0:0:0:
160,128,56271,1,0,0:0:0:0:
352,128,56367,1,8,0:0:0:0:
160,128,56463,1,0,0:0:0:0:
352,128,56559,1,8,0:0:0:0:
352,128,56607,1,8,0:0:0:0:
352,128,56655,1,8,0:0:0:0:
160,128,56751,1,0,0:0:0:0:
352,128,56815,1,8,0:0:0:0:
352,128,56880,1,8,0:0:0:0:
352,128,56944,1,8,0:0:0:0:
160,128,57008,1,0,0:0:0:0:
352,128,57072,1,8,0:0:0:0:
160,128,57136,1,0,0:0:0:0:
160,128,57328,1,0,0:0:0:0:
352,128,57521,1,8,0:0:0:0:
352,128,57617,1,8,0:0:0:0:
160,128,57713,1,0,0:0:0:0:
160,128,57809,1,0,0:0:0:0:
352,128,57905,1,8,0:0:0:0:
352,128,58001,1,8,0:0:0:0:
160,128,58098,1,0,0:0:0:0:
352,128,58194,1,8,0:0:0:0:
160,128,58290,1,0,0:0:0:0:
352,128,58386,1,8,0:0:0:0:
352,128,58482,1,8,0:0:0:0:
352,128,58578,1,8,0:0:0:0:
160,128,58674,1,0,0:0:0:0:
352,128,58771,1,8,0:0:0:0:
160,128,58867,1,0,0:0:0:0:
160,128,58963,1,0,0:0:0:0:
352,128,59059,1,8,0:0:0:0:
352,128,59155,1,8,0:0:0:0:
352,128,59251,1,8,0:0:0:0:
160,128,59348,1,0,0:0:0:0:
160,128,59444,1,0,0:0:0:0:
352,128,59540,1,8,0:0:0:0:
352,128,59636,1,8,0:0:0:0:
352,128,59732,1,8,0:0:0:0:
160,128,59828,1,0,0:0:0:0:
352,128,59924,1,8,0:0:0:0:
352,128,59973,1,8,0:0:0:0:
352,128,60021,1,8,0:0:0:0:
160,128,60117,1,0,0:0:0:0:
352,128,60213,1,8,0:0:0:0:
160,128,60277,1,0,0:0:0:0:
160,128,60341,1,0,0:0:0:0:
352,128,60405,1,8,0:0:0:0:
352,128,60501,1,8,0:0:0:0:
160,128,60598,1,0,0:0:0:0:
352,128,60790,1,8,0:0:0:0:
352,128,60886,1,8,0:0:0:0:
160,128,60982,1,0,0:0:0:0:
352,128,61174,1,8,0:0:0:0:
160,128,61367,1,0,0:0:0:0:
352,128,61463,1,8,0:0:0:0:
160,128,61559,1,0,0:0:0:0:
352,128,61751,1,8,0:0:0:0:
160,128,61944,1,0,0:0:0:0:
160,128,62136,1,0,0:0:0:0:
160,128,62232,1,0,0:0:0:0:
352,128,62328,1,8,0:0:0:0:
352,128,62424,1,8,0:0:0:0:
160,128,62521,1,0,0:0:0:0:
352,128,62617,1,8,0:0:0:0:
160,128,62713,1,0,0:0:0:0:
160,128,62809,1,0,0:0:0:0:
352,128,62905,1,8,0:0:0:0:
160,128,63001,1,0,0:0:0:0:
352,128,63098,1,8,0:0:0:0:
352,128,63194,1,8,0:0:0:0:
160,128,63290,1,0,0:0:0:0:
352,128,63386,1,8,0:0:0:0:
160,128,63482,1,0,0:0:0:0:
160,128,63578,1,0,0:0:0:0:
352,256,63674,1,12,0:0:0:0:
160,128,63867,1,0,0:0:0:0:
160,128,64059,1,0,0:0:0:0:
352,128,64155,1,8,0:0:0:0:
352,128,64251,1,8,0:0:0:0:
352,128,64348,1,8,0:0:0:0:
160,128,64444,1,0,0:0:0:0:
160,128,64540,1,0,0:0:0:0:
352,128,64636,1,8,0:0:0:0:
352,128,64732,1,8,0:0:0:0:
160,128,64828,1,0,0:0:0:0:
160,128,65021,1,0,0:0:0:0:
352,128,65213,1,8,0:0:0:0:
352,128,65309,1,8,0:0:0:0:
160,128,65405,1,0,0:0:0:0:
352,128,65501,1,8,0:0:0:0:
352,128,65598,1,8,0:0:0:0:
160,128,65694,1,0,0:0:0:0:
352,128,65790,1,8,0:0:0:0:
352,128,65886,1,8,0:0:0:0:
160,128,65982,1,0,0:0:0:0:
352,128,66078,1,8,0:0:0:0:
352,128,66174,1,8,0:0:0:0:
160,128,66271,1,0,0:0:0:0:
352,128,66367,1,8,0:0:0:0:
352,128,66463,1,8,0:0:0:0:
352,128,66559,1,8,0:0:0:0:
160,256,66751,1,4,0:0:0:0:
160,128,66944,1,0,0:0:0:0:
160,128,67136,1,0,0:0:0:0:
352,128,67232,1,8,0:0:0:0:
352,128,67328,1,8,0:0:0:0:
352,128,67424,1,8,0:0:0:0:
160,128,67521,1,0,0:0:0:0:
352,128,67617,1,8,0:0:0:0:
160,128,67713,1,0,0:0:0:0:
352,128,67809,1,8,0:0:0:0:
160,128,67905,1,0,0:0:0:0:
352,128,68098,1,8,0:0:0:0:
160,256,68290,1,4,0:0:0:0:
160,128,68674,1,0,0:0:0:0:
160,128,68867,1,0,0:0:0:0:
352,128,68963,1,8,0:0:0:0:
160,128,69251,1,0,0:0:0:0:
352,128,69540,1,8,0:0:0:0:
352,128,69636,1,8,0:0:0:0:
160,128,69732,1,0,0:0:0:0:
352,256,69828,1,12,0:0:0:0:
352,128,70021,1,8,0:0:0:0:
160,128,70213,1,0,0:0:0:0:
352,128,70309,1,8,0:0:0:0:
352,128,70405,1,8,0:0:0:0:
352,128,70501,1,8,0:0:0:0:
160,128,70598,1,0,0:0:0:0:
160,128,70694,1,0,0:0:0:0:
352,128,70790,1,8,0:0:0:0:
352,128,70886,1,8,0:0:0:0:
160,128,70982,1,0,0:0:0:0:
160,128,71174,1,0,0:0:0:0:
352,128,71367,1,8,0:0:0:0:
160,128,71463,1,0,0:0:0:0:
160,128,71559,1,0,0:0:0:0:
352,128,71655,1,8,0:0:0:0:
160,128,71751,1,0,0:0:0:0:
160,128,71848,1,0,0:0:0:0:
352,128,71944,1,8,0:0:0:0:
160,128,72040,1,0,0:0:0:0:
160,128,72136,1,0,0:0:0:0:
352,128,72232,1,8,0:0:0:0:
160,128,72328,1,0,0:0:0:0:
160,128,72424,1,0,0:0:0:0:
352,128,72521,1,8,0:0:0:0:
352,128,72713,1,8,0:0:0:0:
352,128,72905,1,8,0:0:0:0:
352,128,73001,1,8,0:0:0:0:
352,128,73098,1,8,0:0:0:0:
352,128,73290,1,8,0:0:0:0:
352,128,73386,1,8,0:0:0:0:
352,128,73578,1,8,0:0:0:0:
352,128,73771,1,8,0:0:0:0:
352,128,73867,1,8,0:0:0:0:
352,128,74059,1,8,0:0:0:0:
352,128,74251,1,8,0:0:0:0:
160,128,74444,1,0,0:0:0:0:
160,128,74540,1,0,0:0:0:0:
160,128,74732,1,0,0:0:0:0:
160,128,74828,1,0,0:0:0:0:
160,128,75021,1,0,0:0:0:0:
160,128,75117,1,0,0:0:0:0:
160,128,75309,1,0,0:0:0:0:
160,128,75405,1,0,0:0:0:0:
352,128,75982,1,8,0:0:0:0:
160,128,76078,1,0,0:0:0:0:
160,128,76174,1,0,0:0:0:0:
352,128,76271,1,8,0:0:0:0:
160,128,76463,1,0,0:0:0:0:
160,128,76655,1,0,0:0:0:0:
352,128,76751,1,8,0:0:0:0:
352,128,76848,1,8,0:0:0:0:
160,128,76944,1,0,0:0:0:0:
352,128,77040,1,8,0:0:0:0:
160,128,77232,1,0,0:0:0:0:
160,128,77424,1,0,0:0:0:0:
352,128,77521,1,8,0:0:0:0:
160,128,77617,1,0,0:0:0:0:
160,128,77713,1,0,0:0:0:0:
352,128,77809,1,8,0:0:0:0:
160,128,78001,1,0,0:0:0:0:
352,128,78194,1,8,0:0:0:0:
352,128,78290,1,8,0:0:0:0:
160,128,78386,1,0,0:0:0:0:
352,128,78482,1,8,0:0:0:0:
352,128,78578,1,8,0:0:0:0:
160,128,78771,1,0,0:0:0:0:
352,128,78963,1,8,0:0:0:0:
352,128,79059,1,8,0:0:0:0:
160,128,79155,1,0,0:0:0:0:
352,128,79251,1,8,0:0:0:0:
160,128,79348,1,0,0:0:0:0:
352,128,79540,1,8,0:0:0:0:
160,128,79732,1,0,0:0:0:0:
352,128,79828,1,8,0:0:0:0:
352,128,79924,1,8,0:0:0:0:
160,128,80021,1,0,0:0:0:0:
352,128,80117,1,8,0:0:0:0:
352,128,80309,1,8,0:0:0:0:
352,128,80501,1,8,0:0:0:0:
352,128,80598,1,8,0:0:0:0:
160,128,80694,1,0,0:0:0:0:
352,128,80790,1,8,0:0:0:0:
352,128,80886,1,8,0:0:0:0:
160,128,80982,1,0,0:0:0:0:
160,128,81078,1,0,0:0:0:0:
352,128,81174,1,8,0:0:0:0:
160,128,81271,1,0,0:0:0:0:
352,128,81367,1,8,0:0:0:0:
352,128,81431,1,8,0:0:0:0:
352,128,81495,1,8,0:0:0:0:
160,128,81559,1,0,0:0:0:0:
160,128,81655,1,0,0:0:0:0:
352,128,81751,1,8,0:0:0:0:
160,128,81815,1,0,0:0:0:0:
160,128,81880,1,0,0:0:0:0:
352,128,81944,1,8,0:0:0:0:
160,128,82008,1,0,0:0:0:0:
160,128,82072,1,0,0:0:0:0:
352,128,82136,1,8,0:0:0:0:
352,128,82328,1,8,0:0:0:0:
160,128,82424,1,0,0:0:0:0:
160,128,82617,1,0,0:0:0:0:
160,256,82713,1,4,0:0:0:0:
352,128,82905,1,8,0:0:0:0:
352,128,83098,1,8,0:0:0:0:
352,128,83194,1,8,0:0:0:0:
352,128,83386,1,8,0:0:0:0:
352,128,83482,1,8,0:0:0:0:
160,256,83674,1,4,0:0:0:0:
160,128,83963,1,0,0:0:0:0:
160,128,84251,1,0,0:0:0:0:
352,128,84540,1,8,0:0:0:0:
352,128,84636,1,8,0:0:0:0:
352,128,84828,1,8,0:0:0:0:
352,128,85021,1,8,0:0:0:0:
352,128,85213,1,8,0:0:0:0:
160,128,85309,1,0,0:0:0:0:
160,128,85405,1,0,0:0:0:0:
352,128,85501,1,8,0:0:0:0:
160,128,85694,1,0,0:0:0:0:
160,128,85886,1,0,0:0:0:0:
352,128,85982,1,8,0:0:0:0:
352,128,86078,1,8,0:0:0:0:
160,128,86174,1,0,0:0:0:0:
352,128,86271,1,8,0:0:0:0:
160,128,86463,1,0,0:0:0:0:
160,128,86655,1,0,0:0:0:0:
352,128,86751,1,8,0:0:0:0:
160,128,86848,1,0,0:0:0:0:
160,128,86944,1,0,0:0:0:0:
352,128,87040,1,8,0:0:0:0:
160,128,87232,1,0,0:0:0:0:
160,128,87424,1,0,0:0:0:0:
352,128,87521,1,8,0:0:0:0:
352,128,87617,1,8,0:0:0:0:
160,128,87713,1,0,0:0:0:0:
352,128,87809,1,8,0:0:0:0:
160,128,88001,1,0,0:0:0:0:
160,128,88194,1,0,0:0:0:0:
352,128,88290,1,8,0:0:0:0:
160,128,88386,1,0,0:0:0:0:
352,128,88482,1,8,0:0:0:0:
352,128,88578,1,8,0:0:0:0:
160,128,88771,1,0,0:0:0:0:
160,128,88963,1,0,0:0:0:0:
352,128,89059,1,8,0:0:0:0:
352,128,89155,1,8,0:0:0:0:
352,128,89251,1,8,0:0:0:0:
160,128,89348,1,0,0:0:0:0:
160,128,89540,1,0,0:0:0:0:
160,128,89732,1,0,0:0:0:0:
352,128,89828,1,8,0:0:0:0:
160,128,89892,1,0,0:0:0:0:
160,128,89956,1,0,0:0:0:0:
352,128,90021,1,8,0:0:0:0:
160,128,90117,1,0,0:0:0:0:
352,128,90213,1,8,0:0:0:0:
160,128,90277,1,0,0:0:0:0:
160,128,90341,1,0,0:0:0:0:
352,128,90405,1,8,0:0:0:0:
160,128,90501,1,0,0:0:0:0:
352,128,90598,1,8,0:0:0:0:
352,128,90694,1,8,0:0:0:0:
160,128,90790,1,0,0:0:0:0:
352,128,90982,1,8,0:0:0:0:
352,128,91046,1,8,0:0:0:0:
352,128,91110,1,8,0:0:0:0:
160,128,91174,1,0,0:0:0:0:
160,128,91271,1,0,0:0:0:0:
352,128,91367,1,8,0:0:0:0:
160,128,91431,1,0,0:0:0:0:
160,128,91495,1,0,0:0:0:0:
352,128,91559,1,8,0:0:0:0:
160,128,91623,1,0,0:0:0:0:
352,128,91687,1,8,0:0:0:0:
352,128,91751,1,8,0:0:0:0:
160,128,91815,1,0,0:0:0:0:
160,128,91880,1,0,0:0:0:0:
352,128,91944,1,8,0:0:0:0:
160,128,92008,1,0,0:0:0:0:
160,128,92072,1,0,0:0:0:0:
352,128,92136,1,8,0:0:0:0:
352,128,92232,1,8,0:0:0:0:
160,128,92328,1,0,0:0:0:0:
352,128,92424,1,8,0:0:0:0:
160,128,92617,1,0,0:0:0:0:
160,128,92713,1,0,0:0:0:0:
352,128,92905,1,8,0:0:0:0:
160,128,92969,1,0,0:0:0:0:
160,128,93033,1,0,0:0:0:0:
352,128,93098,1,8,0:0:0:0:
160,128,93162,1,0,0:0:0:0:
352,128,93226,1,8,0:0:0:0:
352,128,93290,1,8,0:0:0:0:
160,128,93354,1,0,0:0:0:0:
160,128,93418,1,8,0:0:0:0:
352,128,93482,1,0,0:0:0:0:
352,128,93546,1,8,0:0:0:0:
352,128,93610,1,8,0:0:0:0:
160,128,93674,1,0,0:0:0:0:
352,128,93771,1,8,0:0:0:0:
160,128,93867,1,0,0:0:0:0:
352,128,93963,1,8,0:0:0:0:
160,128,94155,1,0,0:0:0:0:
352,128,94348,1,8,0:0:0:0:
352,128,94444,1,8,0:0:0:0:
160,128,94540,1,0,0:0:0:0:
352,128,94636,1,8,0:0:0:0:
352,128,94732,1,8,0:0:0:0:
160,128,94828,1,0,0:0:0:0:
160,128,95021,1,0,0:0:0:0:
160,128,95085,1,0,0:0:0:0:
160,128,95149,1,0,0:0:0:0:
352,128,95213,1,8,0:0:0:0:
352,128,95309,1,8,0:0:0:0:
160,128,95405,1,0,0:0:0:0:
352,128,95501,1,8,0:0:0:0:
352,128,95694,1,8,0:0:0:0:
160,128,95790,1,0,0:0:0:0:
352,128,95886,1,8,0:0:0:0:
352,128,95982,1,8,0:0:0:0:
160,128,96078,1,0,0:0:0:0:
160,128,96126,1,0,0:0:0:0:
352,128,96174,1,8,0:0:0:0:
352,128,96271,1,8,0:0:0:0:
160,128,96367,1,0,0:0:0:0:
160,128,96463,1,0,0:0:0:0:
352,128,96559,1,8,0:0:0:0:
160,128,96655,1,0,0:0:0:0:
160,128,96703,1,0,0:0:0:0:
352,128,96751,1,8,0:0:0:0:
352,128,96848,1,8,0:0:0:0:
160,128,96944,1,0,0:0:0:0:
160,128,97040,1,0,0:0:0:0:
352,128,97136,1,8,0:0:0:0:
352,128,97200,1,8,0:0:0:0:
160,128,97264,1,0,0:0:0:0:
352,128,97328,1,8,0:0:0:0:
352,128,97392,1,8,0:0:0:0:
160,128,97456,1,0,0:0:0:0:
352,128,97521,1,8,0:0:0:0:
352,128,97713,1,8,0:0:0:0:
160,128,97809,1,0,0:0:0:0:
160,128,97905,1,0,0:0:0:0:
352,128,98098,1,8,0:0:0:0:
352,128,98290,1,8,0:0:0:0:
352,128,98386,1,8,0:0:0:0:
160,128,98482,1,0,0:0:0:0:
352,128,98674,1,8,0:0:0:0:
160,128,98867,1,0,0:0:0:0:
160,128,98915,1,0,0:0:0:0:
160,128,98963,1,0,0:0:0:0:
160,128,99059,1,0,0:0:0:0:
160,128,99155,1,0,0:0:0:0:
160,128,99251,1,0,0:0:0:0:
160,128,99348,1,0,0:0:0:0:
160,128,99540,1,0,0:0:0:0:
160,128,99636,1,0,0:0:0:0:
160,128,99732,1,0,0:0:0:0:
160,128,99780,1,0,0:0:0:0:
160,128,99924,1,0,0:0:0:0:
160,128,100021,1,0,0:0:0:0:
160,128,100117,1,0,0:0:0:0:
160,128,100309,1,0,0:0:0:0:
160,128,100405,1,0,0:0:0:0:
160,128,100501,1,0,0:0:0:0:
160,128,100598,1,0,0:0:0:0:
160,128,100694,1,0,0:0:0:0:
160,128,100742,1,0,0:0:0:0:
160,128,100790,1,0,0:0:0:0:
160,128,100886,1,0,0:0:0:0:
160,128,101078,1,0,0:0:0:0:
160,128,101174,1,0,0:0:0:0:
160,128,101271,1,0,0:0:0:0:
160,128,101319,1,0,0:0:0:0:
160,128,101463,1,0,0:0:0:0:
160,128,101559,1,0,0:0:0:0:
160,128,101655,1,0,0:0:0:0:
160,128,101703,1,0,0:0:0:0:
160,128,101848,1,0,0:0:0:0:
160,128,101944,1,0,0:0:0:0:
160,128,102040,1,0,0:0:0:0:
160,128,102088,1,0,0:0:0:0:
160,128,102136,1,0,0:0:0:0:
160,128,102232,1,0,0:0:0:0:
160,128,102328,1,0,0:0:0:0:
160,128,102424,1,0,0:0:0:0:
160,128,102617,1,0,0:0:0:0:
160,128,102713,1,0,0:0:0:0:
160,128,102809,1,0,0:0:0:0:
160,128,102857,1,0,0:0:0:0:
160,128,103001,1,0,0:0:0:0:
160,128,103098,1,0,0:0:0:0:
160,128,103194,1,0,0:0:0:0:
160,128,103386,1,0,0:0:0:0:
160,128,103482,1,0,0:0:0:0:
160,128,103578,1,0,0:0:0:0:
352,128,103674,1,8,0:0:0:0:
160,128,103771,1,0,0:0:0:0:
160,128,103867,1,0,0:0:0:0:
160,128,103963,1,0,0:0:0:0:
352,128,104059,1,8,0:0:0:0:
160,128,104155,1,0,0:0:0:0:
352,128,104251,1,8,0:0:0:0:
160,128,104348,1,0,0:0:0:0:
160,128,104444,1,0,0:0:0:0:
160,128,104540,1,0,0:0:0:0:
352,128,104636,1,8,0:0:0:0:
160,128,104732,1,0,0:0:0:0:
352,128,104828,1,8,0:0:0:0:
352,128,104892,1,8,0:0:0:0:
352,128,104956,1,8,0:0:0:0:
160,128,105021,1,0,0:0:0:0:
352,128,105085,1,8,0:0:0:0:
352,128,105149,1,8,0:0:0:0:
160,128,105213,1,0,0:0:0:0:
256,192,105309,8,0,112521,0:0:0:0:
