osu file format v14

[General]
AudioFilename: audio.mp3
AudioLeadIn: 0
PreviewTime: 80241
Countdown: 0
SampleSet: Normal
StackLeniency: 0.7
Mode: 1
LetterboxInBreaks: 0
WidescreenStoryboard: 1

[Editor]
Bookmarks: 100,12493,24880,37267,49654,62041,80622,105402,117789
DistanceSpacing: 0.8
BeatDivisor: 4
GridSize: 4
TimelineZoom: 1.9

[Metadata]
Title:Cris Fortress
TitleUnicode:Cris Fortress
Artist:Se-U-Ra
ArtistUnicode:Se-U-Ra
Creator:Ulqui
Version:Kantan
Source:osu!
Tags:electronic instrumental featured artist fa seura
BeatmapID:2746028
BeatmapSetID:1305819

[Difficulty]
HPDrainRate:8
CircleSize:2
OverallDifficulty:3
ApproachRate:10
SliderMultiplier:1.4
SliderTickRate:1

[Events]
//Background and Video events
0,0,"68797466_p0_master1200.jpg",0,80
//Break Periods
2,49860,55403
2,62247,67791
//Storyboard Layer 0 (Background)
//Storyboard Layer 1 (Fail)
//Storyboard Layer 2 (Pass)
//Storyboard Layer 3 (Foreground)
//Storyboard Layer 4 (Overlay)
//Storyboard Sound Samples

[TimingPoints]
112,387.096774193548,4,1,0,100,1,0
112,-111.111111111111,4,1,0,100,0,0
257,-100,4,1,0,100,0,0
354,-111.111111111111,4,1,0,100,0,0
10950,-100,4,1,0,100,0,0
11047,-111.111111111111,4,1,0,100,0,0
12499,-111.111111111111,4,1,0,100,0,1
24886,-111.111111111111,4,1,0,100,0,0
24982,-111.111111111111,4,1,0,100,0,0
37273,-100,4,1,0,100,0,0
49853,-111.111111111111,4,1,0,100,0,0
62144,-111.111111111111,4,1,0,100,0,0
69741,-100,4,1,0,100,0,0
69837,-111.111111111111,4,1,0,100,0,0
72837,-100,4,1,0,100,0,0
72933,-111.111111111111,4,1,0,100,0,0
80628,-111.111111111111,4,1,0,100,0,1
104628,-111.111111111111,4,1,0,100,0,1
105402,-111.111111111111,4,1,0,100,0,1
116434,-111.111111111111,4,1,0,100,0,1
117789,-111.111111111111,4,1,0,100,0,0

[HitObjects]
198,136,112,5,4,0:0:0:0:
256,192,305,12,0,5918,0:0:0:0:
198,136,6305,5,0,0:0:0:0:
198,136,7079,1,0,0:0:0:0:
198,136,7853,1,0,0:0:0:0:
198,136,8628,1,0,0:0:0:0:
198,136,9402,1,0,0:0:0:0:
198,136,9789,1,0,0:0:0:0:
198,136,10176,1,0,0:0:0:0:
256,192,10950,12,0,12111,0:0:0:0:
185,92,12499,5,0,0:0:0:0:
176,126,13273,1,8,0:0:0:0:
176,126,13660,1,8,0:0:0:0:
176,126,14047,1,0,0:0:0:0:
170,130,14821,1,8,0:0:0:0:
170,130,15208,1,8,0:0:0:0:
170,130,15595,1,0,0:0:0:0:
170,130,16370,1,8,0:0:0:0:
170,130,16757,1,8,0:0:0:0:
170,130,17144,1,0,0:0:0:0:
170,130,18692,1,8,0:0:0:0:
170,130,19466,1,0,0:0:0:0:
170,130,19853,1,0,0:0:0:0:
170,130,20241,1,8,0:0:0:0:
170,130,21015,1,0,0:0:0:0:
170,130,21402,1,0,0:0:0:0:
170,130,21789,1,8,0:0:0:0:
170,130,22563,1,0,0:0:0:0:
170,130,22950,1,0,0:0:0:0:
170,130,23337,1,8,0:0:0:0:
168,133,24886,1,0,0:0:0:0:
168,172,26434,1,0,0:0:0:0:
168,171,27982,1,0,0:0:0:0:
192,146,29531,1,0,0:0:0:0:
189,141,31079,1,12,0:0:0:0:
187,148,32628,1,0,0:0:0:0:
187,148,34176,1,0,0:0:0:0:
194,94,34563,1,0,0:0:0:0:
185,116,34950,1,0,0:0:0:0:
185,116,35724,1,0,0:0:0:0:
185,116,36499,1,8,0:0:0:0:
185,116,37273,1,0,0:0:0:0:
201,75,38047,1,8,0:0:0:0:
201,75,38434,1,8,0:0:0:0:
201,75,38821,1,0,0:0:0:0:
201,75,39595,1,8,0:0:0:0:
201,75,39982,1,8,0:0:0:0:
201,75,40370,1,0,0:0:0:0:
201,75,40757,1,0,0:0:0:0:
201,75,41144,1,8,0:0:0:0:
229,89,41918,1,0,0:0:0:0:
200,82,42692,1,12,0:0:0:0:
206,114,43466,1,4,0:0:0:0:
193,108,44241,1,12,0:0:0:0:
193,108,45015,1,4,0:0:0:0:
193,108,45789,1,12,0:0:0:0:
193,108,46563,1,0,0:0:0:0:
185,103,48111,1,0,0:0:0:0:
190,77,48499,1,0,0:0:0:0:
185,103,48886,1,0,0:0:0:0:
185,103,49273,1,0,0:0:0:0:
185,103,49660,1,12,0:0:0:0:
195,116,55853,5,0,0:0:0:0:
193,116,57402,1,0,0:0:0:0:
192,111,58950,1,0,0:0:0:0:
192,111,59337,1,0,0:0:0:0:
192,111,59724,1,0,0:0:0:0:
188,118,60499,1,0,0:0:0:0:
188,118,60886,1,0,0:0:0:0:
188,118,61273,1,0,0:0:0:0:
188,118,62047,1,12,0:0:0:0:
170,163,68241,5,4,0:0:0:0:
256,192,69789,12,0,70950,0:0:0:0:
199,159,71337,5,4,0:0:0:0:
256,192,72886,12,0,74047,0:0:0:0:
229,171,74434,5,4,0:0:0:0:
150,141,75208,1,8,0:0:0:0:
150,141,75982,1,0,0:0:0:0:
150,141,76757,1,8,0:0:0:0:
150,141,77531,1,0,0:0:0:0:
151,147,77918,1,0,0:0:0:0:
151,147,78305,1,0,0:0:0:0:
151,147,79079,1,8,0:0:0:0:
151,147,79466,1,8,0:0:0:0:
151,147,79853,1,8,0:0:0:0:
151,147,80628,1,4,0:0:0:0:
179,221,81402,1,8,0:0:0:0:
179,221,81789,1,8,0:0:0:0:
179,221,82176,1,0,0:0:0:0:
203,91,82563,1,0,0:0:0:0:
203,91,82950,1,8,0:0:0:0:
164,76,83724,1,0,0:0:0:0:
182,80,84111,1,0,0:0:0:0:
164,76,84499,1,8,0:0:0:0:
169,117,85273,1,0,0:0:0:0:
169,117,86821,1,0,0:0:0:0:
191,102,87595,1,8,0:0:0:0:
191,102,87982,1,0,0:0:0:0:
191,102,88370,1,0,0:0:0:0:
191,102,88757,1,8,0:0:0:0:
191,102,89144,1,8,0:0:0:0:
191,102,89918,1,0,0:0:0:0:
191,102,90305,1,8,0:0:0:0:
191,102,90692,1,8,0:0:0:0:
191,102,91466,1,0,0:0:0:0:
185,108,93015,1,4,0:0:0:0:
185,95,93789,1,8,0:0:0:0:
185,95,94176,1,8,0:0:0:0:
185,95,94563,1,0,0:0:0:0:
185,95,94950,1,0,0:0:0:0:
185,95,95337,1,8,0:0:0:0:
185,95,96111,1,8,0:0:0:0:
185,95,96499,1,8,0:0:0:0:
185,95,96886,1,8,0:0:0:0:
185,95,97660,1,0,0:0:0:0:
190,96,99208,1,0,0:0:0:0:
190,96,99982,1,8,0:0:0:0:
190,96,100370,1,0,0:0:0:0:
183,98,100757,1,0,0:0:0:0:
183,98,101144,1,8,0:0:0:0:
183,98,101531,1,8,0:0:0:0:
183,98,102305,1,0,0:0:0:0:
183,98,102692,1,8,0:0:0:0:
183,98,103079,1,8,0:0:0:0:
183,98,103853,1,0,0:0:0:0:
183,98,104628,1,12,0:0:0:0:
183,98,105402,1,4,0:0:0:0:
174,129,106950,1,0,0:0:0:0:
165,153,107724,1,8,0:0:0:0:
200,200,108111,1,0,0:0:0:0:
172,136,108499,1,0,0:0:0:0:
210,77,109273,1,0,0:0:0:0:
175,132,110047,1,8,0:0:0:0:
175,132,111595,1,0,0:0:0:0:
185,75,112370,1,8,0:0:0:0:
222,121,112757,1,0,0:0:0:0:
205,107,113144,1,0,0:0:0:0:
205,107,113918,1,8,0:0:0:0:
205,107,114692,1,0,0:0:0:0:
205,107,115466,1,0,0:0:0:0:
196,98,116241,2,0,L|580:127,1,377.999988464356
194,93,117789,5,4,0:0:0:0:
