osu file format v14

[General]
AudioFilename: audio.mp3
AudioLeadIn: 0
PreviewTime: 80241
Countdown: 0
SampleSet: Normal
StackLeniency: 0.7
Mode: 1
LetterboxInBreaks: 0
WidescreenStoryboard: 1

[Editor]
Bookmarks: 100,12493,24880,37267,49654,62041,80622,105402,117789
DistanceSpacing: 0.8
BeatDivisor: 4
GridSize: 4
TimelineZoom: 1.9

[Metadata]
Title:Cris Fortress
TitleUnicode:Cris Fortress
Artist:Se-U-Ra
ArtistUnicode:Se-U-Ra
Creator:Ulqui
Version:Futsuu
Source:osu!
Tags:electronic instrumental featured artist fa seura
BeatmapID:2746027
BeatmapSetID:1305819

[Difficulty]
HPDrainRate:7
CircleSize:2
OverallDifficulty:3.5
ApproachRate:10
SliderMultiplier:1.4
SliderTickRate:1

[Events]
//Background and Video events
0,0,"68797466_p0_master1200.jpg",0,80
//Break Periods
2,49860,55403
2,62247,67791
//Storyboard Layer 0 (Background)
//Storyboard Layer 1 (Fail)
//Storyboard Layer 2 (Pass)
//Storyboard Layer 3 (Foreground)
//Storyboard Layer 4 (Overlay)
//Storyboard Sound Samples

[TimingPoints]
112,387.096774193548,4,1,0,100,1,0
112,-111.111111111111,4,1,0,100,0,0
257,-100,4,1,0,100,0,0
354,-111.111111111111,4,1,0,100,0,0
10950,-100,4,1,0,100,0,0
11047,-111.111111111111,4,1,0,100,0,0
12499,-111.111111111111,4,1,0,100,0,1
24886,-111.111111111111,4,1,0,100,0,0
24982,-111.111111111111,4,1,0,100,0,0
37273,-100,4,1,0,100,0,0
49853,-111.111111111111,4,1,0,100,0,0
62144,-111.111111111111,4,1,0,100,0,0
69741,-100,4,1,0,100,0,0
69837,-111.111111111111,4,1,0,100,0,0
72837,-100,4,1,0,100,0,0
72933,-111.111111111111,4,1,0,100,0,0
80628,-111.111111111111,4,1,0,100,0,1
104628,-111.111111111111,4,1,0,100,0,1
105402,-111.111111111111,4,1,0,100,0,1
116434,-111.111111111111,4,1,0,100,0,1
117789,-111.111111111111,4,1,0,100,0,0

[HitObjects]
213,149,112,5,4,0:0:0:0:
256,192,305,12,0,5918,0:0:0:0:
223,125,6305,5,0,0:0:0:0:
199,137,7079,1,0,0:0:0:0:
199,137,7853,1,0,0:0:0:0:
199,137,8628,1,0,0:0:0:0:
199,137,9402,1,0,0:0:0:0:
208,136,9789,1,0,0:0:0:0:
206,136,10176,1,0,0:0:0:0:
208,136,10563,1,0,0:0:0:0:
256,192,10950,12,0,12111,0:0:0:0:
189,55,12499,5,8,0:0:0:0:
179,92,12692,1,8,0:0:0:0:
202,99,13273,1,0,0:0:0:0:
202,99,13660,1,0,0:0:0:0:
202,99,14047,1,8,0:0:0:0:
206,58,14241,1,8,0:0:0:0:
202,99,14821,1,0,0:0:0:0:
202,99,15208,1,0,0:0:0:0:
202,99,15595,1,8,0:0:0:0:
202,99,15789,1,8,0:0:0:0:
202,99,16370,1,0,0:0:0:0:
202,99,16757,1,0,0:0:0:0:
166,95,17144,1,8,0:0:0:0:
166,95,17337,1,8,0:0:0:0:
166,95,17918,1,0,0:0:0:0:
174,106,18692,1,0,0:0:0:0:
174,106,18886,1,0,0:0:0:0:
174,106,19466,1,8,0:0:0:0:
174,106,19853,1,8,0:0:0:0:
174,106,20241,1,0,0:0:0:0:
174,106,20434,1,0,0:0:0:0:
174,106,21015,1,8,0:0:0:0:
174,106,21402,1,8,0:0:0:0:
174,106,21789,1,0,0:0:0:0:
174,106,21982,1,0,0:0:0:0:
174,106,22563,1,8,0:0:0:0:
174,106,22950,1,8,0:0:0:0:
174,106,23337,1,0,0:0:0:0:
174,106,23531,1,0,0:0:0:0:
174,106,24111,1,8,0:0:0:0:
174,106,24499,1,8,0:0:0:0:
174,106,24886,1,0,0:0:0:0:
195,127,26434,1,0,0:0:0:0:
202,174,27982,1,0,0:0:0:0:
192,168,29531,1,0,0:0:0:0:
192,168,31079,1,12,0:0:0:0:
192,168,31853,1,0,0:0:0:0:
192,168,32628,1,0,0:0:0:0:
192,155,33402,1,0,0:0:0:0:
185,157,34176,1,0,0:0:0:0:
185,157,34563,1,0,0:0:0:0:
185,157,34950,1,0,0:0:0:0:
185,157,35337,1,0,0:0:0:0:
185,157,35724,1,0,0:0:0:0:
185,157,36499,1,8,0:0:0:0:
185,157,37273,1,0,0:0:0:0:
165,146,37466,1,0,0:0:0:0:
159,92,38047,1,8,0:0:0:0:
159,92,38434,1,8,0:0:0:0:
159,92,38821,1,0,0:0:0:0:
159,92,39015,1,0,0:0:0:0:
159,92,39595,1,8,0:0:0:0:
159,92,39982,1,8,0:0:0:0:
159,92,40370,1,0,0:0:0:0:
159,92,40563,1,0,0:0:0:0:
159,92,40757,1,8,0:0:0:0:
159,92,41144,1,8,0:0:0:0:
159,92,41337,1,8,0:0:0:0:
159,92,41531,1,0,0:0:0:0:
159,92,41918,1,0,0:0:0:0:
159,92,42111,1,8,0:0:0:0:
159,92,42305,1,0,0:0:0:0:
159,92,42692,1,12,0:0:0:0:
192,79,42982,1,12,0:0:0:0:
191,79,43466,1,4,0:0:0:0:
179,98,44241,1,12,0:0:0:0:
179,98,44531,1,12,0:0:0:0:
179,98,45015,1,4,0:0:0:0:
199,109,45789,1,12,0:0:0:0:
199,109,46079,1,12,0:0:0:0:
199,109,46563,1,0,0:0:0:0:
168,67,48111,1,0,0:0:0:0:
168,101,48305,1,0,0:0:0:0:
162,76,48499,1,0,0:0:0:0:
171,53,48692,1,0,0:0:0:0:
162,76,48886,1,0,0:0:0:0:
162,76,49273,1,0,0:0:0:0:
162,76,49660,1,12,0:0:0:0:
189,187,55853,5,0,0:0:0:0:
189,187,56628,1,0,0:0:0:0:
174,184,57402,1,0,0:0:0:0:
174,184,58176,1,0,0:0:0:0:
174,184,58950,1,0,0:0:0:0:
174,184,59337,1,0,0:0:0:0:
174,184,59724,1,0,0:0:0:0:
174,184,60111,1,0,0:0:0:0:
174,184,60499,1,0,0:0:0:0:
174,184,60692,1,0,0:0:0:0:
174,184,60886,1,0,0:0:0:0:
174,184,61079,1,0,0:0:0:0:
174,184,61273,1,0,0:0:0:0:
174,184,61660,1,0,0:0:0:0:
174,184,62047,1,12,0:0:0:0:
191,159,68241,5,4,0:0:0:0:
174,166,69015,1,8,0:0:0:0:
256,192,69789,12,0,70950,0:0:0:0:
174,166,71337,5,4,0:0:0:0:
174,166,72111,1,8,0:0:0:0:
256,192,72886,12,0,74047,0:0:0:0:
181,112,74434,5,4,0:0:0:0:
153,144,74821,1,8,0:0:0:0:
176,149,75208,1,0,0:0:0:0:
174,151,75402,1,0,0:0:0:0:
175,149,75595,1,8,0:0:0:0:
176,149,75982,1,0,0:0:0:0:
175,149,76370,1,8,0:0:0:0:
166,147,76757,1,0,0:0:0:0:
165,147,76950,1,0,0:0:0:0:
165,149,77144,1,8,0:0:0:0:
166,147,77531,1,0,0:0:0:0:
159,133,78305,1,8,0:0:0:0:
159,133,79079,1,8,0:0:0:0:
173,59,79273,1,8,0:0:0:0:
192,100,79466,1,8,0:0:0:0:
173,59,79660,1,8,0:0:0:0:
192,100,79853,1,8,0:0:0:0:
192,100,80628,1,4,0:0:0:0:
156,76,81015,1,8,0:0:0:0:
209,93,81208,1,8,0:0:0:0:
156,76,81402,1,0,0:0:0:0:
156,76,81595,1,0,0:0:0:0:
156,76,81789,1,8,0:0:0:0:
156,76,82176,1,0,0:0:0:0:
197,64,82370,1,0,0:0:0:0:
156,76,82563,1,8,0:0:0:0:
156,76,82950,1,0,0:0:0:0:
167,84,83724,1,8,0:0:0:0:
167,84,84111,1,0,0:0:0:0:
220,68,84305,1,0,0:0:0:0:
167,84,84499,1,8,0:0:0:0:
167,84,84692,1,8,0:0:0:0:
167,84,84886,1,0,0:0:0:0:
167,84,85273,1,8,0:0:0:0:
167,84,85466,1,8,0:0:0:0:
167,84,85660,1,0,0:0:0:0:
167,84,86047,1,8,0:0:0:0:
176,65,86821,1,0,0:0:0:0:
167,78,87208,1,8,0:0:0:0:
195,31,87402,1,8,0:0:0:0:
165,82,87595,1,0,0:0:0:0:
165,82,87789,1,0,0:0:0:0:
167,78,87982,1,8,0:0:0:0:
165,82,88370,1,0,0:0:0:0:
165,82,88563,1,0,0:0:0:0:
165,82,88757,1,8,0:0:0:0:
172,55,89144,1,0,0:0:0:0:
165,85,89918,1,8,0:0:0:0:
165,85,90305,1,0,0:0:0:0:
190,62,90499,1,0,0:0:0:0:
165,85,90692,1,8,0:0:0:0:
165,85,90886,1,8,0:0:0:0:
165,85,91079,1,0,0:0:0:0:
165,85,91466,1,8,0:0:0:0:
165,85,91660,1,8,0:0:0:0:
165,85,91853,1,0,0:0:0:0:
165,85,92241,1,8,0:0:0:0:
149,62,93015,1,4,0:0:0:0:
143,99,93402,1,8,0:0:0:0:
196,29,93595,1,0,0:0:0:0:
143,99,93789,1,0,0:0:0:0:
189,40,93982,1,8,0:0:0:0:
143,99,94176,1,8,0:0:0:0:
143,99,94563,1,0,0:0:0:0:
143,99,94757,1,8,0:0:0:0:
143,99,94950,1,8,0:0:0:0:
143,99,95337,1,0,0:0:0:0:
143,99,96111,1,8,0:0:0:0:
195,73,96305,1,0,0:0:0:0:
202,37,96692,1,8,0:0:0:0:
143,99,96886,1,8,0:0:0:0:
143,99,97079,1,0,0:0:0:0:
143,99,97273,1,0,0:0:0:0:
143,99,97660,1,8,0:0:0:0:
143,99,97853,1,0,0:0:0:0:
143,99,98047,1,0,0:0:0:0:
143,99,98434,1,8,0:0:0:0:
143,99,99208,1,0,0:0:0:0:
143,99,99595,1,8,0:0:0:0:
210,50,99789,1,0,0:0:0:0:
143,99,99982,1,0,0:0:0:0:
143,99,100176,1,8,0:0:0:0:
143,99,100370,1,8,0:0:0:0:
143,99,100757,1,0,0:0:0:0:
143,99,100950,1,8,0:0:0:0:
143,99,101144,1,8,0:0:0:0:
143,99,101531,1,0,0:0:0:0:
143,99,102305,1,8,0:0:0:0:
143,99,102692,1,0,0:0:0:0:
219,58,102886,1,8,0:0:0:0:
143,99,103079,1,8,0:0:0:0:
143,99,103273,1,0,0:0:0:0:
143,99,103466,1,0,0:0:0:0:
143,99,103853,1,8,0:0:0:0:
143,99,104047,1,0,0:0:0:0:
143,99,104241,1,0,0:0:0:0:
143,99,104628,1,12,0:0:0:0:
174,92,104918,1,12,0:0:0:0:
176,86,105402,1,4,0:0:0:0:
164,91,106176,1,8,0:0:0:0:
164,91,106563,1,8,0:0:0:0:
164,91,106950,1,0,0:0:0:0:
164,91,107724,1,8,0:0:0:0:
164,91,108111,1,0,0:0:0:0:
164,91,108499,1,0,0:0:0:0:
164,91,109273,1,8,0:0:0:0:
164,91,109660,1,8,0:0:0:0:
164,91,110047,1,0,0:0:0:0:
164,91,110434,1,0,0:0:0:0:
164,91,110821,1,8,0:0:0:0:
170,108,111595,1,0,0:0:0:0:
170,108,112370,1,8,0:0:0:0:
170,108,112757,1,8,0:0:0:0:
170,108,113144,1,0,0:0:0:0:
188,113,113918,1,8,0:0:0:0:
188,113,114305,1,0,0:0:0:0:
188,113,114692,1,0,0:0:0:0:
188,113,115466,1,8,0:0:0:0:
171,177,116434,1,12,0:0:0:0:
171,177,117015,1,12,0:0:0:0:
171,177,117595,1,12,0:0:0:0:
212,59,117789,1,4,0:0:0:0:
