osu file format v14

[General]
AudioFilename: audio.mp3
AudioLeadIn: 0
PreviewTime: 45380
Countdown: 0
SampleSet: Normal
StackLeniency: 0.7
Mode: 1
LetterboxInBreaks: 0
WidescreenStoryboard: 0

[Editor]
Bookmarks: 4379,7808,11237,14665,18094,21522,24951,28380,31808,35237,38665,42094,45522,48951,52380,55808,59237,62665,66951,70380,73808,77237,80665,86665,87522,94380,97808,101237
DistanceSpacing: 1
BeatDivisor: 4
GridSize: 32
TimelineZoom: 2

[Metadata]
Title:Afterwars -Infection-
TitleUnicode:Afterwars -Infection-
Artist:Se-U-Ra
ArtistUnicode:Se-U-Ra
Creator:eiri-
Version:Futsuu
Source:osu!
Tags:Ayyri seura Featured Artist FA Instrumental Electronic せゆーら
BeatmapID:2727949
BeatmapSetID:1315809

[Difficulty]
HPDrainRate:7
CircleSize:2
OverallDifficulty:4
ApproachRate:10
SliderMultiplier:1.2
SliderTickRate:1

[Events]
//Background and Video events
0,0,"Afterwars.jpg",0,-115
//Break Periods
//Storyboard Layer 0 (Background)
//Storyboard Layer 1 (Fail)
//Storyboard Layer 2 (Pass)
//Storyboard Layer 3 (Foreground)
//Storyboard Layer 4 (Overlay)
//Storyboard Sound Samples

[TimingPoints]
4380,285.714285714286,3,1,0,75,1,0
80665,-100,3,1,0,80,0,1
86665,-100,3,1,0,90,0,0
87522,-100,3,1,0,100,0,1
94380,-100,3,1,0,80,0,0
97772,-100,3,1,0,75,0,0
98058,-100,3,1,0,70,0,0
98344,-100,3,1,0,65,0,0
98630,-100,3,1,0,60,0,0
98915,-100,3,1,0,55,0,0
99201,-100,3,1,0,50,0,0
99487,-100,3,1,0,45,0,0
99772,-100,3,1,0,40,0,0
100058,-100,3,1,0,35,0,0
100344,-100,3,1,0,30,0,0
100630,-100,3,1,0,25,0,0
100915,-100,3,1,0,20,0,0
101201,-100,3,1,0,15,0,0

[HitObjects]
256,192,4379,5,0,0:0:0:0:
256,192,4522,1,8,0:0:0:0:
256,192,5237,1,0,0:0:0:0:
256,192,5522,1,8,0:0:0:0:
256,192,5808,1,8,0:0:0:0:
256,192,6094,1,0,0:0:0:0:
256,192,6951,1,0,0:0:0:0:
256,192,7237,1,8,0:0:0:0:
256,192,7522,1,0,0:0:0:0:
256,192,7808,1,12,0:0:0:0:
256,192,8665,1,0,0:0:0:0:
256,192,8808,1,8,0:0:0:0:
256,192,8951,1,8,0:0:0:0:
256,192,9237,1,8,0:0:0:0:
256,192,9522,1,0,0:0:0:0:
256,192,10094,1,0,0:0:0:0:
256,192,10380,1,0,0:0:0:0:
256,192,11237,1,12,0:0:0:0:
256,192,11380,1,0,0:0:0:0:
256,192,11522,1,8,0:0:0:0:
256,192,11808,1,0,0:0:0:0:
256,192,12094,1,8,0:0:0:0:
256,192,12237,1,0,0:0:0:0:
256,192,12380,1,8,0:0:0:0:
256,192,12665,1,0,0:0:0:0:
256,192,12951,1,8,0:0:0:0:
256,192,13522,1,0,0:0:0:0:
256,192,13665,1,8,0:0:0:0:
256,192,13808,1,8,0:0:0:0:
256,192,14094,1,8,0:0:0:0:
256,192,14380,1,8,0:0:0:0:
256,192,14665,1,0,0:0:0:0:
256,192,15237,1,8,0:0:0:0:
256,192,15522,1,0,0:0:0:0:
256,192,16094,1,8,0:0:0:0:
256,192,16380,1,0,0:0:0:0:
256,192,16665,1,8,0:0:0:0:
256,192,16951,1,8,0:0:0:0:
256,192,17237,1,0,0:0:0:0:
256,192,18094,1,12,0:0:0:0:
256,192,18237,1,0,0:0:0:0:
256,192,18380,1,8,0:0:0:0:
256,192,18665,1,0,0:0:0:0:
256,192,18951,1,8,0:0:0:0:
256,192,19237,1,8,0:0:0:0:
256,192,19522,1,8,0:0:0:0:
256,192,19665,1,8,0:0:0:0:
256,192,19808,1,0,0:0:0:0:
256,192,20380,1,0,0:0:0:0:
256,192,20522,1,8,0:0:0:0:
256,192,20665,1,8,0:0:0:0:
256,192,20951,1,0,0:0:0:0:
256,192,21237,1,0,0:0:0:0:
256,192,21380,1,0,0:0:0:0:
256,192,21522,1,12,0:0:0:0:
256,192,22094,1,12,0:0:0:0:
256,192,22380,1,4,0:0:0:0:
256,192,22951,1,4,0:0:0:0:
256,192,23237,1,12,0:0:0:0:
256,192,23522,1,12,0:0:0:0:
256,192,23665,1,0,0:0:0:0:
256,192,23808,1,12,0:0:0:0:
256,192,24094,1,12,0:0:0:0:
256,192,24951,1,12,0:0:0:0:
256,192,25380,1,0,0:0:0:0:
256,192,25522,1,0,0:0:0:0:
256,192,25808,1,0,0:0:0:0:
256,192,26094,1,8,0:0:0:0:
256,192,26665,1,0,0:0:0:0:
256,192,26951,1,8,0:0:0:0:
256,192,27237,1,8,0:0:0:0:
256,192,27522,1,0,0:0:0:0:
256,192,28094,1,0,0:0:0:0:
256,192,28380,1,8,0:0:0:0:
256,192,28808,1,8,0:0:0:0:
256,192,29094,1,8,0:0:0:0:
256,192,29237,1,8,0:0:0:0:
256,192,29665,1,8,0:0:0:0:
256,192,29951,1,8,0:0:0:0:
256,192,30094,1,8,0:0:0:0:
256,192,30380,1,0,0:0:0:0:
256,192,30665,1,8,0:0:0:0:
256,192,30951,1,0,0:0:0:0:
256,192,31808,1,12,0:0:0:0:
256,192,32237,1,0,0:0:0:0:
256,192,32379,1,0,0:0:0:0:
256,192,32665,1,0,0:0:0:0:
256,192,32951,1,8,0:0:0:0:
256,192,33522,1,0,0:0:0:0:
256,192,33808,1,8,0:0:0:0:
256,192,34094,1,8,0:0:0:0:
256,192,34379,1,0,0:0:0:0:
256,192,35237,1,0,0:0:0:0:
256,192,35522,1,8,0:0:0:0:
256,192,35808,1,0,0:0:0:0:
256,192,35951,1,8,0:0:0:0:
256,192,36094,1,8,0:0:0:0:
256,192,36379,1,8,0:0:0:0:
256,192,36665,1,0,0:0:0:0:
256,192,36808,1,8,0:0:0:0:
256,192,36951,1,8,0:0:0:0:
256,192,37237,1,0,0:0:0:0:
256,192,37522,1,8,0:0:0:0:
256,192,37665,1,0,0:0:0:0:
256,192,37808,1,12,0:0:0:0:
256,192,38665,1,12,0:0:0:0:
256,192,39094,1,0,0:0:0:0:
256,192,39236,1,0,0:0:0:0:
256,192,39522,1,0,0:0:0:0:
256,192,39808,1,8,0:0:0:0:
256,192,40379,1,0,0:0:0:0:
256,192,40665,1,8,0:0:0:0:
256,192,40951,1,8,0:0:0:0:
256,192,41236,1,0,0:0:0:0:
256,192,41808,1,0,0:0:0:0:
256,192,41951,1,0,0:0:0:0:
256,192,42094,1,8,0:0:0:0:
256,192,42522,1,8,0:0:0:0:
256,192,42808,1,8,0:0:0:0:
256,192,42951,1,8,0:0:0:0:
256,192,43379,1,8,0:0:0:0:
256,192,43665,1,8,0:0:0:0:
256,192,43808,1,8,0:0:0:0:
256,192,44094,1,0,0:0:0:0:
256,192,44379,1,8,0:0:0:0:
256,192,44665,1,0,0:0:0:0:
256,192,45522,1,12,0:0:0:0:
256,192,45951,1,0,0:0:0:0:
256,192,46093,1,0,0:0:0:0:
256,192,46379,1,0,0:0:0:0:
256,192,46665,1,8,0:0:0:0:
256,192,47236,1,0,0:0:0:0:
256,192,47522,1,8,0:0:0:0:
256,192,47808,1,8,0:0:0:0:
256,192,48093,1,0,0:0:0:0:
256,192,48665,1,0,0:0:0:0:
256,192,48951,1,12,0:0:0:0:
256,192,49094,1,0,0:0:0:0:
256,192,49236,1,8,0:0:0:0:
256,192,49522,1,0,0:0:0:0:
256,192,49808,1,12,0:0:0:0:
256,192,49951,1,0,0:0:0:0:
256,192,50093,1,8,0:0:0:0:
256,192,50379,1,8,0:0:0:0:
256,192,50665,1,12,0:0:0:0:
256,192,50808,1,0,0:0:0:0:
256,192,50951,1,8,0:0:0:0:
256,192,51094,1,8,0:0:0:0:
256,192,51236,1,0,0:0:0:0:
256,192,51522,1,4,0:0:0:0:
256,192,52379,1,12,0:0:0:0:
256,192,52951,1,0,0:0:0:0:
256,192,53237,1,8,0:0:0:0:
256,192,53808,1,8,0:0:0:0:
256,192,54094,1,12,0:0:0:0:
256,192,54665,1,8,0:0:0:0:
256,192,54951,1,12,0:0:0:0:
256,192,55808,1,12,0:0:0:0:
256,192,56380,1,8,0:0:0:0:
256,192,56522,1,0,0:0:0:0:
256,192,56951,1,8,0:0:0:0:
256,192,57237,1,0,0:0:0:0:
256,192,57380,1,0,0:0:0:0:
256,192,57808,1,0,0:0:0:0:
256,192,58380,1,12,0:0:0:0:
256,192,58665,1,8,0:0:0:0:
256,192,58808,1,0,0:0:0:0:
256,192,58951,1,8,0:0:0:0:
256,192,59237,1,12,0:0:0:0:
256,192,59522,1,8,0:0:0:0:
256,192,59808,1,8,0:0:0:0:
256,192,59951,1,0,0:0:0:0:
256,192,60094,1,0,0:0:0:0:
256,192,60380,1,8,0:0:0:0:
256,192,60665,1,8,0:0:0:0:
256,192,60808,1,8,0:0:0:0:
256,192,60951,1,0,0:0:0:0:
256,192,61522,1,8,0:0:0:0:
256,192,61808,1,0,0:0:0:0:
256,192,61951,1,8,0:0:0:0:
256,192,62094,1,0,0:0:0:0:
256,192,62380,1,8,0:0:0:0:
256,192,62665,1,12,0:0:0:0:
256,192,63237,1,8,0:0:0:0:
256,192,63380,1,8,0:0:0:0:
256,192,63522,1,0,0:0:0:0:
256,192,63808,1,8,0:0:0:0:
256,192,63951,1,8,0:0:0:0:
256,192,64094,1,8,0:0:0:0:
256,192,64380,1,8,0:0:0:0:
256,192,64665,1,8,0:0:0:0:
256,192,64951,1,0,0:0:0:0:
256,192,65094,1,0,0:0:0:0:
256,192,65237,1,12,0:0:0:0:
256,192,65522,1,12,0:0:0:0:
256,192,65808,1,12,0:0:0:0:
256,192,66094,1,4,0:0:0:0:
256,192,66951,1,12,0:0:0:0:
256,192,67094,1,8,0:0:0:0:
256,192,67237,1,0,0:0:0:0:
256,192,67522,1,0,0:0:0:0:
256,192,67808,1,8,0:0:0:0:
256,192,68380,1,0,0:0:0:0:
256,192,68665,1,8,0:0:0:0:
256,192,68808,1,8,0:0:0:0:
256,192,68951,1,0,0:0:0:0:
256,192,69237,1,0,0:0:0:0:
256,192,69522,1,8,0:0:0:0:
256,192,69665,1,8,0:0:0:0:
256,192,69808,1,8,0:0:0:0:
256,192,70094,1,0,0:0:0:0:
256,192,70380,1,8,0:0:0:0:
256,192,70665,1,0,0:0:0:0:
256,192,70951,1,8,0:0:0:0:
256,192,71237,1,0,0:0:0:0:
256,192,71808,1,0,0:0:0:0:
256,192,72094,1,8,0:0:0:0:
256,192,72380,1,0,0:0:0:0:
256,192,72522,1,0,0:0:0:0:
256,192,72665,1,8,0:0:0:0:
256,192,72951,1,0,0:0:0:0:
256,192,73808,1,12,0:0:0:0:
256,192,73951,1,8,0:0:0:0:
256,192,74094,1,0,0:0:0:0:
256,192,74379,1,0,0:0:0:0:
256,192,74665,1,8,0:0:0:0:
256,192,75237,1,0,0:0:0:0:
256,192,75522,1,8,0:0:0:0:
256,192,75665,1,8,0:0:0:0:
256,192,75808,1,0,0:0:0:0:
256,192,76094,1,0,0:0:0:0:
256,192,76379,1,8,0:0:0:0:
256,192,76522,1,8,0:0:0:0:
256,192,76665,1,8,0:0:0:0:
256,192,77237,1,8,0:0:0:0:
256,192,77522,1,8,0:0:0:0:
256,192,77808,1,0,0:0:0:0:
256,192,78094,1,8,0:0:0:0:
256,192,78237,1,8,0:0:0:0:
256,192,78380,1,0,0:0:0:0:
256,192,78665,1,0,0:0:0:0:
256,192,78951,1,8,0:0:0:0:
256,192,79237,1,8,0:0:0:0:
256,192,79379,1,0,0:0:0:0:
256,192,79522,1,8,0:0:0:0:
256,192,79808,1,0,0:0:0:0:
256,192,80665,1,12,0:0:0:0:
256,192,80951,1,8,0:0:0:0:
256,192,81094,1,4,0:0:0:0:
256,192,81380,1,0,0:0:0:0:
256,192,81522,1,4,0:0:0:0:
256,192,81808,1,0,0:0:0:0:
256,192,81951,1,12,0:0:0:0:
256,192,82237,1,8,0:0:0:0:
256,192,82380,1,4,0:0:0:0:
256,192,82665,1,0,0:0:0:0:
256,192,82808,1,12,0:0:0:0:
256,192,83094,1,8,0:0:0:0:
256,192,83237,1,4,0:0:0:0:
256,192,83522,1,0,0:0:0:0:
256,192,84094,1,12,0:0:0:0:
256,192,84380,1,8,0:0:0:0:
256,192,84522,1,4,0:0:0:0:
256,192,84808,1,0,0:0:0:0:
256,192,84951,1,12,0:0:0:0:
256,192,85237,1,8,0:0:0:0:
256,192,85380,1,4,0:0:0:0:
256,192,85665,1,0,0:0:0:0:
256,192,85808,1,12,0:0:0:0:
256,192,86380,1,8,0:0:0:0:
256,192,86665,1,0,0:0:0:0:
256,192,86808,1,0,0:0:0:0:
256,192,86951,1,0,0:0:0:0:
256,192,87237,1,0,0:0:0:0:
256,192,87380,1,0,0:0:0:0:
256,192,87522,1,12,0:0:0:0:
256,192,87808,1,12,0:0:0:0:
256,192,87951,1,4,0:0:0:0:
256,192,88094,1,4,0:0:0:0:
256,192,88380,1,12,0:0:0:0:
256,192,88665,1,12,0:0:0:0:
256,192,88808,1,4,0:0:0:0:
256,192,88951,1,4,0:0:0:0:
256,192,89237,1,12,0:0:0:0:
256,192,89808,1,8,0:0:0:0:
256,192,90094,1,0,0:0:0:0:
256,192,90380,1,0,0:0:0:0:
256,192,90522,1,0,0:0:0:0:
256,192,90665,1,8,0:0:0:0:
256,192,90951,1,12,0:0:0:0:
256,192,91094,1,0,0:0:0:0:
256,192,91380,1,0,0:0:0:0:
256,192,91522,1,8,0:0:0:0:
256,192,91808,1,12,0:0:0:0:
256,192,91951,1,0,0:0:0:0:
256,192,92094,1,0,0:0:0:0:
256,192,92237,1,8,0:0:0:0:
256,192,92522,1,0,0:0:0:0:
256,192,92665,1,12,0:0:0:0:
256,192,92951,1,0,0:0:0:0:
256,192,93237,1,0,0:0:0:0:
256,192,93380,1,0,0:0:0:0:
256,192,93522,1,12,0:0:0:0:
256,192,93808,1,12,0:0:0:0:
256,192,94094,1,12,0:0:0:0:
256,192,94380,1,4,0:0:0:0:
256,192,94951,1,0,0:0:0:0:
256,192,95237,1,8,0:0:0:0:
256,192,95380,1,8,0:0:0:0:
256,192,95522,1,0,0:0:0:0:
256,192,95808,1,8,0:0:0:0:
256,192,96094,1,0,0:0:0:0:
256,192,96665,1,0,0:0:0:0:
256,192,96951,1,8,0:0:0:0:
256,192,97094,1,0,0:0:0:0:
256,192,97237,1,8,0:0:0:0:
256,192,97522,1,0,0:0:0:0:
256,192,97808,1,0,0:0:0:0:
256,192,97951,8,0,101237,0:0:0:0:
