osu file format v14

[General]
AudioFilename: Kaede.mp3
AudioLeadIn: 0
PreviewTime: 125098
Countdown: 0
SampleSet: Normal
StackLeniency: 0.7
Mode: 1
LetterboxInBreaks: 0
WidescreenStoryboard: 0

[Editor]
Bookmarks: 28597,58361,237657,275157,305157,320157
DistanceSpacing: 0.6
BeatDivisor: 4
GridSize: 32
TimelineZoom: 2.583135

[Metadata]
Title:Kaede
TitleUnicode:Kaede
Artist:Scythe-Dee
ArtistUnicode:Scythe-Dee
Creator:Fleure De Lapin
Version:Distorted
Source:
Tags:djent instrumental progressive metalcore electronic battle girl high school sendoin sadone franklin_dejavu fdjv
BeatmapID:2114485
BeatmapSetID:1010109

[Difficulty]
HPDrainRate:5.5
CircleSize:5.2
OverallDifficulty:5
ApproachRate:9.8
SliderMultiplier:1.4
SliderTickRate:1

[Events]
//Background and Video events
0,0,"Latar belakkang.jpg",0,0
//Break Periods
2,309108,317813
//Storyboard Layer 0 (Background)
//Storyboard Layer 1 (Fail)
//Storyboard Layer 2 (Pass)
//Storyboard Layer 3 (Foreground)
//Storyboard Layer 4 (Overlay)
//Storyboard Sound Samples

[TimingPoints]
472,468.75,4,1,0,80,1,0
28597,-106.382978723404,4,1,0,80,0,0
36097,468.75,4,1,0,80,1,8
36097,-106.382978723404,4,1,0,80,0,8
36331,468.75,4,1,0,80,1,0
36331,-106.382978723404,4,1,0,80,0,0
43831,468.75,4,1,0,80,1,8
43831,-106.382978723404,4,1,0,80,0,8
44065,468.75,4,1,0,80,1,0
44065,-106.382978723404,4,1,0,80,0,0
44416,-103.092783505155,4,1,0,80,0,0
49690,468.75,4,1,0,80,1,8
49690,-103.092783505155,4,1,0,80,0,8
50393,468.75,4,1,0,80,1,0
50393,-103.092783505155,4,1,0,80,0,0
57658,468.75,4,1,0,80,1,0
57658,-103.092783505155,4,1,0,80,0,8
58361,-97.0873786407767,4,1,0,86,0,1
72658,-97.0873786407767,4,1,0,86,0,0
72892,-108.695652173913,4,1,0,60,0,0
80158,-100,4,1,0,80,0,0
110158,-97.0873786407767,4,1,0,80,0,0
125158,-93.4579439252336,4,1,0,86,0,1
140158,-93.4579439252336,4,1,0,86,0,0
147658,-93.4579439252336,4,1,0,86,0,1
155158,-93.4579439252336,4,1,0,86,0,0
162658,-93.4579439252336,4,1,0,80,0,0
163361,-106.382978723404,4,1,0,80,0,0
170158,-100,4,1,0,80,0,0
181759,-97.0873786407767,4,1,0,80,0,0
238361,-106.382978723404,4,1,0,80,0,0
305275,-106.382978723404,4,1,0,60,0,0
307033,-106.382978723404,4,1,0,50,0,0
308908,-100,4,1,0,50,0,0
320158,-100,4,1,0,80,0,0
338908,-97.0873786407767,4,1,0,80,0,0
374533,468.75,4,1,0,80,1,8
374533,-97.0873786407767,4,1,0,80,0,8
375470,468.75,4,1,0,86,1,0
375470,-97.0873786407767,4,1,0,86,0,0
376173,-97.0873786407767,4,1,0,86,0,1
405470,468.75,4,1,0,80,1,9
405470,-97.0873786407767,4,1,0,80,0,9
406405,468.75,4,1,0,80,1,0
406405,-97.0873786407767,4,1,0,80,0,8
415545,-97.0873786407767,4,1,0,60,0,8
417655,-97.0873786407767,4,1,0,80,0,8
419061,468.75,4,1,0,80,1,0
419061,-97.0873786407767,4,1,0,60,0,8
422342,-97.0873786407767,4,1,0,50,0,8
424217,-97.0873786407767,4,1,0,40,0,8
426561,-97.0873786407767,4,1,0,30,0,8

[HitObjects]
128,288,28597,5,4,0:0:0:0:
128,96,28948,1,0,0:0:0:0:
384,96,29300,1,8,0:0:0:0:
384,96,29534,1,8,0:0:0:0:
128,96,29768,1,0,0:0:0:0:
384,96,30003,1,8,0:0:0:0:
128,96,30354,1,0,0:0:0:0:
128,96,30589,1,0,0:0:0:0:
128,96,30706,1,0,0:0:0:0:
384,96,30823,1,8,0:0:0:0:
384,96,30940,1,8,0:0:0:0:
128,96,31175,1,0,0:0:0:0:
384,96,31409,1,8,0:0:0:0:
128,288,31526,1,4,0:0:0:0:
128,96,31878,1,0,0:0:0:0:
128,96,31995,1,0,0:0:0:0:
128,96,32347,1,0,0:0:0:0:
384,96,32581,1,8,0:0:0:0:
384,96,32815,1,8,0:0:0:0:
128,96,32932,1,0,0:0:0:0:
384,96,33284,1,8,0:0:0:0:
384,96,33401,1,8,0:0:0:0:
128,96,33518,1,0,0:0:0:0:
128,96,33870,1,0,0:0:0:0:
384,96,34222,1,8,0:0:0:0:
128,96,34690,1,0,0:0:0:0:
384,96,35042,1,8,0:0:0:0:
384,96,35276,1,8,0:0:0:0:
128,96,35393,1,0,0:0:0:0:
384,96,35628,1,8,0:0:0:0:
128,96,35862,1,0,0:0:0:0:
128,96,35979,1,0,0:0:0:0:
384,96,36097,1,8,0:0:0:0:
128,288,36331,1,4,0:0:0:0:
128,96,36682,1,0,0:0:0:0:
384,96,37034,1,8,0:0:0:0:
128,96,37268,1,0,0:0:0:0:
384,96,37385,1,8,0:0:0:0:
384,96,37737,1,8,0:0:0:0:
128,96,38088,1,0,0:0:0:0:
128,96,38323,1,0,0:0:0:0:
128,96,38440,1,0,0:0:0:0:
384,96,38557,1,8,0:0:0:0:
384,96,38674,1,8,0:0:0:0:
128,96,38909,1,0,0:0:0:0:
384,96,39143,1,8,0:0:0:0:
128,96,39260,1,0,0:0:0:0:
128,96,39612,1,0,0:0:0:0:
128,96,39729,1,0,0:0:0:0:
128,96,40081,1,0,0:0:0:0:
384,96,40315,1,8,0:0:0:0:
384,96,40549,1,8,0:0:0:0:
128,96,40666,1,0,0:0:0:0:
128,96,41018,1,0,0:0:0:0:
384,96,41135,1,8,0:0:0:0:
128,96,41252,1,0,0:0:0:0:
128,96,41604,1,0,0:0:0:0:
384,96,41956,1,8,0:0:0:0:
384,96,42424,1,8,0:0:0:0:
384,96,42541,1,8,0:0:0:0:
128,96,42659,1,0,0:0:0:0:
128,96,43010,1,0,0:0:0:0:
384,96,43362,1,8,0:0:0:0:
384,96,43479,1,8,0:0:0:0:
128,96,43596,1,0,0:0:0:0:
128,96,43713,1,0,0:0:0:0:
384,96,43831,1,8,0:0:0:0:
384,96,43948,1,8,0:0:0:0:
128,288,44065,1,4,0:0:0:0:
128,96,44416,1,0,0:0:0:0:
384,96,44533,1,8,0:0:0:0:
128,96,44650,1,0,0:0:0:0:
128,96,44768,1,0,0:0:0:0:
384,96,44885,1,8,0:0:0:0:
128,96,45119,1,0,0:0:0:0:
128,96,45236,1,0,0:0:0:0:
384,96,45354,1,8,0:0:0:0:
384,96,45471,1,8,0:0:0:0:
128,96,45588,1,0,0:0:0:0:
128,96,45940,1,0,0:0:0:0:
128,96,46057,1,0,0:0:0:0:
384,96,46408,1,8,0:0:0:0:
128,96,46525,1,0,0:0:0:0:
384,96,46643,1,8,0:0:0:0:
384,96,46877,1,8,0:0:0:0:
128,96,46994,1,0,0:0:0:0:
128,96,47346,1,0,0:0:0:0:
384,96,47463,1,8,0:0:0:0:
128,96,47580,1,0,0:0:0:0:
384,96,47815,1,8,0:0:0:0:
128,96,47932,1,0,0:0:0:0:
384,96,48283,1,8,0:0:0:0:
128,96,48752,1,0,0:0:0:0:
384,96,49104,1,8,0:0:0:0:
384,96,49338,1,8,0:0:0:0:
128,96,49455,1,0,0:0:0:0:
384,288,49690,1,12,0:0:0:0:
128,96,49924,1,0,0:0:0:0:
128,96,50041,1,0,0:0:0:0:
384,96,50158,1,8,0:0:0:0:
384,96,50275,1,8,0:0:0:0:
128,288,50393,1,4,0:0:0:0:
128,96,50744,1,0,0:0:0:0:
384,96,51096,1,8,0:0:0:0:
128,96,51213,1,0,0:0:0:0:
384,96,51447,1,8,0:0:0:0:
128,96,51799,1,0,0:0:0:0:
128,96,52150,1,0,0:0:0:0:
384,96,52385,1,8,0:0:0:0:
128,96,52502,1,0,0:0:0:0:
384,96,52619,1,8,0:0:0:0:
384,96,52971,1,8,0:0:0:0:
128,96,53205,1,0,0:0:0:0:
128,96,53322,1,0,0:0:0:0:
384,96,53674,1,8,0:0:0:0:
128,96,53791,1,0,0:0:0:0:
128,96,54143,1,0,0:0:0:0:
384,96,54377,1,8,0:0:0:0:
384,96,54611,1,8,0:0:0:0:
128,96,54729,1,0,0:0:0:0:
128,96,55080,1,0,0:0:0:0:
384,96,55197,1,8,0:0:0:0:
128,96,55315,1,0,0:0:0:0:
128,96,55432,1,0,0:0:0:0:
128,96,55549,1,0,0:0:0:0:
384,96,55666,1,8,0:0:0:0:
384,96,55783,1,8,0:0:0:0:
128,96,55861,1,0,0:0:0:0:
128,96,55940,1,0,0:0:0:0:
384,96,56018,1,8,0:0:0:0:
128,96,56486,1,0,0:0:0:0:
384,96,56721,1,8,0:0:0:0:
384,96,56955,1,8,0:0:0:0:
384,96,57190,1,8,0:0:0:0:
128,96,57424,1,0,0:0:0:0:
128,288,58361,1,4,0:0:0:0:
384,288,58712,1,12,0:0:0:0:
128,96,59065,1,0,0:0:0:0:
128,96,59299,1,0,0:0:0:0:
384,96,59533,1,8,0:0:0:0:
128,96,59767,1,0,0:0:0:0:
128,96,60001,1,0,0:0:0:0:
128,96,60118,1,0,0:0:0:0:
128,96,60236,1,0,0:0:0:0:
128,96,60353,1,0,0:0:0:0:
384,96,60470,1,8,0:0:0:0:
128,96,60704,1,0,0:0:0:0:
128,96,60822,1,0,0:0:0:0:
384,96,60939,1,8,0:0:0:0:
128,96,61173,1,0,0:0:0:0:
384,288,61408,1,12,0:0:0:0:
384,288,61759,1,12,0:0:0:0:
128,288,62111,1,4,0:0:0:0:
384,288,62462,1,12,0:0:0:0:
128,96,62814,1,0,0:0:0:0:
128,96,63048,1,0,0:0:0:0:
128,96,63165,1,0,0:0:0:0:
384,96,63283,1,8,0:0:0:0:
384,96,63517,1,8,0:0:0:0:
384,96,63634,1,8,0:0:0:0:
128,96,63751,1,0,0:0:0:0:
384,96,63986,1,8,0:0:0:0:
128,96,64220,1,0,0:0:0:0:
384,96,64454,1,8,0:0:0:0:
384,96,64572,1,8,0:0:0:0:
128,96,64689,1,0,0:0:0:0:
128,96,64923,1,0,0:0:0:0:
384,288,65158,1,12,0:0:0:0:
384,288,65509,1,12,0:0:0:0:
128,288,65861,1,4,0:0:0:0:
384,288,66212,1,12,0:0:0:0:
128,96,66564,1,0,0:0:0:0:
128,96,66798,1,0,0:0:0:0:
384,96,67033,1,8,0:0:0:0:
384,96,67267,1,8,0:0:0:0:
128,96,67501,1,0,0:0:0:0:
128,96,67618,1,0,0:0:0:0:
128,96,67736,1,0,0:0:0:0:
128,96,67853,1,0,0:0:0:0:
384,96,67970,1,8,0:0:0:0:
128,96,68204,1,0,0:0:0:0:
128,96,68322,1,0,0:0:0:0:
384,96,68439,1,8,0:0:0:0:
128,96,68673,1,0,0:0:0:0:
384,288,68908,1,12,0:0:0:0:
384,288,69258,1,12,0:0:0:0:
128,288,69610,1,4,0:0:0:0:
384,288,69961,1,12,0:0:0:0:
128,96,70314,1,0,0:0:0:0:
128,96,70548,1,0,0:0:0:0:
384,96,70783,1,8,0:0:0:0:
128,96,71017,1,0,0:0:0:0:
384,96,71134,1,8,0:0:0:0:
128,96,71251,1,0,0:0:0:0:
384,96,71486,1,8,0:0:0:0:
384,96,71720,1,8,0:0:0:0:
128,96,71954,1,0,0:0:0:0:
384,288,72189,1,12,0:0:0:0:
128,96,72423,1,0,0:0:0:0:
384,288,72658,1,12,0:0:0:0:
384,96,74767,1,8,0:0:0:0:
384,96,76408,1,8,0:0:0:0:
384,96,78517,1,8,0:0:0:0:
384,96,80158,1,8,0:0:0:0:
128,96,80509,1,0,0:0:0:0:
384,96,80626,1,8,0:0:0:0:
384,96,80861,1,8,0:0:0:0:
128,96,80978,1,0,0:0:0:0:
128,96,81212,1,0,0:0:0:0:
384,96,81329,1,8,0:0:0:0:
384,96,81564,1,8,0:0:0:0:
128,96,81681,1,0,0:0:0:0:
128,96,81915,1,0,0:0:0:0:
384,96,82033,1,8,0:0:0:0:
384,96,82150,1,8,0:0:0:0:
128,96,82267,1,0,0:0:0:0:
384,96,82501,1,8,0:0:0:0:
384,96,82736,1,8,0:0:0:0:
128,96,82853,1,0,0:0:0:0:
384,96,82970,1,8,0:0:0:0:
384,96,83087,1,8,0:0:0:0:
128,96,83204,1,0,0:0:0:0:
384,96,83439,1,8,0:0:0:0:
384,96,83556,1,8,0:0:0:0:
128,96,83673,1,0,0:0:0:0:
128,96,83790,1,0,0:0:0:0:
384,96,83908,1,8,0:0:0:0:
128,96,84259,1,0,0:0:0:0:
384,96,84376,1,8,0:0:0:0:
128,96,84611,1,0,0:0:0:0:
384,96,84728,1,8,0:0:0:0:
384,96,84962,1,8,0:0:0:0:
128,96,85079,1,0,0:0:0:0:
384,96,85314,1,8,0:0:0:0:
128,96,85431,1,0,0:0:0:0:
128,96,85665,1,0,0:0:0:0:
384,96,85783,1,8,0:0:0:0:
384,96,85900,1,8,0:0:0:0:
128,96,86017,1,0,0:0:0:0:
384,96,86251,1,8,0:0:0:0:
384,96,86486,1,8,0:0:0:0:
128,96,86603,1,0,0:0:0:0:
384,96,86837,1,8,0:0:0:0:
128,96,86954,1,0,0:0:0:0:
384,96,87189,1,8,0:0:0:0:
128,96,87306,1,0,0:0:0:0:
128,96,87423,1,0,0:0:0:0:
128,96,87540,1,0,0:0:0:0:
384,96,87658,1,8,0:0:0:0:
128,96,88009,1,0,0:0:0:0:
384,96,88126,1,8,0:0:0:0:
384,96,88361,1,8,0:0:0:0:
128,96,88478,1,0,0:0:0:0:
128,96,88712,1,0,0:0:0:0:
384,96,88829,1,8,0:0:0:0:
384,96,89064,1,8,0:0:0:0:
128,96,89181,1,0,0:0:0:0:
128,96,89415,1,0,0:0:0:0:
384,96,89533,1,8,0:0:0:0:
384,96,89650,1,8,0:0:0:0:
128,96,89767,1,0,0:0:0:0:
384,96,90001,1,8,0:0:0:0:
384,96,90236,1,8,0:0:0:0:
128,96,90353,1,0,0:0:0:0:
384,96,90587,1,8,0:0:0:0:
128,96,90704,1,0,0:0:0:0:
384,96,90939,1,8,0:0:0:0:
384,96,91056,1,8,0:0:0:0:
128,96,91173,1,0,0:0:0:0:
128,96,91290,1,0,0:0:0:0:
384,96,91408,1,8,0:0:0:0:
128,96,91759,1,0,0:0:0:0:
384,96,91876,1,8,0:0:0:0:
128,96,92111,1,0,0:0:0:0:
384,96,92228,1,8,0:0:0:0:
384,96,92462,1,8,0:0:0:0:
128,96,92579,1,0,0:0:0:0:
384,96,92814,1,8,0:0:0:0:
128,96,92931,1,0,0:0:0:0:
128,96,93165,1,0,0:0:0:0:
384,96,93283,1,8,0:0:0:0:
384,96,93400,1,8,0:0:0:0:
128,96,93517,1,0,0:0:0:0:
384,96,93751,1,8,0:0:0:0:
384,96,93986,1,8,0:0:0:0:
128,96,94103,1,0,0:0:0:0:
384,96,94220,1,8,0:0:0:0:
384,96,94337,1,8,0:0:0:0:
128,96,94454,1,0,0:0:0:0:
384,96,94689,1,8,0:0:0:0:
128,96,94806,1,0,0:0:0:0:
128,96,94923,1,0,0:0:0:0:
128,96,95040,1,0,0:0:0:0:
384,96,95158,1,8,0:0:0:0:
384,96,95626,1,8,0:0:0:0:
384,96,95861,1,8,0:0:0:0:
128,96,95978,1,0,0:0:0:0:
384,96,96212,1,8,0:0:0:0:
128,96,96329,1,0,0:0:0:0:
128,96,96564,1,0,0:0:0:0:
128,96,96681,1,0,0:0:0:0:
384,96,96915,1,8,0:0:0:0:
128,96,97267,1,0,0:0:0:0:
384,96,97501,1,8,0:0:0:0:
128,96,97736,1,0,0:0:0:0:
128,96,97853,1,0,0:0:0:0:
384,96,98087,1,8,0:0:0:0:
128,96,98204,1,0,0:0:0:0:
128,96,98322,1,0,0:0:0:0:
384,96,98439,1,8,0:0:0:0:
384,96,98556,1,8,0:0:0:0:
128,96,98673,1,0,0:0:0:0:
128,96,98790,1,0,0:0:0:0:
384,96,98908,1,8,0:0:0:0:
384,96,99142,1,8,0:0:0:0:
128,96,99259,1,0,0:0:0:0:
384,96,99376,1,8,0:0:0:0:
128,96,99611,1,0,0:0:0:0:
128,96,99728,1,0,0:0:0:0:
384,96,99962,1,8,0:0:0:0:
128,96,100079,1,0,0:0:0:0:
384,96,100314,1,8,0:0:0:0:
128,96,100431,1,0,0:0:0:0:
384,96,100548,1,8,0:0:0:0:
384,96,100665,1,8,0:0:0:0:
128,96,100783,1,0,0:0:0:0:
128,96,101017,1,0,0:0:0:0:
128,96,101134,1,0,0:0:0:0:
384,96,101251,1,8,0:0:0:0:
128,96,101486,1,0,0:0:0:0:
128,96,101603,1,0,0:0:0:0:
384,96,101837,1,8,0:0:0:0:
128,96,101954,1,0,0:0:0:0:
384,96,102189,1,8,0:0:0:0:
128,96,102540,1,0,0:0:0:0:
384,96,102658,1,8,0:0:0:0:
128,96,102892,1,0,0:0:0:0:
384,96,103126,1,8,0:0:0:0:
128,96,103243,1,0,0:0:0:0:
384,96,103478,1,8,0:0:0:0:
384,96,103712,1,8,0:0:0:0:
128,96,103829,1,0,0:0:0:0:
384,96,104064,1,8,0:0:0:0:
128,96,104298,1,0,0:0:0:0:
128,96,104415,1,0,0:0:0:0:
384,96,104533,1,8,0:0:0:0:
128,96,104767,1,0,0:0:0:0:
384,96,105001,1,8,0:0:0:0:
128,96,105236,1,0,0:0:0:0:
128,96,105353,1,0,0:0:0:0:
384,96,105587,1,8,0:0:0:0:
128,96,105704,1,0,0:0:0:0:
384,96,105939,1,8,0:0:0:0:
128,96,106056,1,0,0:0:0:0:
128,96,106173,1,0,0:0:0:0:
128,96,106290,1,0,0:0:0:0:
384,96,106408,1,8,0:0:0:0:
128,96,106759,1,0,0:0:0:0:
384,96,106876,1,8,0:0:0:0:
384,96,107111,1,8,0:0:0:0:
128,96,107228,1,0,0:0:0:0:
384,96,107462,1,8,0:0:0:0:
128,96,107579,1,0,0:0:0:0:
384,96,107814,1,8,0:0:0:0:
128,96,108165,1,0,0:0:0:0:
384,96,108283,1,8,0:0:0:0:
128,96,108517,1,0,0:0:0:0:
128,96,108634,1,0,0:0:0:0:
384,96,108751,1,8,0:0:0:0:
384,96,108986,1,8,0:0:0:0:
128,96,109103,1,0,0:0:0:0:
128,96,109337,1,0,0:0:0:0:
128,96,109454,1,0,0:0:0:0:
384,96,109689,1,8,0:0:0:0:
128,96,109806,1,0,0:0:0:0:
128,96,109923,1,0,0:0:0:0:
384,96,110158,1,8,0:0:0:0:
128,96,110275,1,0,0:0:0:0:
384,96,110392,1,8,0:0:0:0:
128,96,110509,1,0,0:0:0:0:
384,96,110626,1,8,0:0:0:0:
384,96,110743,1,8,0:0:0:0:
128,96,110861,1,0,0:0:0:0:
128,96,110978,1,0,0:0:0:0:
384,96,111095,1,8,0:0:0:0:
128,96,111329,1,0,0:0:0:0:
128,96,111447,1,0,0:0:0:0:
384,96,111564,1,8,0:0:0:0:
128,96,111681,1,0,0:0:0:0:
384,96,111798,1,8,0:0:0:0:
128,96,112033,1,0,0:0:0:0:
384,96,112150,1,8,0:0:0:0:
384,96,112267,1,8,0:0:0:0:
128,96,112384,1,0,0:0:0:0:
384,96,112501,1,8,0:0:0:0:
384,96,112618,1,8,0:0:0:0:
128,96,112736,1,0,0:0:0:0:
128,96,112853,1,0,0:0:0:0:
384,96,112970,1,8,0:0:0:0:
128,96,113204,1,0,0:0:0:0:
128,96,113322,1,0,0:0:0:0:
384,96,113439,1,8,0:0:0:0:
128,96,113556,1,0,0:0:0:0:
384,96,113673,1,8,0:0:0:0:
128,288,113908,1,4,0:0:0:0:
128,96,114376,1,0,0:0:0:0:
128,96,114845,1,0,0:0:0:0:
128,96,114962,1,0,0:0:0:0:
384,96,115079,1,8,0:0:0:0:
128,96,115314,1,0,0:0:0:0:
384,96,115431,1,8,0:0:0:0:
128,96,115548,1,0,0:0:0:0:
128,96,115665,1,0,0:0:0:0:
384,96,115783,1,8,0:0:0:0:
384,96,115900,1,8,0:0:0:0:
128,96,116017,1,0,0:0:0:0:
384,96,116251,1,8,0:0:0:0:
128,96,116368,1,0,0:0:0:0:
128,96,116603,1,0,0:0:0:0:
128,96,116661,1,0,0:0:0:0:
384,96,116720,1,8,0:0:0:0:
384,96,116837,1,8,0:0:0:0:
128,96,116954,1,0,0:0:0:0:
384,96,117072,1,8,0:0:0:0:
384,96,117189,1,8,0:0:0:0:
128,96,117306,1,0,0:0:0:0:
128,96,117423,1,0,0:0:0:0:
128,96,117540,1,0,0:0:0:0:
384,288,117658,1,12,0:0:0:0:
384,96,118009,1,8,0:0:0:0:
128,96,118126,1,0,0:0:0:0:
384,288,118361,1,12,0:0:0:0:
128,96,118712,1,0,0:0:0:0:
128,96,118829,1,0,0:0:0:0:
384,288,119064,1,12,0:0:0:0:
128,288,119298,1,4,0:0:0:0:
128,96,119767,1,0,0:0:0:0:
128,96,119884,1,0,0:0:0:0:
384,96,120001,1,8,0:0:0:0:
128,96,120118,1,0,0:0:0:0:
128,96,120236,1,0,0:0:0:0:
128,96,120353,1,0,0:0:0:0:
384,96,120470,1,8,0:0:0:0:
128,96,120587,1,0,0:0:0:0:
128,96,120704,1,0,0:0:0:0:
128,96,120822,1,0,0:0:0:0:
128,96,120880,1,0,0:0:0:0:
384,96,120939,1,8,0:0:0:0:
384,96,121056,1,8,0:0:0:0:
384,96,121173,1,0,0:0:0:0:
128,96,121290,1,0,0:0:0:0:
384,288,121408,1,12,0:0:0:0:
128,96,121642,1,0,0:0:0:0:
128,96,121876,1,0,0:0:0:0:
384,96,122111,1,8,0:0:0:0:
128,96,122345,1,0,0:0:0:0:
384,96,122579,1,8,0:0:0:0:
128,96,122814,1,0,0:0:0:0:
384,96,123048,1,8,0:0:0:0:
384,96,123283,1,8,0:0:0:0:
384,96,123517,1,8,0:0:0:0:
128,96,123751,1,0,0:0:0:0:
128,96,123986,1,0,0:0:0:0:
384,96,124220,1,8,0:0:0:0:
128,96,124454,1,0,0:0:0:0:
128,96,124572,1,0,0:0:0:0:
384,96,124689,1,8,0:0:0:0:
128,96,124923,1,0,0:0:0:0:
384,288,125158,1,12,0:0:0:0:
128,96,125392,1,0,0:0:0:0:
384,96,125626,1,8,0:0:0:0:
384,96,125743,1,8,0:0:0:0:
128,96,125861,1,0,0:0:0:0:
384,96,126095,1,8,0:0:0:0:
128,96,126212,1,0,0:0:0:0:
128,96,126329,1,0,0:0:0:0:
384,96,126447,1,8,0:0:0:0:
128,96,126564,1,0,0:0:0:0:
384,96,126798,1,8,0:0:0:0:
384,96,126916,1,8,0:0:0:0:
128,96,127033,1,0,0:0:0:0:
384,96,127150,1,8,0:0:0:0:
128,96,127267,1,0,0:0:0:0:
128,96,127501,1,0,0:0:0:0:
384,288,127736,1,12,0:0:0:0:
384,96,128087,1,8,0:0:0:0:
128,96,128204,1,0,0:0:0:0:
384,96,128439,1,8,0:0:0:0:
128,96,128673,1,0,0:0:0:0:
384,288,128908,1,12,0:0:0:0:
128,96,129142,1,0,0:0:0:0:
384,96,129376,1,8,0:0:0:0:
384,96,129493,1,8,0:0:0:0:
128,96,129611,1,0,0:0:0:0:
384,96,129845,1,8,0:0:0:0:
128,96,129962,1,0,0:0:0:0:
128,96,130197,1,0,0:0:0:0:
384,96,130314,1,8,0:0:0:0:
128,288,130548,1,4,0:0:0:0:
384,96,130783,1,8,0:0:0:0:
384,96,130900,1,8,0:0:0:0:
128,96,131017,1,0,0:0:0:0:
128,96,131134,1,0,0:0:0:0:
384,96,131251,1,8,0:0:0:0:
128,96,131368,1,0,0:0:0:0:
384,288,131486,1,12,0:0:0:0:
128,96,131719,1,0,0:0:0:0:
384,96,131836,1,8,0:0:0:0:
384,96,131953,1,8,0:0:0:0:
128,96,132071,1,0,0:0:0:0:
384,96,132188,1,8,0:0:0:0:
384,96,132305,1,8,0:0:0:0:
128,96,132422,1,0,0:0:0:0:
128,96,132539,1,0,0:0:0:0:
384,288,132657,1,12,0:0:0:0:
128,96,132891,1,0,0:0:0:0:
384,96,133125,1,8,0:0:0:0:
384,96,133242,1,8,0:0:0:0:
128,96,133361,1,0,0:0:0:0:
384,96,133594,1,8,0:0:0:0:
128,96,133711,1,0,0:0:0:0:
128,96,133829,1,0,0:0:0:0:
384,96,133946,1,8,0:0:0:0:
128,96,134064,1,0,0:0:0:0:
384,96,134298,1,8,0:0:0:0:
128,96,134415,1,0,0:0:0:0:
128,96,134533,1,0,0:0:0:0:
384,96,134650,1,8,0:0:0:0:
384,96,134767,1,8,0:0:0:0:
128,96,135001,1,0,0:0:0:0:
384,96,135236,1,8,0:0:0:0:
384,96,135587,1,8,0:0:0:0:
128,96,135704,1,0,0:0:0:0:
128,96,135939,1,0,0:0:0:0:
384,96,136173,1,8,0:0:0:0:
384,288,136408,1,12,0:0:0:0:
128,96,136642,1,0,0:0:0:0:
384,96,136876,1,8,0:0:0:0:
384,96,136993,1,8,0:0:0:0:
128,96,137111,1,0,0:0:0:0:
384,96,137345,1,8,0:0:0:0:
128,96,137462,1,0,0:0:0:0:
128,96,137697,1,0,0:0:0:0:
384,96,137814,1,8,0:0:0:0:
128,96,138048,1,0,0:0:0:0:
384,288,138283,1,12,0:0:0:0:
128,96,138517,1,0,0:0:0:0:
384,96,138634,1,8,0:0:0:0:
128,96,138751,1,0,0:0:0:0:
384,96,138868,1,8,0:0:0:0:
384,96,138986,1,8,0:0:0:0:
384,96,139044,1,8,0:0:0:0:
128,96,139103,1,0,0:0:0:0:
128,96,139220,1,0,0:0:0:0:
384,96,139337,1,8,0:0:0:0:
128,96,139454,1,0,0:0:0:0:
128,96,139533,1,0,0:0:0:0:
128,96,139611,1,0,0:0:0:0:
384,96,139689,1,8,0:0:0:0:
384,96,139806,1,8,0:0:0:0:
384,96,139923,1,8,0:0:0:0:
384,96,140040,1,8,0:0:0:0:
128,288,140158,1,4,0:0:0:0:
384,96,140626,1,8,0:0:0:0:
128,96,140743,1,0,0:0:0:0:
128,96,140861,1,0,0:0:0:0:
128,96,140978,1,0,0:0:0:0:
384,96,141095,1,8,0:0:0:0:
128,96,141329,1,0,0:0:0:0:
384,96,141447,1,8,0:0:0:0:
128,96,141564,1,0,0:0:0:0:
128,96,141681,1,0,0:0:0:0:
384,96,141798,1,8,0:0:0:0:
128,96,142033,1,0,0:0:0:0:
384,96,142150,1,8,0:0:0:0:
128,96,142267,1,0,0:0:0:0:
384,96,142384,1,8,0:0:0:0:
128,96,142501,1,0,0:0:0:0:
128,96,142618,1,0,0:0:0:0:
384,96,142736,1,8,0:0:0:0:
384,96,143087,1,8,0:0:0:0:
128,96,143204,1,0,0:0:0:0:
384,96,143439,1,8,0:0:0:0:
128,96,143556,1,0,0:0:0:0:
384,96,143673,1,8,0:0:0:0:
384,96,143790,1,8,0:0:0:0:
128,96,143908,1,0,0:0:0:0:
128,96,144142,1,0,0:0:0:0:
128,96,144376,1,0,0:0:0:0:
384,96,144493,1,8,0:0:0:0:
128,96,144728,1,0,0:0:0:0:
384,96,144845,1,8,0:0:0:0:
128,96,145079,1,0,0:0:0:0:
128,96,145314,1,0,0:0:0:0:
384,96,145548,1,8,0:0:0:0:
128,96,145783,1,0,0:0:0:0:
384,96,145900,1,8,0:0:0:0:
128,96,146134,1,0,0:0:0:0:
384,96,146251,1,8,0:0:0:0:
384,96,146486,1,8,0:0:0:0:
128,96,146720,1,0,0:0:0:0:
384,96,146837,1,8,0:0:0:0:
128,96,146954,1,0,0:0:0:0:
128,96,147072,1,0,0:0:0:0:
384,96,147189,1,8,0:0:0:0:
384,96,147423,1,8,0:0:0:0:
128,96,147540,1,0,0:0:0:0:
384,96,147658,1,8,0:0:0:0:
128,96,147775,1,0,0:0:0:0:
128,96,147892,1,0,0:0:0:0:
128,96,148009,1,0,0:0:0:0:
384,96,148126,1,8,0:0:0:0:
384,96,148243,1,8,0:0:0:0:
128,96,148361,1,0,0:0:0:0:
384,96,148595,1,8,0:0:0:0:
384,96,148712,1,8,0:0:0:0:
128,96,148829,1,0,0:0:0:0:
128,96,148947,1,0,0:0:0:0:
384,96,149064,1,8,0:0:0:0:
384,96,149298,1,8,0:0:0:0:
128,96,149415,1,0,0:0:0:0:
384,96,149533,1,8,0:0:0:0:
384,96,149650,1,8,0:0:0:0:
128,96,149767,1,0,0:0:0:0:
384,96,150001,1,8,0:0:0:0:
384,96,150236,1,8,0:0:0:0:
384,96,150587,1,8,0:0:0:0:
128,96,150704,1,0,0:0:0:0:
384,96,150939,1,8,0:0:0:0:
384,96,151173,1,8,0:0:0:0:
128,96,151408,1,0,0:0:0:0:
128,96,151525,1,0,0:0:0:0:
128,96,151642,1,0,0:0:0:0:
128,96,151759,1,0,0:0:0:0:
384,96,151876,1,8,0:0:0:0:
128,96,152111,1,0,0:0:0:0:
128,96,152228,1,0,0:0:0:0:
384,96,152345,1,8,0:0:0:0:
128,96,152462,1,0,0:0:0:0:
128,96,152579,1,0,0:0:0:0:
128,96,152638,1,0,0:0:0:0:
384,96,152697,1,8,0:0:0:0:
128,96,152814,1,0,0:0:0:0:
384,96,153048,1,8,0:0:0:0:
384,288,153283,1,12,0:0:0:0:
128,96,153517,1,0,0:0:0:0:
128,96,153634,1,0,0:0:0:0:
384,96,153751,1,8,0:0:0:0:
128,96,153868,1,0,0:0:0:0:
384,96,153986,1,8,0:0:0:0:
384,96,154044,1,8,0:0:0:0:
128,96,154103,1,0,0:0:0:0:
128,96,154220,1,0,0:0:0:0:
384,96,154337,1,8,0:0:0:0:
128,96,154454,1,0,0:0:0:0:
128,96,154533,1,0,0:0:0:0:
128,96,154611,1,0,0:0:0:0:
384,96,154689,1,8,0:0:0:0:
384,96,154806,1,8,0:0:0:0:
384,96,154923,1,8,0:0:0:0:
384,96,155040,1,8,0:0:0:0:
128,96,155158,1,0,0:0:0:0:
384,96,155275,1,8,0:0:0:0:
128,96,155392,1,0,0:0:0:0:
128,96,155509,1,0,0:0:0:0:
384,96,155626,1,8,0:0:0:0:
384,96,155743,1,8,0:0:0:0:
128,96,155861,1,0,0:0:0:0:
384,96,155978,1,0,0:0:0:0:
384,96,156095,1,8,0:0:0:0:
128,96,156329,1,0,0:0:0:0:
128,96,156447,1,0,0:0:0:0:
384,96,156564,1,8,0:0:0:0:
128,96,156681,1,0,0:0:0:0:
384,96,156798,1,8,0:0:0:0:
128,96,157033,1,0,0:0:0:0:
384,96,157150,1,8,0:0:0:0:
128,96,157267,1,0,0:0:0:0:
128,96,157384,1,0,0:0:0:0:
384,96,157501,1,8,0:0:0:0:
384,96,157618,1,8,0:0:0:0:
128,96,157736,1,0,0:0:0:0:
128,96,157853,1,0,0:0:0:0:
384,96,157970,1,8,0:0:0:0:
128,96,158204,1,0,0:0:0:0:
128,96,158322,1,0,0:0:0:0:
384,96,158439,1,8,0:0:0:0:
128,96,158556,1,0,0:0:0:0:
384,96,158673,1,8,0:0:0:0:
128,288,158908,1,4,0:0:0:0:
384,96,159376,1,8,0:0:0:0:
384,96,159845,1,8,0:0:0:0:
128,96,159962,1,0,0:0:0:0:
384,96,160079,1,8,0:0:0:0:
384,96,160314,1,8,0:0:0:0:
384,96,160431,1,8,0:0:0:0:
128,96,160548,1,0,0:0:0:0:
128,96,160665,1,0,0:0:0:0:
384,96,160783,1,8,0:0:0:0:
384,96,160900,1,8,0:0:0:0:
128,96,161017,1,0,0:0:0:0:
128,96,161251,1,0,0:0:0:0:
384,96,161368,1,8,0:0:0:0:
128,96,161486,1,0,0:0:0:0:
128,96,161603,1,0,0:0:0:0:
128,96,161661,1,0,0:0:0:0:
384,96,161720,1,8,0:0:0:0:
384,96,161837,1,8,0:0:0:0:
128,96,161954,1,0,0:0:0:0:
128,96,162072,1,0,0:0:0:0:
384,96,162189,1,8,0:0:0:0:
384,96,162306,1,8,0:0:0:0:
384,96,162423,1,8,0:0:0:0:
384,96,162540,1,8,0:0:0:0:
128,96,162658,1,0,0:0:0:0:
384,96,163361,1,8,0:0:0:0:
128,96,164064,1,0,0:0:0:0:
384,96,164767,1,8,0:0:0:0:
128,96,165001,1,0,0:0:0:0:
384,96,165470,1,8,0:0:0:0:
384,96,165939,1,8,0:0:0:0:
128,96,166408,1,0,0:0:0:0:
384,96,167111,1,8,0:0:0:0:
384,96,167814,1,8,0:0:0:0:
128,96,168517,1,0,0:0:0:0:
384,96,168751,1,8,0:0:0:0:
384,96,169220,1,8,0:0:0:0:
128,288,170158,1,4,0:0:0:0:
128,288,170392,1,4,0:0:0:0:
384,96,170626,1,8,0:0:0:0:
128,96,171095,1,0,0:0:0:0:
384,96,171329,1,8,0:0:0:0:
384,96,171447,1,8,0:0:0:0:
384,96,171564,1,8,0:0:0:0:
384,96,171915,1,8,0:0:0:0:
384,96,172267,1,8,0:0:0:0:
128,96,172501,1,0,0:0:0:0:
128,288,172736,1,4,0:0:0:0:
128,288,172970,1,4,0:0:0:0:
384,96,173439,1,8,0:0:0:0:
384,96,173517,1,8,0:0:0:0:
384,96,173595,1,8,0:0:0:0:
128,96,173673,1,0,0:0:0:0:
384,96,173908,1,8,0:0:0:0:
128,96,174142,1,0,0:0:0:0:
128,96,174220,1,0,0:0:0:0:
128,96,174298,1,0,0:0:0:0:
384,96,174376,1,8,0:0:0:0:
128,288,174845,1,4,0:0:0:0:
384,96,175079,1,8,0:0:0:0:
128,288,175314,1,4,0:0:0:0:
128,288,175783,1,4,0:0:0:0:
128,288,176017,1,4,0:0:0:0:
384,96,176251,1,8,0:0:0:0:
384,96,176368,1,8,0:0:0:0:
128,96,176486,1,0,0:0:0:0:
384,96,176720,1,8,0:0:0:0:
384,96,176954,1,8,0:0:0:0:
384,96,177072,1,8,0:0:0:0:
384,96,177189,1,8,0:0:0:0:
128,96,177423,1,0,0:0:0:0:
128,96,177540,1,0,0:0:0:0:
384,96,177658,1,8,0:0:0:0:
384,288,177892,1,12,0:0:0:0:
384,288,178361,1,12,0:0:0:0:
128,288,178595,1,4,0:0:0:0:
128,96,178829,1,0,0:0:0:0:
384,96,179064,1,8,0:0:0:0:
384,96,179142,1,8,0:0:0:0:
384,96,179220,1,8,0:0:0:0:
128,96,179298,1,0,0:0:0:0:
128,96,179533,1,0,0:0:0:0:
128,96,179767,1,0,0:0:0:0:
128,96,179845,1,0,0:0:0:0:
128,96,179923,1,0,0:0:0:0:
384,96,180001,1,8,0:0:0:0:
128,96,180236,1,0,0:0:0:0:
128,288,180470,1,4,0:0:0:0:
384,96,180704,1,8,0:0:0:0:
128,288,180939,1,4,0:0:0:0:
128,96,181173,1,0,0:0:0:0:
384,96,181408,1,8,0:0:0:0:
384,288,181759,1,12,0:0:0:0:
128,96,182111,1,0,0:0:0:0:
128,96,182345,1,0,0:0:0:0:
384,96,182462,1,8,0:0:0:0:
384,288,182814,1,12,0:0:0:0:
128,96,183048,1,0,0:0:0:0:
128,96,183283,1,0,0:0:0:0:
384,96,183400,1,8,0:0:0:0:
384,288,183751,1,12,0:0:0:0:
128,96,183986,1,0,0:0:0:0:
384,96,184220,1,8,0:0:0:0:
384,96,184337,1,8,0:0:0:0:
128,96,184454,1,0,0:0:0:0:
128,96,184572,1,0,0:0:0:0:
384,288,184689,1,12,0:0:0:0:
384,96,184923,1,8,0:0:0:0:
128,96,185275,1,0,0:0:0:0:
384,288,185626,1,12,0:0:0:0:
128,96,185861,1,0,0:0:0:0:
128,96,186095,1,0,0:0:0:0:
384,96,186212,1,8,0:0:0:0:
384,288,186564,1,12,0:0:0:0:
128,96,186798,1,0,0:0:0:0:
384,96,187033,1,8,0:0:0:0:
384,96,187150,1,8,0:0:0:0:
128,96,187267,1,0,0:0:0:0:
128,96,187384,1,0,0:0:0:0:
384,288,187501,1,12,0:0:0:0:
128,96,187736,1,0,0:0:0:0:
128,96,187970,1,0,0:0:0:0:
128,96,188087,1,0,0:0:0:0:
384,288,188439,1,12,0:0:0:0:
128,96,188673,1,0,0:0:0:0:
384,96,188908,1,8,0:0:0:0:
384,96,189025,1,8,0:0:0:0:
384,288,189376,1,12,0:0:0:0:
128,96,189611,1,0,0:0:0:0:
384,96,189845,1,8,0:0:0:0:
384,96,190079,1,8,0:0:0:0:
128,96,190197,1,0,0:0:0:0:
384,288,190314,1,12,0:0:0:0:
384,96,190548,1,8,0:0:0:0:
128,96,190900,1,0,0:0:0:0:
384,288,191251,1,12,0:0:0:0:
384,96,191486,1,8,0:0:0:0:
128,96,191720,1,0,0:0:0:0:
384,96,191837,1,8,0:0:0:0:
384,288,192189,1,12,0:0:0:0:
128,96,192423,1,0,0:0:0:0:
384,96,192658,1,8,0:0:0:0:
384,96,192736,1,8,0:0:0:0:
384,96,192814,1,8,0:0:0:0:
128,96,192892,1,0,0:0:0:0:
384,288,193009,1,12,0:0:0:0:
384,96,193361,1,8,0:0:0:0:
128,96,193595,1,0,0:0:0:0:
384,96,193712,1,8,0:0:0:0:
384,96,194064,1,8,0:0:0:0:
384,96,194298,1,8,0:0:0:0:
128,96,194533,1,0,0:0:0:0:
384,96,194650,1,8,0:0:0:0:
384,96,195001,1,8,0:0:0:0:
128,96,195236,1,0,0:0:0:0:
384,96,195470,1,8,0:0:0:0:
384,96,195587,1,8,0:0:0:0:
384,96,195704,1,8,0:0:0:0:
384,96,195822,1,8,0:0:0:0:
128,96,195939,1,0,0:0:0:0:
384,96,196173,1,8,0:0:0:0:
128,96,196408,1,0,0:0:0:0:
384,96,196525,1,8,0:0:0:0:
128,96,196759,1,0,0:0:0:0:
384,96,196876,1,8,0:0:0:0:
384,96,196993,1,8,0:0:0:0:
128,96,197111,1,0,0:0:0:0:
384,96,197345,1,8,0:0:0:0:
128,96,197462,1,0,0:0:0:0:
384,96,197697,1,8,0:0:0:0:
384,96,197814,1,8,0:0:0:0:
128,96,198048,1,0,0:0:0:0:
384,96,198283,1,8,0:0:0:0:
128,96,198517,1,0,0:0:0:0:
128,96,198634,1,0,0:0:0:0:
384,96,198751,1,8,0:0:0:0:
128,96,198986,1,0,0:0:0:0:
384,96,199220,1,8,0:0:0:0:
128,96,199337,1,0,0:0:0:0:
384,96,199689,1,8,0:0:0:0:
128,96,199923,1,0,0:0:0:0:
128,96,200040,1,0,0:0:0:0:
384,96,200158,1,8,0:0:0:0:
128,96,200275,1,0,0:0:0:0:
384,96,200626,1,8,0:0:0:0:
128,96,200861,1,0,0:0:0:0:
128,96,200978,1,0,0:0:0:0:
384,96,201095,1,8,0:0:0:0:
384,96,201329,1,8,0:0:0:0:
128,96,201447,1,0,0:0:0:0:
384,96,201564,1,8,0:0:0:0:
384,96,201798,1,8,0:0:0:0:
128,96,202033,1,0,0:0:0:0:
384,96,202150,1,8,0:0:0:0:
384,96,202501,1,8,0:0:0:0:
128,96,202736,1,0,0:0:0:0:
128,96,202853,1,0,0:0:0:0:
384,96,202970,1,8,0:0:0:0:
128,96,203087,1,0,0:0:0:0:
128,96,203322,1,0,0:0:0:0:
384,96,203439,1,8,0:0:0:0:
384,96,203556,1,8,0:0:0:0:
128,96,203673,1,0,0:0:0:0:
384,288,203908,1,12,0:0:0:0:
384,96,204142,1,8,0:0:0:0:
128,96,204259,1,0,0:0:0:0:
384,96,204611,1,8,0:0:0:0:
384,96,204845,1,8,0:0:0:0:
128,96,205079,1,0,0:0:0:0:
384,96,205197,1,8,0:0:0:0:
128,96,205314,1,0,0:0:0:0:
128,96,205548,1,0,0:0:0:0:
128,96,205665,1,0,0:0:0:0:
128,96,205900,1,0,0:0:0:0:
128,96,206017,1,0,0:0:0:0:
384,96,206134,1,8,0:0:0:0:
384,96,206251,1,8,0:0:0:0:
128,96,206486,1,0,0:0:0:0:
128,96,206603,1,0,0:0:0:0:
384,96,206720,1,8,0:0:0:0:
128,96,206837,1,0,0:0:0:0:
384,96,207189,1,8,0:0:0:0:
128,96,207306,1,0,0:0:0:0:
384,96,207423,1,8,0:0:0:0:
384,96,207540,1,8,0:0:0:0:
128,96,207658,1,0,0:0:0:0:
128,96,207892,1,0,0:0:0:0:
384,96,208126,1,8,0:0:0:0:
128,96,208243,1,0,0:0:0:0:
384,96,208595,1,8,0:0:0:0:
128,96,208712,1,0,0:0:0:0:
384,96,208829,1,8,0:0:0:0:
128,96,209064,1,0,0:0:0:0:
384,96,209181,1,8,0:0:0:0:
384,96,209533,1,8,0:0:0:0:
128,96,209767,1,0,0:0:0:0:
384,96,210001,1,8,0:0:0:0:
128,96,210353,1,0,0:0:0:0:
128,96,210587,1,0,0:0:0:0:
128,96,210704,1,0,0:0:0:0:
384,96,210939,1,8,0:0:0:0:
128,96,211173,1,0,0:0:0:0:
128,96,211290,1,0,0:0:0:0:
384,96,211408,1,8,0:0:0:0:
384,288,211642,1,12,0:0:0:0:
384,96,211876,1,8,0:0:0:0:
128,96,211993,1,0,0:0:0:0:
128,96,212228,1,0,0:0:0:0:
384,96,212345,1,8,0:0:0:0:
384,96,212579,1,8,0:0:0:0:
128,96,212697,1,0,0:0:0:0:
384,96,213048,1,8,0:0:0:0:
128,96,213400,1,0,0:0:0:0:
384,96,213634,1,8,0:0:0:0:
128,96,213751,1,0,0:0:0:0:
128,96,213868,1,0,0:0:0:0:
384,96,213986,1,8,0:0:0:0:
128,96,214220,1,0,0:0:0:0:
384,96,214454,1,8,0:0:0:0:
128,96,214572,1,0,0:0:0:0:
128,96,214923,1,0,0:0:0:0:
128,96,215040,1,0,0:0:0:0:
384,96,215392,1,8,0:0:0:0:
384,96,215626,1,8,0:0:0:0:
128,96,215861,1,0,0:0:0:0:
384,96,215978,1,8,0:0:0:0:
384,96,216329,1,8,0:0:0:0:
384,96,216447,1,8,0:0:0:0:
128,96,216564,1,0,0:0:0:0:
128,96,216798,1,0,0:0:0:0:
384,96,216915,1,8,0:0:0:0:
128,96,217150,1,0,0:0:0:0:
384,96,217267,1,8,0:0:0:0:
128,96,217736,1,0,0:0:0:0:
128,96,217853,1,0,0:0:0:0:
384,96,217970,1,8,0:0:0:0:
384,96,218322,1,8,0:0:0:0:
384,96,218673,1,8,0:0:0:0:
384,96,218790,1,8,0:0:0:0:
128,96,218908,1,0,0:0:0:0:
128,96,219025,1,0,0:0:0:0:
384,96,219142,1,8,0:0:0:0:
384,96,219259,1,8,0:0:0:0:
128,288,219376,1,4,0:0:0:0:
128,96,219728,1,0,0:0:0:0:
128,96,219962,1,0,0:0:0:0:
128,96,220079,1,0,0:0:0:0:
384,96,220197,1,8,0:0:0:0:
384,96,220314,1,8,0:0:0:0:
128,96,220548,1,0,0:0:0:0:
384,96,220783,1,8,0:0:0:0:
128,96,220900,1,0,0:0:0:0:
384,96,221251,1,8,0:0:0:0:
384,96,221368,1,8,0:0:0:0:
128,96,221720,1,0,0:0:0:0:
384,96,221837,1,8,0:0:0:0:
384,96,221954,1,8,0:0:0:0:
128,96,222189,1,0,0:0:0:0:
384,96,222306,1,8,0:0:0:0:
384,96,222658,1,8,0:0:0:0:
384,96,222775,1,8,0:0:0:0:
128,96,222892,1,0,0:0:0:0:
384,96,223126,1,8,0:0:0:0:
128,96,223243,1,0,0:0:0:0:
384,96,223595,1,8,0:0:0:0:
128,96,223829,1,0,0:0:0:0:
384,96,224064,1,8,0:0:0:0:
128,96,224298,1,0,0:0:0:0:
384,96,224415,1,8,0:0:0:0:
128,96,224533,1,0,0:0:0:0:
128,96,224650,1,0,0:0:0:0:
384,96,224767,1,8,0:0:0:0:
384,96,225001,1,8,0:0:0:0:
128,96,225236,1,0,0:0:0:0:
128,96,225353,1,0,0:0:0:0:
384,96,225470,1,8,0:0:0:0:
384,96,225587,1,8,0:0:0:0:
384,96,225939,1,8,0:0:0:0:
128,96,226056,1,0,0:0:0:0:
128,96,226408,1,0,0:0:0:0:
384,96,226525,1,8,0:0:0:0:
384,96,226642,1,8,0:0:0:0:
128,96,226759,1,0,0:0:0:0:
384,96,226876,1,8,0:0:0:0:
128,96,227111,1,0,0:0:0:0:
128,96,227462,1,0,0:0:0:0:
128,96,227579,1,0,0:0:0:0:
384,96,227697,1,8,0:0:0:0:
128,96,227814,1,0,0:0:0:0:
384,96,227931,1,8,0:0:0:0:
384,96,228283,1,8,0:0:0:0:
384,96,228517,1,8,0:0:0:0:
128,96,228634,1,0,0:0:0:0:
128,96,228986,1,0,0:0:0:0:
128,96,229103,1,0,0:0:0:0:
384,96,229454,1,8,0:0:0:0:
384,96,229689,1,8,0:0:0:0:
384,96,229923,1,8,0:0:0:0:
128,96,230040,1,0,0:0:0:0:
384,96,230392,1,8,0:0:0:0:
384,96,230509,1,8,0:0:0:0:
128,96,230626,1,0,0:0:0:0:
128,96,230743,1,0,0:0:0:0:
128,96,230861,1,0,0:0:0:0:
384,96,230978,1,8,0:0:0:0:
128,96,231095,1,0,0:0:0:0:
128,96,231173,1,0,0:0:0:0:
128,96,231251,1,0,0:0:0:0:
384,96,231329,1,8,0:0:0:0:
128,96,231798,1,0,0:0:0:0:
128,96,232033,1,0,0:0:0:0:
384,96,232150,1,8,0:0:0:0:
384,96,232267,1,8,0:0:0:0:
384,96,232384,1,8,0:0:0:0:
128,96,232736,1,0,0:0:0:0:
128,96,233087,1,0,0:0:0:0:
384,96,233204,1,8,0:0:0:0:
384,96,233322,1,8,0:0:0:0:
384,96,233439,1,8,0:0:0:0:
128,96,233556,1,0,0:0:0:0:
384,96,233673,1,8,0:0:0:0:
128,96,233908,1,0,0:0:0:0:
384,96,234142,1,8,0:0:0:0:
128,96,234259,1,0,0:0:0:0:
128,96,234611,1,0,0:0:0:0:
128,96,234728,1,0,0:0:0:0:
128,96,235079,1,0,0:0:0:0:
384,96,235314,1,8,0:0:0:0:
384,96,235548,1,8,0:0:0:0:
128,96,235665,1,0,0:0:0:0:
128,96,236017,1,0,0:0:0:0:
128,96,236134,1,0,0:0:0:0:
384,96,236251,1,8,0:0:0:0:
384,96,236368,1,8,0:0:0:0:
128,96,236486,1,0,0:0:0:0:
384,96,236603,1,8,0:0:0:0:
128,96,236720,1,0,0:0:0:0:
128,96,236798,1,0,0:0:0:0:
128,96,236876,1,0,0:0:0:0:
384,96,236954,1,8,0:0:0:0:
128,96,237423,1,0,0:0:0:0:
384,96,237658,1,8,0:0:0:0:
384,96,238361,1,8,0:0:0:0:
128,96,239064,1,0,0:0:0:0:
384,96,239767,1,8,0:0:0:0:
128,96,240001,1,0,0:0:0:0:
384,96,240470,1,8,0:0:0:0:
384,96,240939,1,8,0:0:0:0:
128,96,241408,1,0,0:0:0:0:
384,96,242111,1,8,0:0:0:0:
384,96,242814,1,8,0:0:0:0:
128,96,243517,1,0,0:0:0:0:
384,96,243751,1,8,0:0:0:0:
128,96,243986,1,0,0:0:0:0:
384,96,244103,1,8,0:0:0:0:
384,96,244220,1,8,0:0:0:0:
128,96,244337,1,0,0:0:0:0:
128,96,244454,1,0,0:0:0:0:
128,96,244572,1,0,0:0:0:0:
128,96,244630,1,0,0:0:0:0:
384,96,244689,1,8,0:0:0:0:
128,96,244806,1,0,0:0:0:0:
128,96,244923,1,0,0:0:0:0:
128,96,245040,1,0,0:0:0:0:
384,96,245158,1,8,0:0:0:0:
128,96,245392,1,0,0:0:0:0:
128,96,245861,1,0,0:0:0:0:
384,96,246095,1,8,0:0:0:0:
128,96,246564,1,0,0:0:0:0:
128,96,246798,1,0,0:0:0:0:
384,96,247033,1,8,0:0:0:0:
384,96,247501,1,8,0:0:0:0:
128,96,247736,1,0,0:0:0:0:
384,96,247970,1,8,0:0:0:0:
128,96,248204,1,0,0:0:0:0:
128,96,248439,1,0,0:0:0:0:
128,96,248673,1,0,0:0:0:0:
384,96,248908,1,8,0:0:0:0:
128,96,249376,1,0,0:0:0:0:
128,96,249611,1,0,0:0:0:0:
384,96,249845,1,8,0:0:0:0:
128,96,250079,1,0,0:0:0:0:
384,96,250314,1,8,0:0:0:0:
128,96,250783,1,0,0:0:0:0:
128,96,251017,1,0,0:0:0:0:
128,96,251486,1,0,0:0:0:0:
384,96,251720,1,8,0:0:0:0:
128,96,251954,1,0,0:0:0:0:
128,96,252189,1,0,0:0:0:0:
384,96,252658,1,8,0:0:0:0:
128,96,252892,1,0,0:0:0:0:
128,96,253361,1,0,0:0:0:0:
384,96,253595,1,8,0:0:0:0:
128,96,254064,1,0,0:0:0:0:
128,96,254298,1,0,0:0:0:0:
384,96,254533,1,8,0:0:0:0:
384,96,255001,1,8,0:0:0:0:
128,96,255236,1,0,0:0:0:0:
384,96,255470,1,8,0:0:0:0:
128,96,255704,1,0,0:0:0:0:
128,96,255939,1,0,0:0:0:0:
128,96,256173,1,0,0:0:0:0:
384,96,256408,1,8,0:0:0:0:
128,96,256876,1,0,0:0:0:0:
128,96,257111,1,0,0:0:0:0:
384,96,257345,1,8,0:0:0:0:
128,96,257579,1,0,0:0:0:0:
384,96,257814,1,8,0:0:0:0:
128,96,258283,1,0,0:0:0:0:
128,96,258517,1,0,0:0:0:0:
128,96,258986,1,0,0:0:0:0:
384,96,259220,1,8,0:0:0:0:
128,96,259454,1,0,0:0:0:0:
384,96,259689,1,8,0:0:0:0:
128,96,259806,1,0,0:0:0:0:
128,96,259923,1,0,0:0:0:0:
128,96,260040,1,0,0:0:0:0:
384,96,260158,1,8,0:0:0:0:
128,96,260392,1,0,0:0:0:0:
128,96,260861,1,0,0:0:0:0:
384,96,261095,1,8,0:0:0:0:
384,96,261564,1,8,0:0:0:0:
128,96,261798,1,0,0:0:0:0:
384,96,262501,1,8,0:0:0:0:
128,96,262736,1,0,0:0:0:0:
384,96,262970,1,8,0:0:0:0:
128,96,263204,1,0,0:0:0:0:
128,96,263439,1,0,0:0:0:0:
128,96,263673,1,0,0:0:0:0:
384,96,263908,1,8,0:0:0:0:
128,96,264376,1,0,0:0:0:0:
128,96,264611,1,0,0:0:0:0:
384,96,264845,1,8,0:0:0:0:
128,96,265079,1,0,0:0:0:0:
384,96,265314,1,8,0:0:0:0:
128,96,265783,1,0,0:0:0:0:
128,96,266017,1,0,0:0:0:0:
128,96,266486,1,0,0:0:0:0:
384,96,266720,1,8,0:0:0:0:
128,96,266954,1,0,0:0:0:0:
128,96,267189,1,0,0:0:0:0:
384,96,267658,1,8,0:0:0:0:
128,96,267892,1,0,0:0:0:0:
128,96,268361,1,0,0:0:0:0:
384,96,268595,1,8,0:0:0:0:
128,96,269064,1,0,0:0:0:0:
128,96,269298,1,0,0:0:0:0:
384,96,269533,1,8,0:0:0:0:
384,96,270001,1,8,0:0:0:0:
128,96,270236,1,0,0:0:0:0:
384,96,270470,1,8,0:0:0:0:
128,96,270704,1,0,0:0:0:0:
128,96,270939,1,0,0:0:0:0:
128,96,271173,1,0,0:0:0:0:
384,96,271408,1,8,0:0:0:0:
128,96,271876,1,0,0:0:0:0:
128,96,272111,1,0,0:0:0:0:
384,96,272345,1,8,0:0:0:0:
128,96,272579,1,0,0:0:0:0:
384,96,272814,1,8,0:0:0:0:
128,96,273283,1,0,0:0:0:0:
128,96,273517,1,0,0:0:0:0:
128,96,273986,1,0,0:0:0:0:
384,96,274220,1,8,0:0:0:0:
128,96,274454,1,0,0:0:0:0:
384,96,274689,1,8,0:0:0:0:
128,96,274806,1,0,0:0:0:0:
128,96,274923,1,0,0:0:0:0:
128,96,275040,1,0,0:0:0:0:
384,96,275158,1,8,0:0:0:0:
128,96,275392,1,0,0:0:0:0:
128,96,275861,1,0,0:0:0:0:
384,96,276095,1,8,0:0:0:0:
128,96,276329,1,0,0:0:0:0:
384,96,276564,1,8,0:0:0:0:
128,96,276681,1,0,0:0:0:0:
384,96,276798,1,8,0:0:0:0:
128,96,277033,1,0,0:0:0:0:
128,96,277267,1,0,0:0:0:0:
384,96,277501,1,8,0:0:0:0:
128,96,277736,1,0,0:0:0:0:
384,96,277970,1,8,0:0:0:0:
384,96,278204,1,8,0:0:0:0:
384,96,278322,1,8,0:0:0:0:
128,96,278439,1,0,0:0:0:0:
128,96,278673,1,0,0:0:0:0:
384,96,278908,1,8,0:0:0:0:
128,96,279376,1,0,0:0:0:0:
128,96,279611,1,0,0:0:0:0:
384,96,279845,1,8,0:0:0:0:
128,96,280079,1,0,0:0:0:0:
128,96,280197,1,0,0:0:0:0:
384,96,280314,1,8,0:0:0:0:
384,96,280548,1,8,0:0:0:0:
128,96,280783,1,0,0:0:0:0:
128,96,281017,1,0,0:0:0:0:
384,96,281251,1,8,0:0:0:0:
384,96,281368,1,8,0:0:0:0:
128,96,281486,1,0,0:0:0:0:
128,96,281603,1,0,0:0:0:0:
384,96,281720,1,8,0:0:0:0:
384,96,281954,1,8,0:0:0:0:
128,96,282189,1,0,0:0:0:0:
384,96,282658,1,8,0:0:0:0:
128,96,282892,1,0,0:0:0:0:
128,96,283361,1,0,0:0:0:0:
384,96,283595,1,8,0:0:0:0:
128,96,283829,1,0,0:0:0:0:
384,96,284064,1,8,0:0:0:0:
384,96,284298,1,8,0:0:0:0:
128,96,284533,1,0,0:0:0:0:
128,96,284650,1,0,0:0:0:0:
384,96,284767,1,8,0:0:0:0:
384,96,285001,1,8,0:0:0:0:
128,96,285236,1,0,0:0:0:0:
384,96,285470,1,8,0:0:0:0:
384,96,285704,1,8,0:0:0:0:
384,96,285822,1,8,0:0:0:0:
128,96,285939,1,0,0:0:0:0:
128,96,286173,1,0,0:0:0:0:
384,96,286408,1,8,0:0:0:0:
128,96,286876,1,0,0:0:0:0:
128,96,287111,1,0,0:0:0:0:
384,96,287345,1,8,0:0:0:0:
128,96,287579,1,0,0:0:0:0:
128,96,287697,1,0,0:0:0:0:
384,96,287814,1,8,0:0:0:0:
384,96,288048,1,8,0:0:0:0:
128,96,288283,1,0,0:0:0:0:
128,96,288517,1,0,0:0:0:0:
384,96,288751,1,8,0:0:0:0:
384,96,288868,1,8,0:0:0:0:
128,96,288986,1,0,0:0:0:0:
128,96,289103,1,0,0:0:0:0:
384,96,289220,1,8,0:0:0:0:
384,96,289454,1,8,0:0:0:0:
128,96,289689,1,0,0:0:0:0:
384,96,289806,1,8,0:0:0:0:
128,96,289923,1,0,0:0:0:0:
128,96,290040,1,0,0:0:0:0:
384,96,290158,1,8,0:0:0:0:
128,96,290392,1,0,0:0:0:0:
128,96,290861,1,0,0:0:0:0:
384,96,291095,1,8,0:0:0:0:
128,96,291329,1,0,0:0:0:0:
384,96,291564,1,8,0:0:0:0:
384,96,291798,1,8,0:0:0:0:
128,96,292033,1,0,0:0:0:0:
128,96,292267,1,0,0:0:0:0:
128,96,292384,1,0,0:0:0:0:
384,96,292501,1,8,0:0:0:0:
128,96,292736,1,0,0:0:0:0:
384,96,292970,1,8,0:0:0:0:
384,96,293204,1,8,0:0:0:0:
384,96,293322,1,8,0:0:0:0:
128,96,293439,1,0,0:0:0:0:
128,96,293673,1,0,0:0:0:0:
384,96,293908,1,8,0:0:0:0:
128,96,294376,1,0,0:0:0:0:
128,96,294611,1,0,0:0:0:0:
384,96,294845,1,8,0:0:0:0:
128,96,295079,1,0,0:0:0:0:
384,96,295314,1,8,0:0:0:0:
384,96,295548,1,8,0:0:0:0:
128,96,295783,1,0,0:0:0:0:
128,96,296017,1,0,0:0:0:0:
128,96,296134,1,0,0:0:0:0:
384,96,296251,1,8,0:0:0:0:
128,96,296486,1,0,0:0:0:0:
384,96,296720,1,8,0:0:0:0:
384,96,296954,1,8,0:0:0:0:
128,96,297189,1,0,0:0:0:0:
384,96,297658,1,8,0:0:0:0:
128,96,297892,1,0,0:0:0:0:
128,96,298361,1,0,0:0:0:0:
384,96,298595,1,8,0:0:0:0:
128,96,298829,1,0,0:0:0:0:
384,96,299064,1,8,0:0:0:0:
384,96,299298,1,8,0:0:0:0:
128,96,299533,1,0,0:0:0:0:
128,96,299767,1,0,0:0:0:0:
128,96,299884,1,0,0:0:0:0:
384,96,300001,1,8,0:0:0:0:
128,96,300236,1,0,0:0:0:0:
384,96,300470,1,8,0:0:0:0:
384,96,300704,1,8,0:0:0:0:
384,96,300822,1,8,0:0:0:0:
128,96,300939,1,0,0:0:0:0:
128,96,301173,1,0,0:0:0:0:
384,96,301408,1,8,0:0:0:0:
128,96,301876,1,0,0:0:0:0:
128,96,302111,1,0,0:0:0:0:
384,96,302345,1,8,0:0:0:0:
128,96,302579,1,0,0:0:0:0:
384,96,302814,1,8,0:0:0:0:
384,96,303048,1,8,0:0:0:0:
128,96,303283,1,0,0:0:0:0:
128,96,303517,1,0,0:0:0:0:
128,96,303634,1,0,0:0:0:0:
384,96,303751,1,8,0:0:0:0:
128,96,303986,1,0,0:0:0:0:
384,96,304220,1,8,0:0:0:0:
384,96,304454,1,8,0:0:0:0:
128,96,304689,1,0,0:0:0:0:
384,96,304806,1,8,0:0:0:0:
128,96,304923,1,0,0:0:0:0:
128,96,305040,1,0,0:0:0:0:
384,96,305158,1,8,0:0:0:0:
256,192,305392,12,0,308908,0:0:0:0:
128,96,320158,5,0,0:0:0:0:
384,96,320626,1,8,0:0:0:0:
128,96,321095,1,0,0:0:0:0:
384,96,321564,1,8,0:0:0:0:
128,96,322033,1,0,0:0:0:0:
384,96,322501,1,8,0:0:0:0:
128,96,322970,1,0,0:0:0:0:
384,96,323439,1,8,0:0:0:0:
128,96,323908,1,0,0:0:0:0:
384,96,324376,1,8,0:0:0:0:
128,96,324728,1,0,0:0:0:0:
128,96,325079,1,0,0:0:0:0:
384,96,325314,1,8,0:0:0:0:
128,96,325783,1,0,0:0:0:0:
384,96,326251,1,8,0:0:0:0:
128,96,326603,1,0,0:0:0:0:
128,96,326954,1,0,0:0:0:0:
384,96,327189,1,8,0:0:0:0:
128,96,327658,1,0,0:0:0:0:
384,96,328126,1,8,0:0:0:0:
128,96,328478,1,0,0:0:0:0:
128,96,328712,1,0,0:0:0:0:
128,96,328829,1,0,0:0:0:0:
384,96,329064,1,8,0:0:0:0:
384,96,329298,1,8,0:0:0:0:
128,96,329533,1,0,0:0:0:0:
384,96,330001,1,8,0:0:0:0:
128,96,330353,1,0,0:0:0:0:
128,96,330587,1,0,0:0:0:0:
128,96,330704,1,0,0:0:0:0:
384,96,330939,1,8,0:0:0:0:
384,96,331173,1,8,0:0:0:0:
128,96,331408,1,0,0:0:0:0:
128,96,331642,1,0,0:0:0:0:
384,96,331876,1,8,0:0:0:0:
128,96,332111,1,0,0:0:0:0:
128,96,332345,1,0,0:0:0:0:
128,96,332462,1,0,0:0:0:0:
128,96,332579,1,0,0:0:0:0:
384,96,332814,1,8,0:0:0:0:
384,96,333048,1,8,0:0:0:0:
128,96,333283,1,0,0:0:0:0:
128,96,333400,1,0,0:0:0:0:
128,96,333517,1,0,0:0:0:0:
384,96,333634,1,8,0:0:0:0:
128,96,333751,1,0,0:0:0:0:
384,96,333868,1,8,0:0:0:0:
384,96,333986,1,8,0:0:0:0:
384,96,334103,1,8,0:0:0:0:
128,96,334220,1,0,0:0:0:0:
384,96,334337,1,8,0:0:0:0:
384,96,334454,1,8,0:0:0:0:
128,96,334572,1,0,0:0:0:0:
384,96,334689,1,8,0:0:0:0:
128,96,334806,1,0,0:0:0:0:
384,96,334923,1,8,0:0:0:0:
128,96,335040,1,0,0:0:0:0:
384,96,335509,1,8,0:0:0:0:
384,96,335743,1,8,0:0:0:0:
128,96,335978,1,0,0:0:0:0:
128,96,336212,1,0,0:0:0:0:
384,96,336329,1,8,0:0:0:0:
384,96,336564,1,8,0:0:0:0:
128,96,336798,1,0,0:0:0:0:
384,96,337384,1,8,0:0:0:0:
384,96,337618,1,8,0:0:0:0:
128,96,337853,1,0,0:0:0:0:
128,96,338087,1,0,0:0:0:0:
384,96,338204,1,8,0:0:0:0:
384,96,338283,1,8,0:0:0:0:
384,96,338361,1,8,0:0:0:0:
128,96,338439,1,0,0:0:0:0:
384,96,338673,1,8,0:0:0:0:
384,288,338908,1,12,0:0:0:0:
128,96,339259,1,0,0:0:0:0:
384,96,339611,1,8,0:0:0:0:
384,96,339845,1,8,0:0:0:0:
128,96,339962,1,0,0:0:0:0:
128,96,340314,1,0,0:0:0:0:
128,96,340665,1,0,0:0:0:0:
384,96,341017,1,8,0:0:0:0:
128,96,341368,1,0,0:0:0:0:
128,96,341603,1,0,0:0:0:0:
384,96,341720,1,8,0:0:0:0:
384,96,341837,1,8,0:0:0:0:
128,96,341954,1,0,0:0:0:0:
384,96,342189,1,8,0:0:0:0:
384,96,342423,1,8,0:0:0:0:
128,96,342540,1,0,0:0:0:0:
384,96,342658,1,8,0:0:0:0:
128,96,343009,1,0,0:0:0:0:
128,96,343361,1,0,0:0:0:0:
384,96,343595,1,8,0:0:0:0:
128,96,343712,1,0,0:0:0:0:
128,96,344064,1,0,0:0:0:0:
384,96,344415,1,8,0:0:0:0:
128,96,344650,1,0,0:0:0:0:
384,96,344884,1,8,0:0:0:0:
128,96,345118,1,0,0:0:0:0:
128,96,345236,1,0,0:0:0:0:
384,96,345353,1,8,0:0:0:0:
384,96,345470,1,8,0:0:0:0:
128,96,345587,1,0,0:0:0:0:
384,96,345704,1,8,0:0:0:0:
384,96,345822,1,8,0:0:0:0:
128,96,345939,1,0,0:0:0:0:
384,96,346056,1,8,0:0:0:0:
128,96,346173,1,0,0:0:0:0:
128,96,346290,1,0,0:0:0:0:
384,96,346408,1,8,0:0:0:0:
128,96,346759,1,0,0:0:0:0:
384,96,347111,1,8,0:0:0:0:
384,96,347345,1,8,0:0:0:0:
128,96,347462,1,0,0:0:0:0:
128,96,347814,1,0,0:0:0:0:
128,96,348165,1,0,0:0:0:0:
384,96,348517,1,8,0:0:0:0:
128,96,348868,1,0,0:0:0:0:
128,96,349103,1,0,0:0:0:0:
384,96,349220,1,8,0:0:0:0:
384,96,349337,1,8,0:0:0:0:
128,96,349454,1,0,0:0:0:0:
384,96,349689,1,8,0:0:0:0:
384,96,349923,1,8,0:0:0:0:
128,96,350040,1,0,0:0:0:0:
384,96,350158,1,8,0:0:0:0:
128,96,350509,1,0,0:0:0:0:
128,96,350861,1,0,0:0:0:0:
384,96,351095,1,8,0:0:0:0:
128,96,351212,1,0,0:0:0:0:
128,96,351564,1,0,0:0:0:0:
384,96,351915,1,8,0:0:0:0:
128,96,352151,1,0,0:0:0:0:
384,96,352267,1,8,0:0:0:0:
128,96,352384,1,0,0:0:0:0:
384,96,352501,1,8,0:0:0:0:
384,96,352618,1,8,0:0:0:0:
128,96,352736,1,0,0:0:0:0:
384,96,352853,1,8,0:0:0:0:
128,96,352970,1,0,0:0:0:0:
384,96,353087,1,8,0:0:0:0:
384,96,353147,1,8,0:0:0:0:
128,96,353204,1,0,0:0:0:0:
128,96,353323,1,0,0:0:0:0:
384,96,353439,1,8,0:0:0:0:
384,96,353556,1,8,0:0:0:0:
128,96,353673,1,0,0:0:0:0:
128,96,353790,1,0,0:0:0:0:
384,96,353908,1,8,0:0:0:0:
128,96,354259,1,0,0:0:0:0:
384,96,354611,1,8,0:0:0:0:
384,96,354845,1,8,0:0:0:0:
128,96,354962,1,0,0:0:0:0:
128,96,355314,1,0,0:0:0:0:
128,96,355665,1,0,0:0:0:0:
384,96,356017,1,8,0:0:0:0:
128,96,356368,1,0,0:0:0:0:
128,96,356603,1,0,0:0:0:0:
384,96,356720,1,8,0:0:0:0:
384,96,356837,1,8,0:0:0:0:
128,96,356954,1,0,0:0:0:0:
384,96,357189,1,8,0:0:0:0:
384,96,357423,1,8,0:0:0:0:
128,96,357540,1,0,0:0:0:0:
384,96,357658,1,8,0:0:0:0:
128,96,358009,1,0,0:0:0:0:
128,96,358361,1,0,0:0:0:0:
384,96,358595,1,8,0:0:0:0:
128,96,358712,1,0,0:0:0:0:
128,96,359064,1,0,0:0:0:0:
384,96,359415,1,8,0:0:0:0:
128,96,359650,1,0,0:0:0:0:
384,96,359884,1,8,0:0:0:0:
128,96,360118,1,0,0:0:0:0:
128,96,360236,1,0,0:0:0:0:
384,96,360353,1,8,0:0:0:0:
384,96,360470,1,8,0:0:0:0:
128,96,360587,1,0,0:0:0:0:
384,96,360704,1,8,0:0:0:0:
384,96,360822,1,8,0:0:0:0:
128,96,360939,1,0,0:0:0:0:
384,96,361056,1,8,0:0:0:0:
128,96,361173,1,0,0:0:0:0:
128,96,361290,1,0,0:0:0:0:
384,96,361408,1,8,0:0:0:0:
128,96,361759,1,0,0:0:0:0:
384,96,362111,1,8,0:0:0:0:
384,96,362345,1,8,0:0:0:0:
128,96,362462,1,0,0:0:0:0:
128,96,362814,1,0,0:0:0:0:
128,96,363165,1,0,0:0:0:0:
384,96,363517,1,8,0:0:0:0:
128,96,363868,1,0,0:0:0:0:
128,96,364103,1,0,0:0:0:0:
384,96,364220,1,8,0:0:0:0:
384,96,364337,1,8,0:0:0:0:
128,96,364454,1,0,0:0:0:0:
384,96,364689,1,8,0:0:0:0:
384,96,364923,1,8,0:0:0:0:
128,96,365040,1,0,0:0:0:0:
384,96,365158,1,8,0:0:0:0:
128,96,365509,1,0,0:0:0:0:
128,96,365861,1,0,0:0:0:0:
384,96,366095,1,8,0:0:0:0:
128,96,366212,1,0,0:0:0:0:
128,96,366564,1,0,0:0:0:0:
384,96,366915,1,8,0:0:0:0:
128,96,367151,1,0,0:0:0:0:
384,96,367267,1,8,0:0:0:0:
128,96,367384,1,0,0:0:0:0:
384,96,367501,1,8,0:0:0:0:
384,96,367618,1,8,0:0:0:0:
128,96,367737,1,0,0:0:0:0:
384,96,367853,1,8,0:0:0:0:
128,96,367970,1,0,0:0:0:0:
384,96,368087,1,8,0:0:0:0:
384,96,368147,1,8,0:0:0:0:
128,96,368204,1,0,0:0:0:0:
128,96,368323,1,0,0:0:0:0:
384,96,368439,1,8,0:0:0:0:
384,96,368557,1,8,0:0:0:0:
128,96,368674,1,0,0:0:0:0:
128,96,368791,1,0,0:0:0:0:
384,96,368909,1,8,0:0:0:0:
384,96,369259,1,8,0:0:0:0:
384,96,369493,1,8,0:0:0:0:
128,96,369728,1,0,0:0:0:0:
128,96,369962,1,0,0:0:0:0:
384,96,370079,1,8,0:0:0:0:
128,96,370314,1,0,0:0:0:0:
384,96,370548,1,8,0:0:0:0:
384,96,371134,1,8,0:0:0:0:
384,96,371368,1,8,0:0:0:0:
128,96,371603,1,0,0:0:0:0:
128,96,371837,1,0,0:0:0:0:
384,96,371954,1,8,0:0:0:0:
128,96,372189,1,0,0:0:0:0:
384,96,372423,1,8,0:0:0:0:
384,96,373009,1,8,0:0:0:0:
384,96,373243,1,8,0:0:0:0:
128,96,373478,1,0,0:0:0:0:
128,96,373712,1,0,0:0:0:0:
384,96,373829,1,8,0:0:0:0:
128,96,374064,1,0,0:0:0:0:
384,96,374298,1,8,0:0:0:0:
384,96,374884,1,8,0:0:0:0:
384,96,375118,1,8,0:0:0:0:
128,96,375353,1,0,0:0:0:0:
128,288,376173,1,4,0:0:0:0:
384,288,376524,1,12,0:0:0:0:
128,96,376876,1,0,0:0:0:0:
128,96,377110,1,0,0:0:0:0:
384,96,377345,1,8,0:0:0:0:
384,96,377579,1,8,0:0:0:0:
128,96,377813,1,0,0:0:0:0:
128,96,377930,1,0,0:0:0:0:
128,96,378048,1,0,0:0:0:0:
128,96,378165,1,0,0:0:0:0:
384,96,378283,1,8,0:0:0:0:
128,96,378516,1,0,0:0:0:0:
128,96,378634,1,0,0:0:0:0:
384,96,378751,1,8,0:0:0:0:
128,96,378985,1,0,0:0:0:0:
384,288,379220,1,12,0:0:0:0:
384,288,379571,1,12,0:0:0:0:
128,288,379923,1,4,0:0:0:0:
384,288,380274,1,12,0:0:0:0:
128,96,380626,1,0,0:0:0:0:
128,96,380860,1,0,0:0:0:0:
128,96,380977,1,0,0:0:0:0:
384,96,381095,1,8,0:0:0:0:
384,96,381329,1,8,0:0:0:0:
384,96,381446,1,8,0:0:0:0:
128,96,381563,1,0,0:0:0:0:
384,96,381798,1,8,0:0:0:0:
128,96,382032,1,0,0:0:0:0:
384,96,382266,1,8,0:0:0:0:
384,96,382384,1,8,0:0:0:0:
128,96,382501,1,0,0:0:0:0:
128,96,382735,1,0,0:0:0:0:
384,288,382970,1,12,0:0:0:0:
384,288,383321,1,12,0:0:0:0:
128,288,383673,1,4,0:0:0:0:
384,288,384024,1,12,0:0:0:0:
128,96,384376,1,0,0:0:0:0:
128,96,384610,1,0,0:0:0:0:
384,96,384845,1,8,0:0:0:0:
384,96,385079,1,8,0:0:0:0:
128,96,385313,1,0,0:0:0:0:
128,96,385430,1,0,0:0:0:0:
128,96,385548,1,0,0:0:0:0:
128,96,385665,1,0,0:0:0:0:
384,96,385782,1,8,0:0:0:0:
128,96,386016,1,0,0:0:0:0:
128,96,386134,1,0,0:0:0:0:
384,96,386251,1,8,0:0:0:0:
128,96,386485,1,0,0:0:0:0:
384,288,386720,1,12,0:0:0:0:
384,288,387071,1,12,0:0:0:0:
128,288,387423,1,4,0:0:0:0:
384,288,387774,1,12,0:0:0:0:
128,96,388126,1,0,0:0:0:0:
128,96,388360,1,0,0:0:0:0:
384,96,388595,1,8,0:0:0:0:
128,96,388829,1,0,0:0:0:0:
384,96,388946,1,8,0:0:0:0:
128,96,389063,1,0,0:0:0:0:
384,96,389298,1,8,0:0:0:0:
384,96,389532,1,8,0:0:0:0:
128,96,389766,1,0,0:0:0:0:
384,288,390001,1,12,0:0:0:0:
128,96,390235,1,0,0:0:0:0:
384,288,390470,1,12,0:0:0:0:
384,288,390821,1,12,0:0:0:0:
128,288,391173,1,4,0:0:0:0:
384,288,391524,1,12,0:0:0:0:
128,96,391876,1,0,0:0:0:0:
128,96,392110,1,0,0:0:0:0:
384,96,392345,1,8,0:0:0:0:
384,96,392579,1,8,0:0:0:0:
128,96,392813,1,0,0:0:0:0:
128,96,392930,1,0,0:0:0:0:
128,96,393048,1,0,0:0:0:0:
128,96,393165,1,0,0:0:0:0:
384,96,393282,1,8,0:0:0:0:
128,96,393516,1,0,0:0:0:0:
128,96,393634,1,0,0:0:0:0:
384,96,393751,1,8,0:0:0:0:
128,96,393985,1,0,0:0:0:0:
384,288,394220,1,12,0:0:0:0:
384,288,394571,1,12,0:0:0:0:
128,288,394923,1,4,0:0:0:0:
384,288,395274,1,12,0:0:0:0:
128,96,395626,1,0,0:0:0:0:
128,96,395860,1,0,0:0:0:0:
128,96,395977,1,0,0:0:0:0:
384,96,396095,1,8,0:0:0:0:
384,96,396329,1,8,0:0:0:0:
384,96,396446,1,8,0:0:0:0:
128,96,396563,1,0,0:0:0:0:
384,96,396798,1,8,0:0:0:0:
128,96,397032,1,0,0:0:0:0:
384,96,397266,1,8,0:0:0:0:
384,96,397384,1,8,0:0:0:0:
128,96,397501,1,0,0:0:0:0:
128,96,397735,1,0,0:0:0:0:
384,288,397970,1,12,0:0:0:0:
384,288,398321,1,12,0:0:0:0:
128,288,398673,1,4,0:0:0:0:
384,288,399024,1,12,0:0:0:0:
128,96,399376,1,0,0:0:0:0:
128,96,399610,1,0,0:0:0:0:
384,96,399845,1,8,0:0:0:0:
384,96,400079,1,8,0:0:0:0:
128,96,400313,1,0,0:0:0:0:
128,96,400430,1,0,0:0:0:0:
128,96,400548,1,0,0:0:0:0:
128,96,400665,1,0,0:0:0:0:
384,96,400782,1,8,0:0:0:0:
128,96,401016,1,0,0:0:0:0:
128,96,401133,1,0,0:0:0:0:
384,96,401251,1,8,0:0:0:0:
128,96,401485,1,0,0:0:0:0:
384,288,401720,1,12,0:0:0:0:
384,288,402071,1,12,0:0:0:0:
128,288,402423,1,4,0:0:0:0:
384,288,402774,1,12,0:0:0:0:
128,96,403126,1,0,0:0:0:0:
128,96,403360,1,0,0:0:0:0:
384,96,403595,1,8,0:0:0:0:
128,96,403829,1,0,0:0:0:0:
384,96,403946,1,8,0:0:0:0:
128,96,404063,1,0,0:0:0:0:
384,96,404298,1,8,0:0:0:0:
384,96,404532,1,8,0:0:0:0:
128,96,404766,1,0,0:0:0:0:
384,288,405001,1,12,0:0:0:0:
128,96,405235,1,0,0:0:0:0:
384,288,405470,1,12,0:0:0:0:
384,288,405704,1,12,0:0:0:0:
384,288,405938,1,12,0:0:0:0:
384,288,406173,1,12,0:0:0:0:
128,288,406406,1,4,0:0:0:0:
128,96,406640,1,0,0:0:0:0:
384,96,406873,1,8,0:0:0:0:
384,288,407108,1,12,0:0:0:0:
128,96,407576,1,0,0:0:0:0:
384,96,407811,1,8,0:0:0:0:
384,96,407928,1,8,0:0:0:0:
128,288,408045,1,4,0:0:0:0:
128,96,408514,1,0,0:0:0:0:
128,96,408748,1,0,0:0:0:0:
128,96,408865,1,0,0:0:0:0:
128,96,408983,1,0,0:0:0:0:
384,96,409217,1,8,0:0:0:0:
128,96,409334,1,0,0:0:0:0:
128,96,409451,1,0,0:0:0:0:
128,96,409530,1,0,0:0:0:0:
128,96,409608,1,0,0:0:0:0:
384,96,409686,1,8,0:0:0:0:
128,96,409803,1,0,0:0:0:0:
128,96,409920,1,0,0:0:0:0:
128,96,410037,1,0,0:0:0:0:
384,288,410155,1,12,0:0:0:0:
128,96,410389,1,0,0:0:0:0:
384,288,410506,1,12,0:0:0:0:
128,96,410740,1,0,0:0:0:0:
384,288,410858,1,12,0:0:0:0:
384,96,411092,1,8,0:0:0:0:
384,96,411170,1,8,0:0:0:0:
128,96,411248,1,0,0:0:0:0:
128,96,411326,1,0,0:0:0:0:
128,96,411405,1,0,0:0:0:0:
128,96,411483,1,0,0:0:0:0:
384,96,411561,1,8,0:0:0:0:
128,288,411795,1,4,0:0:0:0:
128,96,412264,1,0,0:0:0:0:
128,96,412615,1,0,0:0:0:0:
128,96,412850,1,0,0:0:0:0:
384,96,412967,1,8,0:0:0:0:
384,96,413319,1,8,0:0:0:0:
384,96,413553,1,8,0:0:0:0:
128,96,413670,1,0,0:0:0:0:
128,96,413787,1,0,0:0:0:0:
384,288,413905,1,12,0:0:0:0:
384,288,414608,1,12,0:0:0:0:
128,288,415311,1,4,0:0:0:0:
256,192,415545,12,0,417420,0:0:0:0:
384,288,417655,5,12,0:0:0:0:
384,288,418358,1,12,0:0:0:0:
128,288,419061,1,4,0:0:0:0:
256,192,419295,12,0,426561,0:0:0:0:
