osu file format v14

[General]
AudioFilename: audio.mp3
AudioLeadIn: 0
PreviewTime: 52508
Countdown: 0
SampleSet: Soft
StackLeniency: 0.2
Mode: 0
LetterboxInBreaks: 0
WidescreenStoryboard: 0

[Editor]
DistanceSpacing: 0.6
BeatDivisor: 4
GridSize: 8
TimelineZoom: 1

[Metadata]
Title:Twisted Souls
TitleUnicode:Twisted Souls
Artist:Script
ArtistUnicode:Script
Creator:BOUYAAA
Version:e
Source:
Tags:
BeatmapID:1430172
BeatmapSetID:676168

[Difficulty]
HPDrainRate:5
CircleSize:4.8
OverallDifficulty:8
ApproachRate:9
SliderMultiplier:2
SliderTickRate:1

[Events]
//Background and Video events
0,0,"not so retro.jpg",0,0
//Break Periods
//Storyboard Layer 0 (Background)
//Storyboard Layer 1 (Fail)
//Storyboard Layer 2 (Pass)
//Storyboard Layer 3 (Foreground)
//Storyboard Sound Samples

[TimingPoints]
9,526.315789473684,4,2,0,70,1,0
18956,-200,4,2,0,70,0,0
29482,-166.666666666667,4,2,0,70,0,0
35798,-142.857142857143,4,2,0,70,0,0
44219,-111.111111111111,4,2,0,70,0,0
52114,-200,4,2,0,70,0,0
52640,-71.4285714285714,4,2,0,70,0,1
52903,-71.4285714285714,4,2,0,70,0,0
54745,-58.8235294117647,4,2,0,70,0,0
56851,-83.3333333333333,4,2,0,70,0,0
57903,-166.666666666667,4,2,0,70,0,0
58166,-83.3333333333334,4,2,0,70,0,0
58956,-125,4,2,0,70,0,0
60535,-83.3333333333333,4,2,0,70,0,0
61061,-71.4285714285714,4,2,0,70,0,0
63166,-58.8235294117647,4,2,0,70,0,0
65272,-83.3333333333333,4,2,0,70,0,0
67377,-125,4,2,0,70,0,0
68430,-83.3333333333333,4,2,0,70,0,0
69482,-71.4285714285714,4,2,0,70,0,0
71587,-58.8235294117647,4,2,0,70,0,0
73693,-83.3333333333333,4,2,0,70,0,0
74877,-200,4,2,0,70,0,0
75272,-83.3333333333333,4,2,0,70,0,0
75798,-125,4,2,0,70,0,0
77377,-83.3333333333333,4,2,0,70,0,0
77903,-71.4285714285714,4,2,0,70,0,0
80008,-58.8235294117647,4,2,0,70,0,0
81851,-50,4,2,0,70,0,0
82114,-83.3333333333333,4,2,0,70,0,0
84219,-125,4,2,0,70,0,0
85272,-83.3333333333333,4,2,0,70,0,0
89482,-100,4,2,0,70,0,0
90008,-83.3333333333333,4,2,0,70,0,0
97903,-125,4,2,0,70,0,0
98430,-83.3333333333333,4,2,0,70,0,0
98693,-71.4285714285714,4,2,0,70,0,0
98956,-83.3333333333333,4,2,0,70,0,0
102640,-200,4,2,0,70,0,0
103166,-71.4285714285714,4,2,0,70,0,1
107377,-83.3333333333333,4,2,0,70,0,0
108430,-200,4,2,0,70,0,0
108693,-83.3333333333333,4,2,0,70,0,0
109482,-125,4,2,0,70,0,0
111061,-83.3333333333333,4,2,0,70,0,0
111587,-71.4285714285714,4,2,0,70,0,0
113693,-55.5555555555556,4,2,0,70,0,0
115798,-83.3333333333333,4,2,0,70,0,0
116851,-200,4,2,0,70,0,0
117245,-83.3333333333333,4,2,0,70,0,0
117903,-125,4,2,0,70,0,0
118956,-83.3333333333333,4,2,0,70,0,0
120008,-71.4285714285714,4,2,0,70,0,0
122114,-55.5555555555556,4,2,0,70,0,0
124219,-83.3333333333333,4,2,0,70,0,0
125272,-200,4,2,0,70,0,0
125535,-83.3333333333333,4,2,0,70,0,0
126324,-125,4,2,0,70,0,0
127903,-83.3333333333333,4,2,0,70,0,0
128430,-71.4285714285714,4,2,0,70,0,0
130535,-58.8235294117647,4,2,0,70,0,0
132377,-50,4,2,0,70,0,0
132640,-83.3333333333333,4,2,0,70,0,0
134745,-125,4,2,0,70,0,0
135798,-83.3333333333333,4,2,0,70,0,0
136324,-125,4,2,0,70,0,0

[Colours]
Combo1 : 195,49,2
Combo2 : 235,165,54

[HitObjects]
65,186,1587,5,0,0:0:0:0:
160,174,1851,1,0,0:0:0:0:
160,174,1982,1,0,0:0:0:0:
103,98,2114,5,0,0:0:0:0:
338,240,2640,5,0,0:0:0:0:
243,228,2904,5,0,0:0:0:0:
243,228,3166,1,0,0:0:0:0:
186,305,3430,6,0,L|194:371,1,50
0,284,3693,5,0,0:0:0:0:
95,272,3824,2,0,L|91:312,1,25
186,305,3956,5,0,0:0:0:0:
281,293,4087,1,0,0:0:0:0:
372,326,4219,5,0,0:0:0:0:
460,159,4614,5,0,0:0:0:0:
365,171,4745,1,0,0:0:0:0:
460,159,5008,5,0,0:0:0:0:
460,159,5272,1,0,0:0:0:0:
270,159,5535,6,0,L|262:225,1,50
330,86,5798,5,0,0:0:0:0:
235,74,5930,1,0,0:0:0:0:
20,131,6325,5,0,0:0:0:0:
17,116,6456,1,0,0:0:0:0:
149,56,6587,1,0,0:0:0:0:
146,41,6718,1,0,0:0:0:0:
149,205,6851,1,0,0:0:0:0:
146,190,6982,1,0,0:0:0:0:
20,131,7114,1,0,0:0:0:0:
104,124,7245,6,0,L|146:128,2,25
433,228,7640,5,0,0:0:0:0:
436,213,7771,1,0,0:0:0:0:
304,153,7902,1,0,0:0:0:0:
307,138,8035,1,0,0:0:0:0:
304,302,8166,1,0,0:0:0:0:
350,235,8298,6,0,L|357:191,2,25
255,223,8561,1,0,0:0:0:0:
185,280,8693,1,0,0:0:0:0:
190,295,8824,1,0,0:0:0:0:
128,210,8956,1,0,0:0:0:0:
113,215,9087,1,0,0:0:0:0:
198,153,9219,1,0,0:0:0:0:
255,223,9351,6,0,L|289:221,2,25
185,280,9614,1,0,0:0:0:0:
128,210,9745,6,0,L|57:207,1,50
199,154,10008,2,0,B|266:151|266:151|301:121,1,100
311,55,10403,1,0,0:0:0:0:
409,286,10535,5,0,0:0:0:0:
174,144,11061,5,0,0:0:0:0:
269,156,11325,5,0,0:0:0:0:
269,156,11587,1,0,0:0:0:0:
326,79,11851,6,0,L|318:13,1,50
512,100,12114,5,0,0:0:0:0:
417,112,12245,2,0,L|421:72,1,25
231,91,12508,5,0,0:0:0:0:
140,58,12640,1,0,0:0:0:0:
52,225,13035,5,0,0:0:0:0:
147,213,13166,1,0,0:0:0:0:
52,225,13429,5,0,0:0:0:0:
52,225,13693,1,0,0:0:0:0:
242,225,13956,6,0,L|250:159,1,50
182,298,14219,5,0,0:0:0:0:
492,253,14746,5,0,0:0:0:0:
495,268,14877,1,0,0:0:0:0:
363,328,15008,1,0,0:0:0:0:
366,343,15139,1,0,0:0:0:0:
363,179,15272,1,0,0:0:0:0:
366,194,15403,1,0,0:0:0:0:
492,253,15535,1,0,0:0:0:0:
408,266,15666,6,0,L|366:262,2,25
79,156,16061,5,0,0:0:0:0:
76,171,16192,1,0,0:0:0:0:
208,231,16323,1,0,0:0:0:0:
205,246,16456,1,0,0:0:0:0:
208,82,16587,1,0,0:0:0:0:
162,149,16719,6,0,L|155:193,2,25
257,161,16982,1,0,0:0:0:0:
327,104,17114,1,0,0:0:0:0:
322,89,17245,1,0,0:0:0:0:
384,174,17377,1,0,0:0:0:0:
399,169,17508,1,0,0:0:0:0:
314,231,17640,1,0,0:0:0:0:
257,161,17772,6,0,L|223:163,2,25
327,104,18035,1,0,0:0:0:0:
384,174,18166,6,0,L|455:177,1,50
313,230,18429,2,0,B|246:233|246:233|211:263,1,100
201,329,18824,1,0,0:0:0:0:
45,212,18956,6,0,L|36:107,3,100
34,91,20666,1,0,0:0:0:0:
236,141,21061,6,0,L|131:150,3,100
308,134,22903,1,0,0:0:0:0:
444,341,23166,6,0,L|453:236,2,100
365,376,24482,1,0,0:0:0:0:
354,297,24745,2,0,L|349:244,1,50
431,158,25272,6,0,L|326:149,1,100
249,255,26324,2,0,L|354:246,1,100
136,36,27377,5,0,0:0:0:0:
144,148,27640,1,0,0:0:0:0:
136,36,27903,1,0,0:0:0:0:
144,148,28166,1,0,0:0:0:0:
136,36,28430,1,0,0:0:0:0:
144,148,28693,1,0,0:0:0:0:
236,85,29219,5,0,0:0:0:0:
181,234,29482,6,0,L|87:225,1,89.9999972534181
84,291,30008,2,0,L|173:299,1,89.9999972534181
181,368,30535,2,0,L|60:355,1,119.999996337891
240,315,31324,1,0,0:0:0:0:
240,315,31456,1,0,0:0:0:0:
240,315,31587,6,0,P|284:301|344:302,1,89.9999972534181
384,352,32114,2,0,L|531:344,1,119.999996337891
497,231,32903,2,0,L|378:238,1,119.999996337891
280,168,33693,6,0,P|277:108|302:70,1,89.9999972534181
310,67,34219,1,0,0:0:0:0:
180,39,34745,2,0,L|74:35,1,89.9999972534181
84,104,35272,2,0,L|173:107,1,89.9999972534181
125,221,35798,6,0,P|81:235|50:282,1,104.999996795654
170,326,36324,2,0,P|179:280|154:230,1,104.999996795654
56,312,36851,2,0,P|90:343|146:346,1,104.999996795654
272,304,37377,1,0,0:0:0:0:
277,324,37508,1,0,0:0:0:0:
282,344,37640,1,0,0:0:0:0:
365,254,37903,6,0,B|395:213|395:213|452:214,1,104.999996795654
437,333,38430,2,0,B|386:327|386:327|358:277,1,104.999996795654
470,231,38956,2,0,B|490:277|490:277|461:326,1,104.999996795654
270,302,39482,1,0,0:0:0:0:
294,218,39745,1,0,0:0:0:0:
289,198,39877,1,0,0:0:0:0:
284,178,40008,1,0,0:0:0:0:
344,100,40272,6,0,L|396:108,2,34.9999989318848
362,29,40798,2,0,L|414:37,2,34.9999989318848
272,48,41324,1,0,0:0:0:0:
192,104,41587,2,0,P|152:96|120:56,1,69.9999978637696
33,116,42114,6,0,L|39:243,1,104.999996795654
82,305,42640,2,0,P|121:330|189:313,1,104.999996795654
232,247,43166,2,0,P|271:222|339:239,1,104.999996795654
358,314,43693,1,0,0:0:0:0:
358,314,43956,1,0,0:0:0:0:
458,186,44219,6,0,L|470:37,1,134.999995880127
384,172,44745,2,0,L|396:23,1,134.999995880127
310,158,45272,2,0,L|322:9,1,134.999995880127
396,19,45798,1,0,0:0:0:0:
396,18,46061,1,0,0:0:0:0:
197,39,46324,6,0,P|131:29|75:64,1,134.999995880127
118,141,46851,2,0,P|183:131|239:166,1,134.999995880127
197,243,47377,2,0,P|131:233|75:268,1,134.999995880127
108,363,47903,2,0,B|164:359|164:359|190:337|190:337|257:332,1,134.999995880127
365,329,48430,1,0,0:0:0:0:
386,329,48561,2,0,L|442:333,2,44.999998626709
337,262,48956,1,0,0:0:0:0:
317,259,49087,2,0,L|272:255,2,44.999998626709
399,224,49482,2,0,B|426:195|426:195|416:138,1,89.9999972534181
375,23,50008,6,0,L|370:80,2,44.999998626709
291,126,50403,1,0,0:0:0:0:
289,113,50535,6,0,L|284:56,2,44.999998626709
215,123,50930,1,0,0:0:0:0:
213,107,51061,2,0,L|208:50,2,44.999998626709
308,199,51587,2,0,P|358:211|428:156,1,134.999995880127
423,166,52114,6,0,L|419:232,1,50
50,156,52640,6,0,B|18:107|64:40|124:60|124:60|111:90|124:117,1,209.999993591309
174,248,53166,2,0,B|147:300|66:293|53:231|53:231|86:228|103:203,1,209.999993591309
190,93,53693,2,0,B|248:89|283:163|236:205|236:205|216:178|186:176,1,209.999993591309
99,210,54219,5,0,0:0:0:0:
121,110,54351,1,0,0:0:0:0:
195,178,54482,1,0,0:0:0:0:
49,149,54745,6,0,B|9:106|53:25|117:30|117:30|94:77|129:121,1,255.000004863739
169,252,55272,2,0,B|151:308|59:310|31:252|31:252|84:249|104:196,1,255.000004863739
200,102,55798,2,0,B|257:88|305:167|269:220|269:220|239:176|184:185,1,255.000004863739
49,149,56324,5,0,0:0:0:0:
200,102,56456,1,0,0:0:0:0:
169,252,56588,1,0,0:0:0:0:
429,268,56851,6,0,L|503:254,1,59.9999981689454
303,280,57114,2,0,L|226:281,1,59.9999981689454
434,339,57377,6,0,L|510:337,1,59.9999981689454
313,353,57640,2,0,L|238:366,1,59.9999981689454
369,291,57903,6,0,L|374:344,1,29.9999990844727
344,22,58166,6,0,P|342:51|352:80,1,59.9999981689454
298,196,58430,2,0,P|324:183|345:161,1,59.9999981689454
472,148,58693,2,0,P|447:131|417:125,1,59.9999981689454
155,129,58956,5,0,0:0:0:0:
231,118,59087,2,0,L|289:109,2,40
155,129,59482,5,0,0:0:0:0:
107,68,59613,2,0,L|70:21,2,40
155,129,60008,6,0,L|108:248,1,120
38,286,60535,6,0,P|73:316|125:311,1,59.9999981689454
150,368,60798,2,0,P|194:356|220:311,1,59.9999981689454
404,102,61061,6,0,B|371:107|356:131|356:131|311:116|262:131|262:131|283:152|287:183,1,209.999993591309
429,314,61587,2,0,B|441:282|427:257|427:257|463:226|474:176|474:176|446:184|417:172,1,209.999993591309
232,229,62114,2,0,B|252:255|281:256|281:256|290:302|328:337|328:337|335:308|360:289,1,209.999993591309
355,216,62640,1,0,0:0:0:0:
404,102,63166,6,0,B|466:68|466:68|502:132|484:207|423:247,1,255.000004863739
232,229,63693,2,0,B|172:192|172:192|209:129|283:107|348:139,1,255.000004863739
428,315,64219,2,0,B|425:385|425:385|352:384|296:331|292:259,1,255.000004863739
355,216,64745,1,0,0:0:0:0:
110,260,65272,6,0,P|80:242|25:231,1,59.9999981689454
219,281,65535,2,0,P|252:275|307:286,1,59.9999981689454
94,338,65798,6,0,P|60:343|5:332,1,59.9999981689454
204,359,66061,2,0,P|233:376|288:387,1,59.9999981689454
157,310,66324,1,0,0:0:0:0:
157,310,66587,5,0,0:0:0:0:
221,202,66851,2,0,L|236:143,1,59.9999981689454
141,187,67114,2,0,L|150:112,1,59.9999981689454
366,270,67377,5,0,0:0:0:0:
442,281,67508,2,0,L|500:290,2,40
366,270,67903,5,0,0:0:0:0:
318,331,68034,2,0,L|281:378,2,40
366,270,68430,6,0,L|319:151,1,120
249,113,68824,1,0,0:0:0:0:
249,113,68956,6,0,P|284:83|336:88,1,59.9999981689454
361,31,69219,2,0,P|405:43|431:88,1,59.9999981689454
131,170,69482,6,0,B|78:144|89:62|149:49|149:49|178:85|165:127,1,209.999993591309
190,242,70008,2,0,B|193:301|116:332|75:286|75:286|92:244|134:234,1,209.999993591309
224,155,70535,2,0,B|273:121|338:173|319:231|319:231|274:237|244:205,1,209.999993591309
131,170,71061,5,0,0:0:0:0:
224,155,71193,1,0,0:0:0:0:
190,242,71324,1,0,0:0:0:0:
176,86,71587,6,0,B|223:72|238:26|238:26|293:44|289:145|199:163,1,255.000004863739
96,244,72114,2,0,B|60:209|13:219|13:219|0:163|90:116|151:184,1,255.000004863739
274,234,72640,2,0,B|261:281|293:317|293:317|251:356|165:302|194:216,1,255.000004863739
176,86,73166,5,0,0:0:0:0:
274,234,73298,1,0,0:0:0:0:
96,244,73430,1,0,0:0:0:0:
420,168,73693,6,0,L|491:207,1,59.9999981689454
313,133,73956,2,0,L|231:123,1,59.9999981689454
457,104,74219,6,0,L|528:143,1,59.9999981689454
320,59,74482,2,0,L|238:49,1,59.9999981689454
396,60,74745,1,0,0:0:0:0:
396,60,74877,6,0,L|371:129,1,50
305,205,75272,6,0,L|279:277,1,59.9999981689454
384,232,75535,2,0,L|358:304,1,59.9999981689454
155,255,75798,5,0,0:0:0:0:
231,266,75929,2,0,L|289:275,2,40
155,255,76324,5,0,0:0:0:0:
107,316,76455,2,0,L|70:363,2,40
155,255,76850,6,0,L|108:136,1,120
38,98,77377,6,0,P|73:68|125:73,1,59.9999981689454
150,16,77640,2,0,P|194:28|220:73,1,59.9999981689454
354,274,77903,6,0,B|215:306|215:306|273:254,1,209.999993591309
374,133,78430,2,0,B|472:236|472:236|397:213,1,209.999993591309
242,186,78956,2,0,B|283:50|283:50|300:125,1,209.999993591309
323,198,79482,1,0,0:0:0:0:
323,198,79745,1,0,0:0:0:0:
354,274,80008,6,0,B|291:385|291:385|261:240,1,255.000004863739
374,133,80535,2,0,B|503:131|503:131|392:230,1,255.000004863739
242,186,81061,2,0,B|176:76|176:76|317:122,1,255.000004863739
323,198,81587,1,0,0:0:0:0:
397,54,81851,6,0,B|357:26|357:26|305:39,1,100
245,284,82114,6,0,L|250:363,1,59.9999981689454
18,259,82377,2,0,L|-6:334,1,59.9999981689454
171,292,82640,6,0,L|176:371,1,59.9999981689454
87,284,82903,2,0,L|62:359,1,59.9999981689454
136,216,83166,1,0,0:0:0:0:
136,216,83430,5,0,0:0:0:0:
187,142,83693,2,0,L|211:66,1,59.9999981689454
103,134,83956,2,0,L|97:54,1,59.9999981689454
373,269,84219,5,0,0:0:0:0:
449,280,84351,2,0,L|507:289,2,40
373,269,84745,5,0,0:0:0:0:
325,330,84877,2,0,L|288:377,2,40
373,269,85272,6,0,L|326:150,1,120
256,112,85666,1,0,0:0:0:0:
256,112,85798,6,0,P|291:82|343:87,2,59.9999981689454
260,187,86193,1,0,0:0:0:0:
181,147,86324,6,0,P|162:116|164:78,2,59.9999981689454
260,187,86719,1,0,0:0:0:0:
134,227,86851,2,0,L|68:219,1,59.9999981689454
57,323,87114,2,0,L|123:315,1,59.9999981689454
240,365,87377,5,0,0:0:0:0:
267,295,87508,1,0,0:0:0:0:
314,353,87640,1,0,0:0:0:0:
240,365,87772,1,0,0:0:0:0:
388,295,87903,6,0,L|447:302,1,59.9999981689454
430,199,88166,2,0,L|370:206,1,59.9999981689454
261,61,88430,5,0,0:0:0:0:
323,115,88561,2,0,P|376:115|426:62,1,119.999996337891
261,61,88956,5,0,0:0:0:0:
217,131,89087,2,0,P|166:147|102:113,1,119.999996337891
261,61,89482,6,0,B|288:220,1,150
290,230,90008,1,0,0:0:0:0:
131,264,90140,5,0,0:0:0:0:
178,318,90272,1,0,0:0:0:0:
249,326,90403,1,0,0:0:0:0:
317,304,90535,2,0,L|387:310,1,59.9999981689454
458,223,90798,2,0,L|398:228,1,59.9999981689454
318,78,91061,5,0,0:0:0:0:
297,155,91193,1,0,0:0:0:0:
297,155,91258,1,0,0:0:0:0:
297,155,91324,1,0,0:0:0:0:
374,134,91456,2,0,L|460:146,1,59.9999981689454
503,28,91719,2,0,B|483:54|483:54|392:60,1,119.999996337891
232,89,92114,2,0,L|222:21,2,59.9999981689454
186,146,92508,1,0,0:0:0:0:
75,51,92640,5,0,0:0:0:0:
28,115,92772,2,0,L|37:188,1,59.9999981689454
106,248,93035,2,0,L|97:321,1,59.9999981689454
193,205,93298,2,0,L|185:145,1,59.9999981689454
296,209,93561,2,0,L|291:251,1,29.9999990844727
315,338,93693,6,0,P|379:366|460:293,1,179.999994506836
398,249,94219,6,0,L|390:189,1,59.9999981689454
468,54,94482,1,0,0:0:0:0:
413,101,94614,1,0,0:0:0:0:
342,89,94745,6,0,L|266:75,1,59.9999981689454
187,25,95008,2,0,L|127:35,1,59.9999981689454
19,120,95272,2,0,P|66:122|121:168,1,119.999996337891
108,252,95666,1,0,0:0:0:0:
211,165,95798,6,0,L|205:94,1,59.9999981689454
259,230,96061,1,0,0:0:0:0:
326,179,96193,1,0,0:0:0:0:
411,194,96324,2,0,P|461:207|485:221,1,59.9999981689454
397,286,96587,2,0,P|347:299|323:313,1,59.9999981689454
453,365,96851,5,0,0:0:0:0:
261,260,96982,2,0,P|229:297|231:374,1,119.999996337891
308,381,97377,1,0,0:0:0:0:
122,271,97508,2,0,P|122:330|156:389,1,119.999996337891
185,203,97903,6,0,L|178:73,1,120
178,64,98430,1,0,0:0:0:0:
58,177,98693,6,0,L|41:303,1,69.9999978637696
273,257,98956,6,0,L|341:253,1,59.9999981689454
438,187,99219,1,0,0:0:0:0:
438,187,99351,1,0,0:0:0:0:
438,187,99482,2,0,L|370:183,1,59.9999981689454
320,95,99745,1,0,0:0:0:0:
320,95,99877,1,0,0:0:0:0:
320,95,100008,2,0,L|391:91,1,59.9999981689454
239,25,100272,1,0,0:0:0:0:
200,85,100403,1,0,0:0:0:0:
231,149,100535,2,0,L|228:237,1,59.9999981689454
121,122,100798,2,0,L|118:62,1,59.9999981689454
31,132,101061,6,0,L|18:333,1,179.999994506836
19,311,101587,2,0,P|72:352|152:323,1,119.999996337891
172,278,101982,1,0,0:0:0:0:
246,233,102114,2,0,L|443:222,1,179.999994506836
425,222,102640,6,0,L|419:271,1,50
165,200,103166,6,0,B|122:168|134:89|177:60|177:60|271:72,1,209.999993591309
399,152,103693,2,0,B|429:113|429:113|425:61|363:11|314:33,1,209.999993591309
268,240,104219,6,0,L|351:227,1,69.9999978637696
352,303,104482,2,0,L|282:313,1,69.9999978637696
72,284,104745,5,0,0:0:0:0:
72,284,104877,1,0,0:0:0:0:
122,347,105008,2,0,P|153:312|147:272,1,69.9999978637696
306,98,105272,6,0,B|360:112|388:189|349:238|349:238|279:223,1,209.999993591309
101,170,105798,2,0,B|86:116|139:53|201:62|201:62|223:130,1,209.999993591309
265,311,106324,2,0,B|225:350|144:336|121:278|121:278|169:225,1,209.999993591309
312,230,106851,5,0,0:0:0:0:
212,98,106982,1,0,0:0:0:0:
146,250,107114,1,0,0:0:0:0:
443,336,107377,6,0,L|516:344,1,59.9999981689454
310,349,107640,2,0,L|240:372,1,59.9999981689454
427,251,107903,6,0,L|483:231,1,59.9999981689454
309,262,108166,2,0,L|249:255,1,59.9999981689454
373,309,108430,6,0,L|376:342,1,25
363,194,108693,6,0,L|359:135,1,59.9999981689454
253,38,108956,2,0,L|307:65,1,59.9999981689454
442,20,109219,2,0,L|393:54,1,59.9999981689454
121,130,109482,5,0,0:0:0:0:
197,119,109613,2,0,L|255:110,2,40
121,130,110008,5,0,0:0:0:0:
73,69,110139,2,0,L|36:22,2,40
121,130,110535,6,0,L|74:249,1,120
4,287,111061,6,0,P|39:317|91:312,1,59.9999981689454
116,369,111324,2,0,P|160:357|186:312,1,59.9999981689454
292,118,111587,6,0,B|292:76|335:67|335:67|368:93|368:93|407:95|407:95|410:156|478:176,1,209.999993591309
265,276,112114,2,0,B|228:297|199:264|199:264|205:222|205:222|187:187|187:187|238:154|222:85,1,209.999993591309
416,220,112640,2,0,B|452:241|438:282|438:282|399:298|399:298|378:331|378:331|324:303|272:352,1,209.999993591309
325,205,113166,1,0,0:0:0:0:
323,322,113693,6,0,B|291:308|259:316|230:358|230:358|155:346|115:270|203:174,1,269.999991760254
424,144,114219,2,0,B|427:178|450:202|501:206|501:206|528:277|482:350|355:321,1,269.999991760254
220,145,114745,2,0,B|248:124|257:92|235:46|235:46|283:-12|369:-9|408:115,1,269.999991760254
325,205,115272,1,0,0:0:0:0:
138,114,115798,6,0,L|168:38,1,59.9999981689454
116,224,116061,2,0,L|116:306,1,59.9999981689454
69,85,116324,6,0,L|99:9,1,59.9999981689454
41,226,116587,2,0,L|41:308,1,59.9999981689454
33,150,116851,6,0,L|71:156,1,25
189,178,117114,1,0,0:0:0:0:
428,44,117377,2,0,L|370:62,1,59.9999981689454
235,111,117640,2,0,L|292:92,1,59.9999981689454
368,278,117903,5,0,0:0:0:0:
444,289,118034,2,0,L|502:298,2,40
368,278,118429,5,0,0:0:0:0:
320,339,118560,2,0,L|283:386,2,40
368,278,118956,6,0,L|321:159,1,120
251,121,119351,1,0,0:0:0:0:
251,121,119482,6,0,P|286:91|338:96,1,59.9999981689454
363,39,119745,2,0,P|407:51|433:96,1,59.9999981689454
194,309,120008,6,0,B|167:365|116:354|116:354|134:288|111:243|64:201,1,209.999993591309
251,121,120535,2,0,B|313:113|329:163|329:163|262:182|235:224|222:285,1,209.999993591309
60,165,121061,2,0,B|23:114|58:75|58:75|107:123|157:125|217:105,1,209.999993591309
243,229,121587,5,0,0:0:0:0:
103,247,121719,1,0,0:0:0:0:
158,118,121851,1,0,0:0:0:0:
194,309,122114,6,0,B|216:344|189:383|189:383|118:377|62:306|116:228,1,269.999991760254
251,121,122640,2,0,B|269:83|318:87|318:87|348:150|314:236|220:227,1,269.999991760254
60,164,123166,2,0,B|17:165|-3:121|-3:121|36:64|127:50|167:136,1,269.999991760254
194,309,123693,5,0,0:0:0:0:
251,121,123824,1,0,0:0:0:0:
60,164,123956,1,0,0:0:0:0:
464,202,124219,6,0,P|430:214|397:245,1,59.9999981689454
244,244,124482,2,0,P|279:243|322:259,1,59.9999981689454
489,335,124745,6,0,P|453:335|410:319,1,59.9999981689454
270,378,125008,2,0,P|303:365|336:334,1,59.9999981689454
369,301,125272,6,0,L|359:256,1,25
265,24,125535,6,0,P|302:41|330:74,1,59.9999981689454
346,181,125798,2,0,P|342:139|356:99,1,59.9999981689454
442,31,126061,2,0,P|408:54|366:62,1,59.9999981689454
142,133,126324,5,0,0:0:0:0:
218,122,126455,2,0,L|276:113,2,40
142,133,126850,5,0,0:0:0:0:
94,72,126981,2,0,L|57:25,2,40
142,133,127377,6,0,L|95:252,1,120
25,290,127903,6,0,P|60:320|112:315,1,59.9999981689454
137,372,128166,2,0,P|181:360|207:315,1,59.9999981689454
430,162,128430,6,0,B|454:106|408:62|408:62|362:89|362:89|302:79,1,209.999993591309
302,298,128956,2,0,B|338:346|398:329|398:329|398:275|398:275|437:228,1,209.999993591309
248,119,129482,2,0,B|187:126|172:187|172:187|219:213|219:213|240:270,1,209.999993591309
330,190,130008,1,0,0:0:0:0:
330,190,130272,1,0,0:0:0:0:
358,74,130535,6,0,B|266:60|266:60|234:40|219:20|219:20|177:42|163:82|183:133|199:139,1,255.000004863739
409,283,131061,2,0,B|467:210|467:210|500:192|525:189|525:189|527:142|499:110|445:101|432:112,1,255.000004863739
202,222,131587,2,0,B|235:308|235:308|234:346|224:369|224:369|264:394|306:386|340:344|337:327,1,255.000004863739
330,190,132114,1,0,0:0:0:0:
138,334,132377,6,0,B|89:343|89:343|29:279,1,100
14,107,132640,6,0,L|9:28,1,59.9999981689454
241,132,132903,2,0,L|265:57,1,59.9999981689454
88,99,133166,6,0,L|83:20,1,59.9999981689454
172,107,133429,2,0,L|197:32,1,59.9999981689454
123,175,133692,1,0,0:0:0:0:
123,175,133956,5,0,0:0:0:0:
72,249,134219,2,0,L|48:325,1,59.9999981689454
156,257,134482,2,0,L|162:337,1,59.9999981689454
368,278,134745,5,0,0:0:0:0:
444,289,134876,2,0,L|502:298,2,40
368,278,135271,5,0,0:0:0:0:
320,339,135402,2,0,L|283:386,2,40
368,278,135798,6,0,L|321:159,1,120
251,121,136193,1,0,0:0:0:0:
251,121,136324,6,0,P|286:91|370:98,1,120
376,103,136851,5,0,0:0:0:0:
