osu file format v14

[General]
AudioFilename: audio.mp3
AudioLeadIn: 0
PreviewTime: 64437
Countdown: 0
SampleSet: Drum
StackLeniency: 0.5
Mode: 0
LetterboxInBreaks: 0
WidescreenStoryboard: 1

[Editor]
Bookmarks: 255064,263064
DistanceSpacing: 0.2
BeatDivisor: 16
GridSize: 8
TimelineZoom: 2.3

[Metadata]
Title:Sorry Jack
TitleUnicode:Sorry Jack
Artist:Scratch21
ArtistUnicode:Scratch21
Creator:Shiny Braixen
Version:dPeace's Insane
Source:
Tags:Alternative Rock Pop Punk Emo English dPeace Furry Matt Robinson Cooper Mathers Ed Flint Riley Crompton Blake Swift ShadyVox
BeatmapID:4009245
BeatmapSetID:1920057

[Difficulty]
HPDrainRate:6
CircleSize:4.2
OverallDifficulty:8
ApproachRate:8.7
SliderMultiplier:1.8
SliderTickRate:1

[Events]
//Background and Video events
0,0,"Cute Furries.jpg",0,0
Video,44,"Move on.mp4"
//Break Periods
2,152000,156973
//Storyboard Layer 0 (Background)
//Storyboard Layer 1 (Fail)
//Storyboard Layer 2 (Pass)
//Storyboard Layer 3 (Foreground)
//Storyboard Layer 4 (Overlay)
//Storyboard Sound Samples
Sample,44164,0,"beep.wav",85
Sample,99800,0,"beep.wav",85

[TimingPoints]
528,363.636363636364,4,3,0,30,1,0
528,-333.333333333333,4,3,0,30,0,0
6346,-166.666666666667,4,3,0,40,0,0
9255,-166.666666666667,4,3,0,50,0,0
11437,-166.666666666667,4,3,0,50,0,0
12164,-83.3333333333333,4,3,0,60,0,0
12528,-66.6666666666667,4,3,0,60,0,0
13073,-83.3333333333333,4,3,0,60,0,0
13982,-66.6666666666667,4,3,0,60,0,0
14346,-83.3333333333333,4,3,0,60,0,0
14709,-83.3333333333333,4,3,0,60,0,0
15437,-58.8235294117647,4,3,0,60,0,0
15982,-83.3333333333333,4,3,0,60,0,0
17255,-166.666666666667,4,3,0,60,0,0
17982,-66.6666666666667,4,3,0,60,0,0
18891,-83.3333333333333,4,3,0,60,0,0
19800,-55.5555555555556,4,3,0,60,0,0
20164,-66.6666666666667,4,3,0,60,0,0
21255,-83.3333333333333,4,3,0,60,0,0
21800,-83.3333333333333,4,3,0,60,0,0
23073,-83.3333333333333,4,3,0,80,0,0
23255,-166.666666666667,4,3,0,60,0,0
23437,-166.666666666667,4,3,0,80,0,0
23618,-166.666666666667,4,3,0,60,0,0
23800,-58.8235294117647,4,3,0,80,0,0
24709,-71.4285714285714,4,3,0,80,0,0
25618,-76.9230769230769,4,3,0,80,0,0
25982,-71.4285714285714,4,3,0,80,0,0
27073,-71.4285714285714,4,3,0,80,0,0
27982,-71.4285714285714,4,3,0,80,0,0
28528,-76.9230769230769,4,3,0,80,0,0
28891,-90.9090909090909,4,3,0,80,0,0
29255,-166.666666666667,4,3,0,80,0,0
29618,-58.8235294117647,4,3,0,80,0,0
30528,-71.4285714285714,4,3,0,80,0,0
31437,-55.5555555555556,4,3,0,80,0,0
31800,-83.3333333333333,4,3,0,80,0,0
32528,-58.8235294117647,4,3,0,80,0,0
33073,-45.4545454545455,4,3,0,80,0,0
33437,-71.4285714285714,4,3,0,80,0,0
33982,-83.3333333333333,4,3,0,80,0,0
34346,-66.6666666666667,4,3,0,80,0,0
35437,-71.4285714285714,4,3,0,55,0,0
35982,-100,4,3,0,55,0,0
44194,-100,4,3,0,5,0,0
44528,-100,4,3,0,55,0,0
55800,-90.9090909090909,4,3,0,55,0,0
57255,-100,4,3,0,55,0,0
58346,-133.333333333333,4,3,0,55,0,0
63982,-83.3333333333333,4,3,0,55,0,0
64118,-83.3333333333333,4,3,0,55,0,0
64164,-71.4285714285714,4,3,0,55,0,0
64528,-76.9230769230769,4,3,0,70,0,0
65255,-58.8235294117647,4,3,0,70,0,0
65800,-66.6666666666667,4,3,0,70,0,0
66709,-58.8235294117647,4,3,0,70,0,0
67073,-76.9230769230769,4,3,0,70,0,0
67437,-66.6666666666667,4,3,0,70,0,0
68164,-58.8235294117647,4,3,0,70,0,0
68528,-66.6666666666667,4,3,0,70,0,0
68709,-76.9230769230769,4,3,0,70,0,0
69437,-58.8235294117647,4,3,0,70,0,0
69982,-76.9230769230769,4,3,0,70,0,0
70891,-100,4,3,0,70,0,0
71346,-100,4,3,0,70,0,0
72891,-66.6666666666667,4,3,0,70,0,0
73255,-333.333333333333,4,3,0,70,0,0
74709,-100,4,3,0,70,0,0
76164,-76.9230769230769,4,3,0,75,0,0
76891,-58.8235294117647,4,3,0,75,0,0
77437,-76.9230769230769,4,3,0,75,0,0
78346,-58.8235294117647,4,3,0,75,0,0
78709,-66.6666666666667,4,3,0,75,0,0
79073,-66.6666666666667,4,3,0,75,0,0
79800,-58.8235294117647,4,3,0,75,0,0
80346,-76.9230769230769,4,3,0,75,0,0
81982,-76.9230769230769,4,3,0,75,0,0
82164,-66.6666666666667,4,3,0,75,0,0
84528,-76.9230769230769,4,3,0,75,0,0
85618,-66.6666666666667,4,3,0,75,0,0
86709,-76.9230769230769,4,3,0,75,0,0
87073,-100,4,3,0,75,0,0
87800,-76.9230769230769,4,3,0,60,0,0
88164,-58.8235294117647,4,3,0,60,0,0
88709,-71.4285714285714,4,3,0,60,0,0
91073,-71.4285714285714,4,3,0,60,0,0
92528,-66.6666666666667,4,3,0,60,0,0
93618,-71.4285714285714,4,3,0,60,0,0
94164,-100,4,3,0,60,0,0
96528,-100,4,3,0,60,0,0
99073,-500,4,3,0,60,0,0
99437,-76.9230769230769,4,3,0,50,0,0
99831,-76.9230769230769,4,3,0,5,0,0
100164,-76.9230769230769,4,3,0,55,0,0
101073,-100,4,3,0,55,0,0
113982,-90.9090909090909,4,3,0,55,0,0
115800,-100,4,3,0,55,0,0
116528,-133.333333333333,4,3,0,55,0,0
122346,-83.3333333333333,4,3,0,55,0,0
122709,-66.6666666666667,4,3,0,70,0,0
123436,-58.8235294117647,4,3,0,70,0,0
123981,-66.6666666666667,4,3,0,70,0,0
124891,-58.8235294117647,4,3,0,70,0,0
125254,-76.9230769230769,4,3,0,70,0,0
125618,-66.6666666666667,4,3,0,70,0,0
126345,-58.8235294117647,4,3,0,70,0,0
126890,-76.9230769230769,4,3,0,70,0,0
127618,-58.8235294117647,4,3,0,70,0,0
128164,-76.9230769230769,4,3,0,70,0,0
129072,-100,4,3,0,70,0,0
129527,-83.3333333333333,4,3,0,70,0,0
130528,-100,4,3,0,70,0,0
131073,-66.6666666666667,4,3,0,70,0,0
131437,-333.333333333333,4,3,0,70,0,0
132890,-100,4,3,0,70,0,0
134345,-76.9230769230769,4,3,0,75,0,0
135073,-58.8235294117647,4,3,0,75,0,0
135618,-76.9230769230769,4,3,0,75,0,0
136528,-58.8235294117647,4,3,0,75,0,0
136891,-76.9230769230769,4,3,0,75,0,0
137437,-66.6666666666667,4,3,0,75,0,0
137982,-58.8235294117647,4,3,0,75,0,0
138528,-76.9230769230769,4,3,0,75,0,0
140346,-66.6666666666667,4,3,0,75,0,0
142709,-76.9230769230769,4,3,0,75,0,0
143255,-66.6666666666667,4,3,0,75,0,0
144528,-76.9230769230769,4,3,0,75,0,0
145255,-100,4,3,0,75,0,0
145982,-500,4,3,0,60,0,0
157618,-250,4,3,0,50,0,0
169255,-250,4,3,0,50,0,0
172164,-250,4,3,0,60,0,0
180891,-500,4,3,0,60,0,0
188618,-500,4,3,0,60,0,0
188709,-500,4,3,0,60,0,0
188740,-500,4,3,0,60,0,0
188800,-100,4,3,0,60,0,0
189618,-83.3333333333333,4,3,0,60,0,0
192528,-76.9230769230769,4,3,0,70,0,0
193255,-58.8235294117647,4,3,0,70,0,0
193800,-66.6666666666667,4,3,0,70,0,0
194709,-58.8235294117647,4,3,0,70,0,0
195073,-76.9230769230769,4,3,0,70,0,0
195437,-66.6666666666667,4,3,0,70,0,0
196164,-58.8235294117647,4,3,0,70,0,0
196709,-76.9230769230769,4,3,0,70,0,0
197437,-58.8235294117647,4,3,0,70,0,0
197982,-76.9230769230769,4,3,0,70,0,0
198891,-100,4,3,0,70,0,0
199346,-83.3333333333333,4,3,0,70,0,0
200300,-100,4,3,0,70,0,0
200891,-66.6666666666667,4,3,0,70,0,0
201209,-333.333333333333,4,3,0,70,0,0
202709,-100,4,3,0,70,0,0
204164,-76.9230769230769,4,3,0,75,0,0
204891,-58.8235294117647,4,3,0,75,0,0
205437,-76.9230769230769,4,3,0,75,0,0
206346,-58.8235294117647,4,3,0,75,0,0
206709,-66.6666666666667,4,3,0,75,0,0
208346,-76.9230769230769,4,3,0,75,0,0
210164,-66.6666666666667,4,3,0,75,0,0
212161,-76.9230769230769,4,3,0,75,0,0
213618,-66.6666666666667,4,3,0,75,0,0
214346,-100,4,3,0,75,0,0
215800,-76.9230769230769,4,3,0,90,0,0
216528,-58.8235294117647,4,3,0,90,0,0
217072,-66.6666666666667,4,3,0,90,0,0
217981,-58.8235294117647,4,3,0,90,0,0
218345,-76.9230769230769,4,3,0,90,0,0
218709,-66.6666666666667,4,3,0,90,0,0
219436,-58.8235294117647,4,3,0,90,0,0
219528,-62.5,4,3,0,90,0,0
219981,-76.9230769230769,4,3,0,90,0,0
220709,-58.8235294117647,4,3,0,90,0,0
221254,-76.9230769230769,4,3,0,90,0,0
222163,-100,4,3,0,90,0,0
223572,-100,4,3,0,90,0,0
224163,-66.6666666666667,4,3,0,90,0,0
224481,-333.333333333333,4,3,0,90,0,0
225981,-100,4,3,0,90,0,0
227436,-76.9230769230769,4,3,0,85,0,0
228163,-58.8235294117647,4,3,0,85,0,0
228709,-76.9230769230769,4,3,0,85,0,0
229618,-58.8235294117647,4,3,0,85,0,0
229981,-66.6666666666667,4,3,0,85,0,0
231073,-58.8235294117647,4,3,0,85,0,0
231618,-76.9230769230769,4,3,0,85,0,0
232528,-58.8235294117647,4,3,0,85,0,0
232891,-66.6666666666667,4,3,0,85,0,0
233436,-66.6666666666667,4,3,0,85,0,0
235433,-76.9230769230769,4,3,0,85,0,0
236890,-66.6666666666667,4,3,0,85,0,0
237618,-76.9230769230769,4,3,0,85,0,0
237982,-76.9230769230769,4,3,0,85,0,0
238346,-100,4,3,0,85,0,0
239073,-71.4285714285714,4,3,0,70,0,0
239437,-66.6666666666667,4,3,0,70,0,0
239982,-83.3333333333333,4,3,0,70,0,0
241254,-83.3333333333333,4,3,0,70,0,0
242346,-66.6666666666667,4,3,0,70,0,0
242891,-83.3333333333333,4,3,0,70,0,0
244528,-166.666666666667,4,3,0,70,0,0
245255,-83.3333333333333,4,3,0,70,0,0
248164,-66.6666666666667,4,3,0,70,0,0
248709,-83.3333333333333,4,3,0,70,0,0
250709,-100,4,3,0,60,0,0
251073,-95.2380952380952,4,3,0,60,0,0
251437,-90.9090909090909,4,3,0,60,0,0
251800,-86.9565217391304,4,3,0,60,0,0
252164,-83.3333333333333,4,3,0,60,0,0
252528,-80,4,3,0,60,0,0
252891,-76.9230769230769,4,3,0,60,0,0
253255,-74.0740740740741,4,3,0,60,0,0
253618,-71.4285714285714,4,3,0,70,0,0
253982,-68.9655172413793,4,3,0,70,0,0
254346,-66.6666666666667,4,3,0,70,0,0
254709,-64.5161290322581,4,3,0,70,0,0
255073,-62.5,4,3,0,70,0,0
255437,-60.6060606060606,4,3,0,70,0,0
255800,-58.8235294117647,4,3,0,70,0,0
256164,-57.1428571428571,4,3,0,70,0,0
256528,-100,4,3,0,80,0,0
256891,-95.2380952380952,4,3,0,80,0,0
257255,-90.9090909090909,4,3,0,80,0,0
257618,-86.9565217391304,4,3,0,80,0,0
257982,-83.3333333333333,4,3,0,80,0,0
258346,-80,4,3,0,80,0,0
258709,-76.9230769230769,4,3,0,80,0,0
259073,-74.0740740740741,4,3,0,80,0,0
259437,-71.4285714285714,4,3,0,90,0,0
259800,-68.9655172413793,4,3,0,90,0,0
260164,-66.6666666666667,4,3,0,90,0,0
260528,-64.5161290322581,4,3,0,90,0,0
260846,-133.333333333333,4,3,0,90,0,0
260892,-133.333333333333,4,3,0,70,0,0
262164,-333.333333333333,4,3,0,50,0,0
262346,-333.333333333333,4,3,0,50,0,0
262528,-333.333333333333,4,3,0,5,0,0
263073,-333.333333333333,4,3,0,10,0,0

[Colours]
Combo1 : 147,147,255
Combo2 : 255,87,6
Combo3 : 153,77,77
Combo4 : 255,128,64

[HitObjects]
89,94,528,6,0,L|79:59,2,26.9999991760254,2|2|2,0:2|0:2|0:2,0:0:0:0:
160,149,1255,2,0,L|170:125,1,26.9999991760254,0|2,0:2|0:2,0:0:0:0:
162,241,1800,2,0,L|217:226,1,53.9999983520508,2|2,0:2|0:2,0:0:0:0:
108,313,2346,2,0,L|140:333,1,26.9999991760254,2|0,0:2|0:2,0:2:0:0:
17,330,2709,1,2,0:2:0:0:
21,356,2890,1,0,0:0:0:0:
26,383,3072,1,2,0:2:0:0:
93,273,3437,6,0,L|74:243,2,26.9999991760254,2|2|2,0:2|0:2|0:2,0:0:0:0:
187,291,4164,2,0,L|190:256,1,26.9999991760254,0|2,0:2|0:2,0:0:0:0:
260,348,4709,2,0,L|306:311,1,53.9999983520508,2|2,0:2|0:2,0:0:0:0:
386,365,5255,2,0,L|394:337,1,26.9999991760254,2|0,0:2|0:0,0:2:0:0:
478,299,5618,2,0,L|467:274,2,26.9999991760254,2|0|2,0:2|0:0|0:2,0:0:0:0:
478,299,6346,1,6,0:2:0:0:
480,291,6527,1,2,0:2:0:0:
480,285,6709,1,2,0:2:0:0:
480,277,6891,1,2,0:2:0:0:
478,271,7073,1,2,0:2:0:0:
475,264,7255,1,2,0:2:0:0:
470,258,7436,1,0,0:2:0:0:
465,253,7618,1,2,0:2:0:0:
373,242,7800,5,0,0:2:0:0:
363,237,7982,1,2,0:2:0:0:
355,230,8164,1,2,0:2:0:0:
353,221,8346,1,0,0:0:0:0:
352,212,8528,1,2,0:2:0:0:
355,203,8709,1,0,0:2:0:0:
359,194,8891,1,2,0:2:0:0:
366,187,9073,1,0,0:2:0:0:
452,156,9255,5,2,0:2:0:0:
457,143,9437,1,2,0:2:0:0:
456,128,9618,1,2,0:2:0:0:
450,109,9800,1,2,0:2:0:0:
434,91,9982,1,2,0:2:0:0:
396,81,10164,1,2,0:2:0:0:
351,97,10346,1,0,0:2:0:0:
294,86,10528,1,2,0:2:0:0:
257,11,10709,5,0,0:2:0:0:
256,192,10800,12,0,12073,0:0:0:0:
105,7,12164,5,6,3:3:0:0:
7,99,12346,1,8,0:0:0:0:
142,260,12528,2,0,B|194:169|121:98|121:98|114:153|52:180,1,270.000010299683,4|0,0:0|0:0,0:0:0:0:
198,42,13073,6,0,B|243:78|298:70|298:70,1,107.999996704102,12|8,0:0|0:3,0:0:0:0:
372,145,13346,1,0,0:0:0:0:
358,168,13437,2,0,B|302:159|257:196,1,107.999996704102,0|4,0:0|3:3,0:0:0:0:
490,38,13800,5,8,0:0:0:0:
463,126,13982,1,4,0:0:0:0:
398,62,14164,1,0,0:0:0:0:
335,268,14346,5,8,0:0:0:0:
454,153,14528,1,4,0:0:0:0:
496,318,14709,1,4,0:0:0:0:
430,246,14891,1,0,0:0:0:0:
430,246,14982,1,0,0:0:0:0:
430,246,15073,5,4,3:3:0:0:
355,365,15255,1,8,0:0:0:0:
242,294,15437,2,0,B|233:193|321:175|321:175|274:159|252:102,1,229.500004377365,4|0,0:0|0:0,0:0:0:0:
291,45,15800,1,0,0:0:0:0:
98,5,15982,6,0,B|97:2|103:59|69:107,1,107.999996704102,8|8,0:0|0:3,0:0:0:0:
156,141,16255,1,0,0:0:0:0:
173,154,16346,2,0,B|173:157|167:99|201:51,1,107.999996704102,0|4,0:0|0:0,0:0:0:0:
17,185,16709,5,0,0:0:0:0:
45,277,16891,1,8,0:0:0:0:
135,249,17073,1,0,0:0:0:0:
296,359,17255,5,4,0:0:0:0:
254,236,17437,1,0,0:0:0:0:
137,274,17618,2,0,B|134:311|157:335|157:335,1,53.9999983520508,8|0,0:0|0:0,0:0:0:0:
392,301,17982,5,4,3:3:0:0:
267,257,18164,1,0,0:0:0:0:
380,113,18346,2,0,B|417:151|395:209|349:219,2,135.000005149842,8|0|4,0:3|0:0|3:3,0:0:0:0:
502,67,18891,6,0,P|451:48|404:22,1,107.999996704102,0|8,0:0|0:3,0:0:0:0:
297,16,19164,1,2,0:0:0:0:
309,35,19255,2,0,P|290:86|264:133,1,107.999996704102,0|4,0:0|0:0,0:0:0:0:
173,250,19618,5,6,0:0:0:0:
265,226,19800,1,8,0:3:0:0:
288,317,19982,1,0,0:0:0:0:
154,265,20165,5,4,0:0:0:0:
113,384,20347,1,0,0:0:0:0:
0,340,20528,1,8,0:0:0:0:
40,235,20709,1,0,0:0:0:0:
40,235,20800,1,0,0:0:0:0:
40,235,20891,5,4,3:3:0:0:
160,171,21073,1,0,0:0:0:0:
146,40,21255,1,8,0:3:0:0:
23,31,21437,2,0,B|4:100|52:131|52:131|47:93|67:67,1,161.999995056153
222,104,21800,6,0,P|287:108|328:128,1,107.999996704102,0|8,0:0|0:3,0:0:0:0:
416,26,22073,1,0,0:0:0:0:
427,3,22164,2,0,P|377:23|323:25,1,107.999996704102,0|4,0:0|0:0,0:0:0:0:
449,207,22528,5,0,0:0:0:0:
508,134,22709,1,8,0:3:0:0:
416,120,22891,1,0,0:0:0:0:
483,295,23073,5,4,0:0:0:0:
371,370,23255,1,8,0:0:0:0:
361,244,23437,2,0,L|310:168,1,80.9999975280763,4|0,0:0|0:0,0:0:0:0:
213,108,23800,5,6,3:3:0:0:
159,217,23982,1,4,0:0:0:0:
24,86,24164,2,0,B|49:62|34:7|34:7|90:-4|129:45|129:45|122:132|72:170,1,306.000005836487,8|4,0:3|0:0,0:0:0:0:
0,245,24709,6,0,B|-33:317|40:392|113:370,1,188.999994232178
90,279,25073,2,0,B|157:269|228:271|228:271,1,125.999996154785,0|8,0:0|0:0,0:0:0:0:
400,384,25437,5,6,0:0:0:0:
311,269,25618,1,4,0:0:0:0:
269,350,25800,1,0,0:0:0:0:
403,289,25982,2,2,L|466:299,2,62.9999980773926,6|2|2,3:3|0:0|0:0,0:0:0:0:
326,171,26346,2,2,L|263:181,2,62.9999980773926,10|2|2,0:3|0:0|0:0,0:0:0:0:
485,7,26709,5,6,3:3:0:0:
425,185,26891,1,0,0:0:0:0:
322,61,27073,1,8,0:0:0:0:
413,91,27255,2,0,B|479:97|543:113|543:113,1,125.999996154785
322,61,27618,5,2,0:0:0:0:
322,61,27708,1,2,0:0:0:0:
322,61,27799,1,10,0:0:0:0:
105,95,27982,2,0,B|49:92|37:16|78:-1|78:-1|114:-2|129:28,1,188.999994232178
198,108,28346,5,4,0:0:0:0:
44,173,28528,1,8,0:0:0:0:
182,283,28709,1,0,0:0:0:0:
137,183,28891,5,6,0:0:0:0:
88,261,29073,1,0,0:0:0:0:
229,200,29255,2,0,P|257:221|265:246,1,53.9999983520508,8|0,0:3|0:0,0:0:0:0:
56,382,29618,5,6,3:3:0:0:
173,310,29800,1,0,0:0:0:0:
294,372,29982,2,0,B|351:389|397:353|407:300|407:300|457:280|515:337|500:392,1,306.000005836487,8|4,0:0|0:0,0:0:0:0:
310,280,30528,6,0,B|337:222|333:156,1,125.999996154785
401,96,30800,1,0,0:0:0:0:
420,80,30891,2,0,B|416:145|443:203|443:203,1,125.999996154785,0|4,0:0|0:0,0:0:0:0:
301,32,31255,5,6,0:0:0:0:
210,193,31437,1,8,0:0:0:0:
187,9,31618,1,0,0:0:0:0:
313,143,31800,5,4,0:0:0:0:
229,98,31982,1,0,0:0:0:0:
133,108,32164,1,8,0:0:0:0:
52,57,32346,1,2,0:0:0:0:
52,57,32437,1,2,0:0:0:0:
52,57,32528,5,6,3:3:0:0:
6,168,32709,1,0,0:0:0:0:
143,285,32891,2,0,B|130:240|153:202|153:202|9:238|38:386,1,306.000005836487,8|0,0:3|0:0,0:0:0:0:
177,373,33437,5,2,0:0:0:0:
206,362,33528,1,2,0:0:0:0:
237,354,33618,1,10,0:0:0:0:
365,238,33800,2,0,B|301:265|241:258,1,125.999996154785,0|4,0:0|0:0,0:0:0:0:
393,348,34164,5,2,0:0:0:0:
476,275,34346,1,8,0:0:0:0:
427,148,34528,1,0,0:0:0:0:
261,237,34709,2,0,P|270:211|296:170,1,67.5000025749208,6|0,3:3|0:0,0:0:0:0:
379,4,34891,5,8,0:0:0:0:
339,82,35073,5,12,0:3:0:0:
264,33,35255,5,12,0:0:0:0:
223,114,35437,6,0,B|154:154|96:108|96:108|61:43|-17:54,1,251.999992309571,4|8,0:0|0:0,0:0:0:0:
170,8,35982,6,0,B|141:45|132:89|132:89,1,90,0|4,0:0|0:0,0:0:0:0:
7,208,36346,2,0,B|36:171|45:127|45:127,1,90,0|8,0:0|0:0,0:0:0:0:
221,170,36709,5,4,0:0:0:0:
85,375,37073,6,0,B|72:335|68:287,1,90,8|0,0:0|0:0,0:0:0:0:
125,208,37437,2,0,B|183:283|261:328,1,180,4|0,0:0|0:0,0:0:0:0:
179,383,37982,1,8,0:0:0:0:
342,368,38164,1,4,0:0:0:0:
342,368,38528,6,0,B|380:341|423:327|423:327,1,90,4|0,0:0|0:0,0:0:0:0:
512,372,38891,1,0,0:0:0:0:
503,279,39073,1,4,0:0:0:0:
332,266,39255,6,0,B|330:215|308:166|308:166,1,90,0|8,0:0|0:0,0:0:0:0:
421,232,39618,2,0,B|412:242|444:198|487:171,1,90,0|4,0:0|0:0,0:0:0:0:
391,127,39982,2,0,B|389:76|367:27|367:27,1,90,0|8,0:0|0:0,0:0:0:0:
483,81,40346,1,4,0:0:0:0:
279,17,40709,5,0,0:0:0:0:
217,89,40891,2,0,B|169:104|133:126|133:126,1,90,8|4,0:0|0:0,0:0:0:0:
134,124,41437,5,0,0:0:0:0:
9,46,41618,1,8,0:0:0:0:
105,31,41800,1,0,0:0:0:0:
43,137,41982,1,4,0:0:0:0:
96,212,42164,2,0,B|69:254|70:305|70:305,1,90,0|8,0:0|0:0,0:0:0:0:
17,374,42528,2,0,B|101:320|187:311|187:311,2,180,0|0|4,0:0|0:0|0:0,0:0:0:0:
295,308,43618,5,0,0:0:0:0:
243,384,43800,1,8,0:0:0:0:
376,348,43982,1,0,0:0:0:0:
376,348,44528,5,8,0:0:0:0:
479,371,44709,2,0,B|476:272|443:174|443:174,1,180,4|0,0:0|0:0,0:0:0:0:
372,18,45255,1,8,0:0:0:0:
403,113,45436,1,8,0:0:0:0:
469,42,45618,1,4,0:0:0:0:
310,93,45800,2,0,B|256:96|217:114|217:114,1,90,8|0,0:0|0:0,0:0:0:0:
166,201,46164,2,0,B|134:147|71:160|71:160|52:82|105:17|177:35|177:35|145:44|126:69,1,360,4|8,0:0|0:0,0:0:0:0:
51,167,47073,5,4,0:0:0:0:
118,343,47255,5,0,0:0:0:0:
88,255,47437,1,8,0:0:0:0:
26,324,47618,1,0,0:0:0:0:
214,344,47800,5,4,0:0:0:0:
242,257,47982,1,0,0:0:0:0:
166,201,48164,1,8,0:0:0:0:
301,384,48346,6,0,B|343:362|392:360|392:360,1,90,0|4,0:0|0:0,0:0:0:0:
500,337,48709,2,0,B|461:311|434:270|434:270,1,90,0|8,0:0|0:0,0:0:0:0:
361,187,49073,2,0,B|359:234|336:277|336:277,1,90,4|0,0:0|0:0,0:0:0:0:
512,120,49437,5,0,0:0:0:0:
449,187,49618,1,8,0:0:0:0:
372,89,49800,1,0,0:0:0:0:
510,6,49982,6,0,B|450:75|337:75|337:75,1,180,4|8,0:0|0:0,0:0:0:0:
278,15,50528,1,0,0:0:0:0:
130,108,50709,1,4,0:0:0:0:
169,25,50891,1,0,0:0:0:0:
232,96,51073,1,8,0:0:0:0:
191,186,51255,5,0,0:0:0:0:
77,34,51618,5,8,0:0:0:0:
206,201,51982,6,0,B|161:229|117:204|117:204,1,90,0|4,0:0|0:0,0:0:0:0:
42,156,52346,1,4,0:0:0:0:
76,284,52528,1,8,0:0:0:0:
119,205,52709,1,4,0:0:0:0:
119,205,53073,5,0,0:0:0:0:
54,291,53255,1,8,0:0:0:0:
146,364,53437,1,0,0:0:0:0:
218,281,53618,1,4,0:0:0:0:
268,360,53800,5,0,0:0:0:0:
353,331,53982,1,8,0:0:0:0:
440,300,54164,2,0,B|485:328|501:380|501:380,1,90,0|4,0:0|0:0,0:0:0:0:
358,356,54528,5,0,0:0:0:0:
334,242,54709,1,8,0:0:0:0:
315,151,54891,2,0,B|368:133|397:108|397:108,2,90,4|0|0,0:0|0:0|0:0,0:0:0:0:
422,210,55437,5,8,0:0:0:0:
422,210,55618,1,0,0:0:0:0:
486,145,55800,6,0,B|510:16|383:8|383:8,1,198.000006042481,4|0,0:0|0:0,0:0:0:0:
129,8,56528,6,0,B|2:16|26:145,1,198.000006042481,8|0,0:0|0:0,0:0:0:0:
330,178,57255,6,0,B|345:133|380:98,1,90,4|0,0:0|0:0,0:0:0:0:
256,114,57618,2,0,L|256:18,1,90,8|0,0:0|0:0,0:0:0:0:
182,178,57982,2,0,B|166:133|132:98,1,90,4|0,0:0|0:0,0:0:0:0:
256,233,58346,5,12,0:0:0:0:
8,336,58709,5,4,0:0:0:0:
8,336,58891,1,4,0:0:0:0:
69,271,59073,2,0,L|75:193,1,67.5000025749208,8|4,0:0|0:0,0:0:0:0:
132,378,59437,1,4,0:0:0:0:
160,293,59618,2,0,L|166:215,1,67.5000025749208,8|4,0:0|0:0,0:0:0:0:
246,358,59982,2,0,L|252:280,1,67.5000025749208,8|4,0:0|0:0,0:0:0:0:
339,312,60346,2,0,L|345:234,1,67.5000025749208,4|8,0:0|0:0,0:0:0:0:
410,377,60709,1,4,0:0:0:0:
486,326,60891,6,0,L|454:300,1,33.7500012874604,4|12,0:0|0:0,0:0:0:0:
433,283,61073,1,4,0:0:0:0:
512,230,61255,1,4,0:0:0:0:
512,230,61346,1,12,0:0:0:0:
512,230,61437,1,4,0:0:0:0:
512,33,61618,5,4,0:0:0:0:
512,33,61800,1,4,0:0:0:0:
439,90,61982,2,0,L|432:159,1,67.5000025749208,8|4,0:0|0:0,0:0:0:0:
356,3,62346,1,4,0:0:0:0:
346,97,62528,2,0,L|339:166,1,67.5000025749208,8|4,0:0|0:0,0:0:0:0:
246,104,62891,1,8,0:0:0:0:
396,240,63073,5,4,0:0:0:0:
396,240,63982,5,4,0:0:0:0:
316,280,64164,6,0,L|302:242,1,31.4999990386963,8|0,2:1|0:0,0:0:0:0:
27,111,64528,6,0,B|86:52|153:101,1,116.999994644165,4|12,0:0|0:0,0:0:0:0:
221,56,64800,2,0,B|196:3|114:-8|114:-8,1,116.999994644165,8|8,0:0|0:0,0:0:0:0:
97,169,65073,1,4,0:0:0:0:
232,30,65255,6,0,B|270:8|311:19|311:19|362:81|362:81|401:89|441:71,1,229.500004377365,4|0,0:0|0:0,0:3:0:0:
500,18,65618,1,0,0:0:0:0:
337,89,65800,6,0,B|286:148|316:218|316:218,1,135.000005149842,8|0,0:0|0:0,0:0:0:0:
448,194,66164,1,0,0:0:0:0:
429,176,66254,1,4,0:0:0:0:
405,166,66345,1,6,0:0:0:0:
244,278,66528,1,0,0:0:0:0:
469,378,66709,6,0,B|459:331|413:318|417:337|371:309|389:266|389:266|417:296|395:357|395:357,1,229.500004377365,8|0,0:0|0:0,0:0:0:0:
320,383,67073,2,0,P|270:370|198:368,1,116.999994644165,4|0,0:0|0:0,0:0:0:0:
65,171,67437,6,0,B|63:152|107:118|160:193|117:239|117:239,1,135.000005149842,12|0,0:0|0:0,0:0:0:0:
0,302,67709,1,2,0:0:0:0:
7,278,67800,2,0,B|55:294|95:330|95:330|117:327|136:319,1,135.000005149842,12|0,0:0|0:0,0:0:0:0:
218,189,68164,6,0,B|214:119|146:76|146:76|146:26|106:-4,1,229.500004377365,4|0,0:0|0:0,0:0:0:0:
51,69,68528,1,8,0:0:0:0:
255,36,68709,6,0,P|261:-7|235:27,1,116.999994644165,4|0,0:0|0:0,0:0:0:0:
303,116,68982,1,2,0:0:0:0:
323,102,69073,2,0,B|370:65|368:-8|368:-8,1,116.999994644165,4|0,0:0|0:0,0:0:0:0:
511,38,69437,1,4,0:0:0:0:
459,210,69618,6,0,B|403:155|441:95|441:95|458:152|516:179,1,229.500004377365,8|0,0:0|0:0,0:0:0:0:
512,285,69982,2,0,B|487:299|466:325|466:325|445:305|419:294,1,116.999994644165,4|0,0:0|0:0,0:0:0:0:
230,367,70346,5,4,0:0:0:0:
352,231,70528,1,8,0:0:0:0:
360,366,70709,1,4,0:0:0:0:
218,231,70891,2,0,B|228:180|246:142|246:142,1,90,10|0,0:0|0:0,0:0:0:0:
338,55,71255,5,2,0:0:0:0:
335,145,71437,1,0,0:0:0:0:
419,108,71618,1,0,0:0:0:0:
153,114,71800,5,4,0:0:0:0:
138,23,71982,1,8,0:0:0:0:
66,83,72164,1,4,0:0:0:0:
228,66,72346,2,0,B|251:45|241:19|241:19|220:36|226:66,1,90,8|8,0:0|0:0,0:0:0:0:
240,154,72709,5,2,0:0:0:0:
254,168,72800,1,2,0:0:0:0:
268,183,72891,2,0,B|280:262|280:262|264:319|264:319,1,135.000005149842,4|0,0:0|0:0,0:0:0:0:
62,368,73255,6,0,L|35:333,1,40.4999987640381,8|0,0:0|0:0,0:0:0:0:
92,266,73618,6,0,L|67:233,1,40.4999987640381,4|0,0:0|0:0,0:0:0:0:
148,341,73982,6,0,L|172:373,1,40.4999987640381,8|0,0:0|0:0,0:0:0:0:
336,334,74346,5,4,0:0:0:0:
234,308,74528,1,8,0:0:0:0:
423,384,74709,5,8,0:0:0:0:
455,229,74891,1,4,0:0:0:0:
479,125,75073,1,8,0:0:0:0:
369,254,75255,6,0,B|324:197|302:146|302:146,1,90,4|0,0:0|0:0,0:0:0:0:
276,22,75618,5,4,0:0:0:0:
306,2,75709,1,4,0:0:0:0:
342,0,75800,1,4,0:0:0:0:
374,15,75891,1,4,0:0:0:0:
393,45,75982,1,4,0:0:0:0:
393,81,76073,1,4,0:0:0:0:
375,112,76164,6,0,B|304:108|244:161|244:161,1,116.999994644165,4|8,0:0|0:0,0:0:0:0:
225,221,76437,1,8,0:0:0:0:
32,183,76618,2,0,P|26:143|15:116,1,58.4999973220826,4|0,0:0|0:0,0:0:0:0:
121,36,76891,6,0,B|162:10|220:50|216:109|164:126|144:106|120:140|121:189,1,229.500004377365,8|0,0:0|0:0,0:0:0:0:
81,259,77255,1,4,0:0:0:0:
293,251,77437,6,0,B|301:240|301:240|264:195|203:192,1,116.999994644165,8|0,0:0|0:0,0:0:0:0:
80,285,77800,2,0,P|95:324|106:337,2,58.4999973220826,4|0|0,0:0|0:0|0:0,0:0:0:0:
121,180,78164,1,0,0:0:0:0:
186,374,78346,6,0,B|128:404|63:370|112:364|53:320|4:334|4:334|8:365|50:379,1,229.500004377365,8|0,0:0|0:0,0:0:0:0:
172,272,78709,2,0,B|197:269|241:287|224:302|261:326|303:328,1,135.000005149842,4|0,0:0|0:0,0:0:0:0:
475,354,79073,5,8,0:0:0:0:
376,381,79255,2,0,B|377:313|395:241|395:241,1,135.000005149842,4|0,0:0|0:0,0:0:0:0:
494,152,79618,1,0,0:0:0:0:
500,132,79709,1,2,0:0:0:0:
492,110,79800,2,0,B|396:60|344:159|388:131|284:292|183:160|183:160,1,306.000005836487,8|4,0:0|0:0,0:0:0:0:
67,178,80346,6,0,B|52:108|8:69|8:69|37:68|65:81,1,175.499991966248,8|2,0:0|0:0,0:0:0:0:
147,116,80709,2,0,P|219:83|361:56,1,175.499991966248,4|0,0:0|0:0,0:0:0:0:
385,7,81073,1,8,0:0:0:0:
128,23,81255,5,4,0:0:0:0:
501,200,81618,5,8,0:0:0:0:
1,382,81982,5,8,0:0:0:0:
50,277,82164,2,0,B|125:277|146:323|117:324|125:377|184:389|297:341|199:258|199:258,1,270.000010299683,4|8,0:0|0:0,0:0:0:0:
103,126,82618,1,0,0:0:0:0:
79,119,82709,2,0,P|91:185|151:191,1,135.000005149842,4|0,0:0|0:0,0:0:0:0:
371,209,83073,6,0,P|385:243|366:301,1,67.5000025749208,8|0,0:0|0:0,0:0:0:0:
364,384,83255,2,0,P|310:339|381:377,2,270.000010299683,4|4|2,0:0|0:0|0:0,0:0:0:0:
483,280,84164,5,4,0:0:0:0:
275,202,84346,1,8,0:0:0:0:
425,136,84528,2,0,B|476:83|421:23|421:23,1,116.999994644165,4|0,0:0|0:0,0:0:0:0:
267,37,84891,5,8,0:0:0:0:
333,133,85073,1,4,0:0:0:0:
291,36,85255,1,0,0:0:0:0:
154,19,85437,5,8,0:0:0:0:
71,142,85618,2,0,B|103:129|103:129|146:37,1,135.000005149842,4|0,0:0|0:0,0:0:0:0:
34,56,85982,5,8,0:0:0:0:
208,126,86164,2,0,B|232:188|232:188|152:355,1,202.500007724762,4|0,0:0|0:0,0:0:0:0:
34,328,86528,1,2,0:0:0:0:
17,314,86618,1,2,0:0:0:0:
6,293,86709,2,0,P|35:250|99:272,1,116.999994644165,4|0,0:0|0:0,0:0:0:0:
229,384,87073,5,4,0:0:0:0:
263,377,87164,1,4,0:0:0:0:
293,357,87255,1,4,0:0:0:0:
304,322,87346,1,4,0:0:0:0:
297,287,87437,1,4,0:0:0:0:
306,252,87528,1,4,0:0:0:0:
337,235,87618,1,4,0:0:0:0:
371,236,87709,1,4,0:0:0:0:
396,259,87800,5,4,0:0:0:0:
467,342,87982,1,0,0:0:0:0:
512,204,88164,2,0,B|487:172|433:165|433:165|426:33|310:-15,1,306.000005836487,8|4,0:0|0:0,0:0:0:0:
487,0,88709,6,0,B|438:20|371:82|371:82,1,125.999996154785
247,55,88982,1,0,0:0:0:0:
267,72,89073,2,0,B|305:114|336:187|336:187,1,125.999996154785,0|4,0:0|0:0,0:0:0:0:
39,119,89437,5,0,0:0:0:0:
64,31,89618,1,8,0:0:0:0:
155,61,89800,1,0,0:0:0:0:
101,239,89982,5,4,0:0:0:0:
11,211,90164,1,0,0:0:0:0:
221,177,90346,1,8,0:0:0:0:
245,89,90528,1,0,0:0:0:0:
129,148,90709,5,4,0:0:0:0:
223,201,90891,1,0,0:0:0:0:
173,330,91073,1,8,0:0:0:0:
45,347,91255,2,0,B|52:278|131:251|131:251,1,125.999996154785,0|4,0:0|0:0,0:0:0:0:
370,333,91618,6,0,P|303:348|255:380,1,125.999996154785,0|8,0:0|0:0,0:0:0:0:
360,239,91891,1,0,0:0:0:0:
383,230,91982,2,0,P|435:263|497:276,1,125.999996154785,0|4,0:0|0:0,0:0:0:0:
461,362,92346,5,0,0:0:0:0:
349,344,92528,1,8,0:0:0:0:
270,264,92709,1,0,0:0:0:0:
459,167,92891,2,0,P|423:143|380:126,1,67.5000025749208,4|0,0:0|0:0,0:0:0:0:
227,116,93073,5,8,0:0:0:0:
249,32,93255,5,4,0:0:0:0:
340,2,93437,5,12,0:0:0:0:
320,91,93618,6,0,P|224:48|54:35,1,251.999992309571,4|8,0:0|0:0,0:0:0:0:
44,202,94164,6,0,P|35:158|34:114,1,90,0|4,0:0|0:0,0:0:0:0:
128,120,94528,2,0,P|138:165|139:209,1,90,0|8,0:0|0:0,0:0:0:0:
0,368,94891,6,0,P|63:290|150:334,2,180,0|0|4,0:3|0:0|0:0,0:0:0:0:
221,293,95982,5,0,0:0:0:0:
183,380,96164,1,8,0:0:0:0:
237,307,96346,1,0,0:0:0:0:
317,357,96528,6,0,P|367:362|419:374,1,90,4|4,0:0|0:0,0:0:0:0:
492,337,96891,1,8,0:0:0:0:
492,337,97255,5,4,0:0:0:0:
382,271,97436,1,0,0:0:0:0:
474,247,97618,1,8,0:0:0:0:
312,179,97800,2,0,P|274:153|219:129,1,90,0|4,0:0|0:0,0:0:0:0:
367,99,98164,2,0,P|390:137|409:179,1,90,0|8,0:0|0:0,0:0:0:0:
478,113,98528,2,0,P|481:67|474:8,1,90,4|0,0:0|0:0,0:0:0:0:
477,23,99073,5,8,0:0:0:0:
194,29,99437,5,4,0:0:0:0:
284,58,99618,1,0,0:0:0:0:
284,58,100164,5,4,0:0:0:0:
194,53,100346,1,0,0:0:0:0:
121,106,100528,1,8,0:0:0:0:
101,193,100709,1,0,0:0:0:0:
139,277,100891,1,4,0:0:0:0:
225,245,101073,2,0,P|210:199|204:154,1,90,8|0,0:0|0:0,0:0:0:0:
23,83,101437,2,0,P|16:127|2:170,1,90,0|4,0:0|0:0,0:0:0:0:
2,170,101982,5,8,0:0:0:0:
90,210,102164,1,0,0:0:0:0:
49,367,102346,6,0,P|36:325|30:275,1,90,4|0,0:0|0:0,0:0:0:0:
150,383,102709,2,0,P|137:341|132:296,1,90,8|0,0:0|0:0,0:0:0:0:
245,223,103073,5,8,0:0:0:0:
224,313,103255,1,0,0:0:0:0:
337,247,103437,2,0,P|331:291|318:334,1,90,8|0,0:0|0:0,0:0:0:0:
425,303,103800,5,4,0:0:0:0:
472,384,103982,1,8,0:0:0:0:
461,221,104346,6,0,B|446:128|357:71|357:71|396:13|472:13|472:13|479:40|465:65,1,360,0|8,0:0|0:0,0:0:0:0:
395,152,105255,5,4,0:0:0:0:
269,28,105437,5,0,0:0:0:0:
178,70,105619,1,8,0:0:0:0:
98,18,105801,1,0,0:0:0:0:
7,61,105982,1,4,0:0:0:0:
133,194,106164,5,0,0:0:0:0:
89,117,106346,1,8,0:0:0:0:
38,185,106528,1,0,0:0:0:0:
187,90,106709,5,4,0:0:0:0:
227,172,106891,1,0,0:0:0:0:
203,259,107073,1,8,0:0:0:0:
114,284,107255,2,0,P|72:331|159:363,1,180,4|0,0:0|0:0,0:0:0:0:
218,275,107800,5,8,0:0:0:0:
280,349,107982,1,0,0:0:0:0:
424,384,108164,5,4,0:0:0:0:
382,303,108346,1,0,0:0:0:0:
293,326,108528,1,8,0:0:0:0:
390,285,108709,1,0,0:0:0:0:
477,263,108891,5,4,0:0:0:0:
435,182,109073,1,0,0:0:0:0:
346,205,109255,1,8,0:0:0:0:
324,195,109437,1,0,0:0:0:0:
394,27,109618,5,4,0:0:0:0:
368,113,109800,1,0,0:0:0:0:
302,0,109982,1,8,0:0:0:0:
278,87,110164,2,0,B|207:92|165:39|203:42|143:-35|55:-13|45:72|103:67,1,270,4|8,0:0|0:0,0:0:0:0:
86,64,111073,5,4,0:0:0:0:
173,193,111255,5,0,0:0:0:0:
81,214,111437,1,8,0:0:0:0:
177,98,111618,1,0,0:0:0:0:
30,136,111800,1,4,0:0:0:0:
145,287,111982,5,0,0:0:0:0:
22,348,112164,1,8,0:0:0:0:
107,384,112346,1,0,0:0:0:0:
123,295,112528,5,4,0:0:0:0:
200,365,112709,1,8,0:0:0:0:
261,269,112891,1,4,0:0:0:0:
361,366,113073,1,8,0:0:0:0:
361,366,113618,5,4,0:0:0:0:
447,327,113800,1,8,0:0:0:0:
436,201,113982,2,0,B|446:103|502:2|502:2,1,198.000006042481,4|8,0:0|0:0,0:0:0:0:
76,183,114709,6,0,B|66:281|10:382|10:382,2,198.000006042481,4|8|4,0:0|0:0|0:0,0:0:0:0:
356,250,115800,6,0,P|349:193|346:149,1,90,8|0,0:0|0:0,0:0:0:0:
156,134,116164,2,0,P|163:191|166:235,1,90,4|0,0:0|0:0,0:0:0:0:
256,192,116528,5,8,0:0:0:0:
512,384,116891,5,4,0:0:0:0:
512,384,117073,1,4,0:0:0:0:
436,328,117255,2,0,L|368:349,1,67.5000025749208,8|4,0:0|0:0,0:0:0:0:
477,242,117618,1,4,0:0:0:0:
381,249,117800,2,0,L|313:270,1,67.5000025749208,8|4,0:0|0:0,0:0:0:0:
398,146,118164,2,0,L|330:167,1,67.5000025749208,8|4,0:0|0:0,0:0:0:0:
328,71,118528,2,0,L|260:92,1,67.5000025749208,4|8,0:0|0:0,0:0:0:0:
395,11,118891,1,4,0:0:0:0:
454,78,119073,5,4,0:0:0:0:
45,17,119437,5,8,0:0:0:0:
20,27,119528,1,4,0:0:0:0:
5,49,119618,1,4,0:0:0:0:
0,75,119709,1,6,0:0:0:0:
6,101,119800,5,4,0:0:0:0:
98,114,119982,1,4,0:0:0:0:
189,131,120164,2,0,L|257:110,1,67.5000025749208,8|4,0:0|0:0,0:0:0:0:
87,257,120528,1,4,0:0:0:0:
175,230,120709,2,0,L|243:209,1,67.5000025749208,8|4,0:0|0:0,0:0:0:0:
153,377,121073,1,8,0:0:0:0:
0,286,121255,5,4,0:0:0:0:
0,286,122164,5,4,0:0:0:0:
56,374,122346,6,0,L|67:349,1,26.9999991760254,8|0,2:1|0:0,0:0:0:0:
507,109,122709,5,4,0:0:0:0:
305,185,122891,1,12,0:0:0:0:
282,185,122982,1,8,0:0:0:0:
445,35,123164,1,8,0:0:0:0:
464,22,123255,1,4,0:0:0:0:
462,190,123437,6,0,B|366:150|346:37|346:37|321:79|254:99,1,306.000005836487,4|0,0:0|0:0,0:3:0:0:
123,30,123982,6,0,P|193:4|266:0,1,135.000005149842,8|0,0:0|0:0,0:0:0:0:
77,114,124346,2,0,P|48:94|25:51,1,67.5000025749208,0|6,0:0|0:0,0:0:0:0:
25,46,124528,1,6,0:0:0:0:
172,111,124709,1,0,0:0:0:0:
2,249,124891,6,0,B|-3:217|28:192|28:192|128:215|101:340,1,229.500004377365,8|0,0:0|0:0,0:0:0:0:
0,384,125255,2,0,B|17:322|103:306|103:306,1,116.999994644165,4|0,0:0|0:0,0:0:0:0:
221,249,125618,6,0,P|241:206|192:233,1,135.000005149842,12|0,0:0|0:0,0:0:0:0:
194,335,125891,1,2,0:0:0:0:
211,348,125982,2,0,B|261:384|345:372|345:372,1,135.000005149842,12|0,0:0|0:0,0:0:0:0:
497,253,126346,6,0,B|404:246|397:299|397:299|451:279|506:324,1,229.500004377365,4|0,0:0|0:0,0:0:0:0:
436,384,126709,1,8,0:0:0:0:
306,282,126891,6,0,B|321:200|388:177|388:177,1,116.999994644165,4|0,0:0|0:0,0:0:0:0:
456,159,127164,1,2,0:0:0:0:
482,161,127255,2,0,B|550:119|494:58|494:58,1,116.999994644165,4|0,0:0|0:0,0:0:0:0:
384,101,127618,1,4,0:0:0:0:
228,23,127800,6,0,B|271:-47|390:-17|391:82,1,229.500004377365,8|0,0:0|0:0,0:0:0:0:
297,75,128164,2,0,B|276:102|283:135|283:135|250:106|211:120,1,116.999994644165,4|0,0:0|0:0,0:0:0:0:
62,221,128528,5,4,0:0:0:0:
168,177,128709,1,8,0:0:0:0:
25,72,128891,1,4,0:0:0:0:
134,23,129073,2,0,P|132:58|105:113,1,90,10|0,0:0|0:0,0:0:0:0:
38,229,129437,5,2,0:0:0:0:
68,319,129618,1,0,0:0:0:0:
147,268,129800,1,0,0:0:0:0:
307,384,129982,5,4,0:0:0:0:
277,294,130163,1,8,0:0:0:0:
198,345,130345,1,4,0:0:0:0:
398,344,130528,6,0,B|430:342|448:364|448:364|420:365|401:349,1,90,8|0,0:0|0:0,0:0:0:0:
363,256,130891,5,2,0:0:0:0:
365,236,130982,1,2,0:0:0:0:
369,216,131073,2,0,B|421:194|421:194|456:201|456:201|502:176,1,135.000005149842,4|0,0:0|0:0,0:0:0:0:
381,70,131437,6,0,P|388:90|402:106,1,40.4999987640381,8|0,0:0|0:0,0:0:0:0:
467,40,131800,6,0,P|486:43|506:40,1,40.4999987640381,4|0,0:0|0:0,0:0:0:0:
291,43,132164,6,0,P|298:25|312:10,1,40.4999987640381,8|0,0:0|0:0,0:0:0:0:
307,128,132528,5,4,0:0:0:0:
212,91,132710,1,8,0:0:0:0:
8,19,132891,5,8,0:0:0:0:
122,103,133073,1,4,0:0:0:0:
32,203,133255,1,8,0:0:0:0:
165,271,133437,6,0,B|164:228|113:185|113:185,1,90,4|0,0:0|0:0,0:0:0:0:
0,333,133800,5,4,0:0:0:0:
34,341,133891,1,4,0:0:0:0:
69,347,133982,1,4,0:0:0:0:
104,353,134073,1,4,0:0:0:0:
139,360,134164,1,4,0:0:0:0:
174,365,134255,1,4,0:0:0:0:
206,372,134346,5,4,0:0:0:0:
295,248,134528,1,8,0:0:0:0:
267,253,134618,2,0,B|245:297|280:343|342:344|342:344,1,116.999994644165,10|4,0:0|0:0,0:0:0:0:
427,357,134891,1,0,0:0:0:0:
512,264,135073,6,0,B|475:247|424:250|383:278|383:278|398:226|366:159|292:161,1,306.000005836487,8|4,0:0|0:0,0:0:0:0:
135,203,135618,6,0,B|68:221|36:125|36:125,1,116.999994644165,8|0,0:0|0:0,0:0:0:0:
126,75,135982,1,4,0:0:0:0:
137,94,136073,1,0,0:0:0:0:
137,117,136164,1,0,0:0:0:0:
11,61,136346,1,0,0:0:0:0:
188,10,136528,6,0,B|307:38|419:112|419:112,1,229.500004377365,8|0,0:0|0:0,0:0:0:0:
491,92,136891,2,0,B|563:51|466:-10|460:39|460:39,1,116.999994644165,4|0,0:0|0:0,0:0:0:0:
453,170,137255,5,8,0:0:0:0:
264,210,137437,2,0,B|232:181|224:119|224:119|304:138|330:175,1,202.500007724762,4|0,0:0|0:0,0:0:0:0:
322,346,137800,1,0,0:0:0:0:
325,366,137891,1,2,0:0:0:0:
313,384,137982,2,0,B|292:394|219:352|296:253|356:285|336:308|335:386|396:374|495:289|423:206|341:206|346:260,1,306.000005836487,8|4,0:0|0:0,0:0:0:0:
189,365,138528,6,0,B|131:357|79:316|79:316|112:296|117:257,1,175.499991966248,8|2,0:0|0:0,0:0:0:0:
124,182,138891,2,0,B|53:167|31:237|32:235,1,116.999994644165,4|0,0:0|0:0,0:0:0:0:
203,279,139255,1,8,0:0:0:0:
165,104,139437,5,4,0:0:0:0:
486,365,139800,5,8,0:0:0:0:
419,0,140164,5,8,0:0:0:0:
430,90,140346,2,0,B|506:132|542:40|496:3|496:3,1,135.000005149842,4|0,0:0|0:0,0:0:0:0:
345,57,140709,2,0,B|318:87|321:127|321:127,1,67.5000025749208,8|0,0:0|0:0,0:0:0:0:
319,146,140891,2,0,B|264:155|218:89|257:94|210:29|135:31,1,202.500007724762,4|0,0:0|0:0,0:0:0:0:
61,10,141255,5,8,0:0:0:0:
46,30,141346,1,0,0:0:0:0:
43,58,141437,2,0,B|84:82|113:58|104:49|131:31|180:56|180:56,1,135.000005149842,4|0,0:0|0:0,0:0:0:0:
203,211,141800,2,0,B|187:233|129:236|116:152|165:114,1,135.000005149842,4|0,0:0|0:0,0:0:0:0:
291,234,142164,5,2,0:0:0:0:
119,299,142346,1,4,0:0:0:0:
45,160,142528,1,8,0:0:0:0:
202,342,142709,2,0,B|254:357|306:334|306:334|317:311,1,116.999994644165,4|0,0:0|0:0,0:0:0:0:
387,242,143073,5,8,0:0:0:0:
446,337,143255,2,0,B|472:340|472:340|406:242,1,135.000005149842,4|0,0:0|0:0,0:0:0:0:
352,83,143619,5,8,0:0:0:0:
317,188,143800,1,4,0:0:0:0:
359,105,143982,1,0,0:0:0:0:
444,88,144164,5,8,0:0:0:0:
286,22,144346,2,0,B|252:32|223:46|223:46,1,67.5000025749208,2|0,0:0|0:0,0:0:0:0:
162,110,144528,6,0,P|150:136|126:151,3,58.4999973220826,6|6|14|6,0:0|0:0|0:0|0:0,0:0:0:0:
87,61,144891,2,0,P|58:64|33:50,3,58.4999973220826,6|6|14|6,0:0|0:0|0:0|0:0,0:0:0:0:
35,156,145255,5,12,0:0:0:0:
19,188,145345,1,12,0:0:0:0:
12,223,145436,1,12,0:0:0:0:
14,259,145527,1,12,0:0:0:0:
26,293,145618,1,12,0:0:0:0:
46,323,145709,1,12,0:0:0:0:
72,347,145800,1,12,0:0:0:0:
104,363,145891,1,12,0:0:0:0:
139,370,145982,6,0,B|185:364|217:351|217:351|256:326|268:248|212:218|168:212|122:264|160:346|224:353|224:353|283:382|341:360|314:334|357:304|417:328,1,576,14|0,0:0|0:0,0:0:0:0:
28,22,157618,5,4,0:0:0:0:
94,81,158346,5,8,0:0:0:0:
122,166,159073,5,4,0:0:0:0:
116,262,159800,5,4,0:0:0:0:
50,327,159982,1,2,0:0:0:0:
133,384,160164,1,10,0:0:0:0:
133,384,160255,1,0,0:0:0:0:
133,384,160346,1,0,0:0:0:0:
139,253,160528,5,4,0:0:0:0:
235,233,161255,5,8,0:0:0:0:
327,270,161982,5,4,0:0:0:0:
376,355,162709,5,2,0:0:0:0:
468,384,162891,1,4,0:0:0:0:
512,298,163073,1,4,0:0:0:0:
422,275,163255,1,4,0:0:0:0:
354,369,163437,5,4,0:0:0:0:
307,285,164164,5,8,0:0:0:0:
325,189,164891,5,4,0:0:0:0:
406,139,165618,5,6,0:0:0:0:
496,154,165800,1,2,0:0:0:0:
512,63,165982,1,6,0:0:0:0:
512,63,166073,1,0,0:0:0:0:
512,63,166164,1,0,0:0:0:0:
393,116,166346,5,4,0:0:0:0:
333,48,167073,5,8,0:0:0:0:
241,22,167800,5,4,0:0:0:0:
151,48,168528,5,4,0:0:0:0:
148,140,168709,1,4,0:0:0:0:
52,135,168891,1,8,0:0:0:0:
55,42,169073,1,8,0:0:0:0:
160,157,169255,6,0,P|134:189|100:288,2,144,4|8|4,0:0|0:0|0:0,0:0:0:0:
160,157,171437,5,6,0:0:0:0:
240,203,171618,1,2,0:0:0:0:
314,145,171800,1,8,0:0:0:0:
314,145,171891,1,0,0:0:0:0:
314,145,171982,1,0,0:0:0:0:
398,197,172164,6,0,P|420:268|465:328,1,144,4|8,0:0|0:0,0:0:0:0:
390,384,173618,2,2,P|320:358|245:358,1,144,4|0,0:0|0:0,0:0:0:0:
299,269,174528,5,0,0:0:0:0:
204,275,174709,1,0,0:0:0:0:
158,356,174891,1,8,0:0:0:0:
32,248,175073,6,0,P|61:165|63:106,3,144,4|8|4|4,0:0|0:0|0:0|0:0,0:0:0:0:
100,28,177437,5,8,0:0:0:0:
193,73,177618,1,12,0:0:0:0:
193,73,177709,1,0,0:0:0:0:
193,73,177800,1,8,0:0:0:0:
309,15,177982,6,0,P|347:19|385:28,2,72,4|8|4,0:0|0:0|0:0,0:0:0:0:
484,97,179437,2,0,P|410:117|354:157,1,144,4|8,0:0|0:0,0:0:0:0:
421,227,180346,5,0,0:0:0:0:
364,302,180528,1,0,0:0:0:0:
337,305,180618,1,0,0:0:0:0:
310,308,180709,1,0,0:0:0:0:
283,311,180800,1,0,0:0:0:0:
257,313,180891,6,0,P|202:359|193:243,1,252,4|8,0:0|0:0,0:0:0:0:
308,96,183800,6,0,B|297:141|313:180|313:180|295:166|282:161|282:161|277:178|279:201|279:201|246:158|208:147,1,252,4|8,0:0|0:0,0:0:0:0:
35,89,186709,6,0,P|110:123|108:42,1,198,4|2,0:0|0:0,0:0:0:0:
99,23,188800,2,0,L|62:11,18,22.5,2|0|2|0|2|0|2|0|2|0|2|0|2|0|2|0|2|0|8,0:0|0:0|0:0|0:0|0:0|0:0|0:0|0:0|0:0|0:0|0:0|0:0|0:0|0:0|0:0|0:0|0:0|0:0|0:0,0:0:0:0:
461,264,191982,5,4,0:0:0:0:
437,356,192164,6,0,L|396:366,1,26.9999991760254,8|0,2:1|0:0,0:0:0:0:
63,189,192528,6,0,B|4:130|53:63,1,116.999994644165,4|12,0:0|0:0,0:0:0:0:
134,10,192800,1,8,0:0:0:0:
256,124,192982,1,8,0:0:0:0:
238,144,193073,1,4,0:0:0:0:
54,210,193255,6,0,B|66:149|146:122|251:168,1,229.500004377365,4|0,0:0|0:0,0:3:0:0:
334,208,193618,1,0,0:0:0:0:
381,101,193800,6,0,B|378:38|307:28|307:28|314:72,1,135.000005149842,8|0,0:0|0:0,0:0:0:0:
452,169,194164,1,0,0:0:0:0:
467,151,194254,1,4,0:0:0:0:
475,130,194345,1,6,0:0:0:0:
346,187,194528,1,0,0:0:0:0:
458,342,194709,6,0,P|460:270|393:296,1,153.000002918243,8|0,0:0|0:0,0:0:0:0:
356,363,194982,1,0,0:0:0:0:
335,378,195073,2,0,P|276:379|220:362,1,116.999994644165,4|0,0:0|0:0,0:0:0:0:
75,309,195437,6,0,B|118:270|177:280|177:280|188:233,1,135.000005149842,12|0,0:0|0:0,0:0:0:0:
28,228,195709,1,2,0:0:0:0:
8,243,195800,2,0,B|-42:307|0:373|0:373,1,135.000005149842,12|0,0:0|0:0,0:0:0:0:
271,286,196164,6,0,B|295:208|239:160|228:191|180:147|176:70,1,229.500004377365,4|0,0:0|0:0,0:0:0:0:
273,84,196528,1,8,0:0:0:0:
114,182,196709,6,0,B|80:147|70:87|105:96|82:41|34:9,1,175.499991966248,4|2,0:0|0:0,0:0:0:0:
1,98,197073,2,0,B|71:115|129:65|129:65,1,116.999994644165,4|0,0:0|0:0,0:0:0:0:
275,64,197437,1,4,0:0:0:0:
340,1,197618,6,0,B|430:-28|478:63|478:63|436:53|392:66,1,229.500004377365,8|0,0:0|0:0,0:0:0:0:
361,127,197982,2,0,B|396:160|454:154|454:154|469:170,1,116.999994644165,4|0,0:0|0:0,0:0:0:0:
407,383,198346,5,4,0:0:0:0:
327,219,198527,1,8,0:0:0:0:
512,244,198709,1,4,0:0:0:0:
428,278,198891,2,0,P|382:297|340:318,1,90,10|0,0:0|0:0,0:0:0:0:
193,355,199254,5,2,0:0:0:0:
123,139,199436,1,0,0:0:0:0:
218,157,199618,1,0,0:0:0:0:
81,324,199801,5,4,0:0:0:0:
51,232,199983,1,8,0:0:0:0:
256,283,200164,1,4,0:0:0:0:
162,269,200346,2,0,B|139:248|148:226|148:226|158:242|180:257,1,90,8|0,0:0|0:0,0:0:0:0:
306,203,200709,5,2,0:0:0:0:
311,181,200800,1,2,0:0:0:0:
316,159,200891,2,0,B|291:78|291:78|248:48,1,135.000005149842,4|0,0:0|0:0,0:0:0:0:
49,0,201255,6,0,L|56:40,1,40.4999987640381,8|0,0:0|0:0,0:0:0:0:
144,0,201618,6,0,L|151:40,1,40.4999987640381,4|0,0:0|0:0,0:0:0:0:
203,159,201982,6,0,L|197:119,1,40.4999987640381,8|0,0:0|0:0,0:0:0:0:
265,64,202346,5,4,0:0:0:0:
384,79,202528,1,8,0:0:0:0:
338,256,202709,5,8,0:0:0:0:
314,152,202891,1,4,0:0:0:0:
446,229,203073,1,8,0:0:0:0:
341,374,203255,6,0,B|284:329|233:307|233:307,1,90,4|0,0:0|0:0,0:0:0:0:
49,229,203618,5,4,0:0:0:0:
27,258,203709,1,4,0:0:0:0:
23,293,203800,1,4,0:0:0:0:
32,327,203891,1,4,0:0:0:0:
56,353,203982,1,4,0:0:0:0:
89,365,204073,1,4,0:0:0:0:
124,358,204164,6,0,B|120:287|173:227|173:227,1,116.999994644165,4|8,0:0|0:0,0:0:0:0:
249,233,204437,1,10,0:0:0:0:
99,127,204618,1,4,0:0:0:0:
73,132,204709,1,0,0:0:0:0:
168,57,204891,6,0,B|213:110|189:163|189:163|239:120|309:158,1,229.500004377365,8|0,0:0|0:0,0:0:0:0:
344,231,205255,1,4,0:0:0:0:
273,367,205437,6,0,B|244:314|252:250|252:250,1,116.999994644165,8|0,0:0|0:0,0:0:0:0:
426,301,205800,2,0,P|390:323|374:327,1,58.4999973220826,4|0,0:0|0:0,0:0:0:0:
350,324,205982,1,0,0:0:0:0:
438,205,206164,1,0,0:0:0:0:
356,44,206346,6,0,B|253:58|268:137|268:137|323:155|361:124,1,229.500004377365,8|0,0:0|0:0,0:0:0:0:
437,113,206709,2,0,B|477:29|426:-23|426:-23,1,135.000005149842,4|0,0:0|0:0,0:0:0:0:
229,0,207073,5,8,0:0:0:0:
180,77,207255,2,0,B|165:130|74:114|77:59|154:18|60:-11|-12:24|9:93,1,270.000010299683,4|0,0:0|0:0,0:0:0:0:
64,234,207709,1,2,0:0:0:0:
83,250,207800,2,0,B|104:190|94:103|94:103,2,135.000005149842,8|0|4,0:0|0:0|0:0,0:0:0:0:
40,366,208346,6,0,B|15:351|14:318|14:318|51:354|128:364,1,175.499991966248,8|2,0:0|0:0,0:0:0:0:
207,293,208709,2,0,B|243:248|204:206|204:206|169:241|194:284,1,175.499991966248,4|0,0:0|0:0,0:0:0:0:
212,384,209073,1,8,0:0:0:0:
315,286,209255,5,4,0:0:0:0:
63,91,209618,5,8,0:0:0:0:
512,340,209982,5,8,0:0:0:0:
412,384,210164,2,0,B|356:353|395:277|454:262|454:293|503:213|474:152,1,270.000010299683,4|8,0:0|0:0,0:0:0:0:
346,103,210618,1,0,0:0:0:0:
325,114,210709,2,0,P|333:182|397:186,1,135.000005149842,4|0,0:0|0:0,0:0:0:0:
505,64,211073,5,8,0:0:0:0:
490,43,211164,1,0,0:0:0:0:
472,28,211255,2,0,B|406:-15|334:35|376:46|304:112|227:56,2,270.000010299683,4|4|2,0:0|0:0|0:0,0:0:0:0:
512,215,212164,5,4,0:0:0:0:
425,111,212346,1,8,0:0:0:0:
330,273,212528,2,0,B|284:244|305:191|305:191|306:172|299:160,1,116.999994644165,4|0,0:0|0:0,0:0:0:0:
226,33,212891,5,8,0:0:0:0:
144,118,213073,1,4,0:0:0:0:
205,43,213255,1,0,0:0:0:0:
109,245,213437,5,8,0:0:0:0:
14,135,213618,2,0,B|92:195|92:195|86:238,1,135.000005149842,4|0,0:0|0:0,0:0:0:0:
41,381,213982,5,8,0:0:0:0:
240,326,214164,1,2,0:0:0:0:
117,333,214346,6,0,L|157:369,3,45,6|6|14|6,0:0|0:0|0:0|0:0,0:0:0:0:
195,271,214709,2,0,L|228:301,3,45,6|6|14|6,0:0|0:0|0:0|0:0,0:0:0:0:
246,190,215073,5,12,0:0:0:0:
270,161,215164,1,12,0:0:0:0:
304,148,215255,1,12,0:0:0:0:
338,155,215346,1,12,0:0:0:0:
367,176,215437,1,12,0:0:0:0:
382,209,215528,1,12,0:0:0:0:
379,244,215618,1,12,0:0:0:0:
359,271,215709,1,12,0:0:0:0:
330,283,215800,6,0,L|310:346,1,58.4999973220826,4|0,0:0|0:0,0:0:0:0:
399,384,215982,1,8,0:0:0:0:
399,384,216073,2,0,L|527:372,1,116.999994644165,0|8,0:0|0:0,0:0:0:0:
462,286,216346,1,0,0:0:0:0:
229,377,216528,6,0,L|48:347,1,153.000002918243,4|0,0:0|0:0,0:0:0:0:
221,212,216891,2,0,B|236:272|236:272|223:316,1,76.5000014591217,8|0,0:0|0:0,0:0:0:0:
119,261,217073,6,0,L|140:128,1,135.000005149842,4|8,0:0|0:0,0:0:0:0:
104,37,217346,1,2,0:0:0:0:
104,37,217437,2,0,B|55:82|55:82|42:150,1,135.000005149842,4|0,0:0|0:0,0:0:0:0:
229,123,217800,1,8,0:0:0:0:
229,123,217891,1,0,0:0:0:0:
229,123,217982,6,2,B|463:40,1,229.500004377365,2|6,0:0|0:0,0:0:0:0:
291,5,218346,2,0,B|368:94,1,116.999994644165,8|0,0:0|0:0,0:0:0:0:
451,145,218618,1,4,0:0:0:0:
451,145,218709,6,0,B|453:141|395:292,1,135.000005149842,8|0,0:0|0:0,0:0:0:0:
317,368,218982,1,0,0:0:0:0:
317,368,219073,2,0,B|293:309|293:309|339:178,1,202.500007724762,8|0,0:0|0:0,0:0:0:0:
451,145,219437,6,0,B|486:342|486:342|463:375,1,229.500004377365,6|2,0:0|0:0,0:0:0:0:
310,280,219800,2,0,L|238:288,1,72,8|0,0:0|0:0,0:0:0:0:
179,362,219982,6,0,L|60:329,1,116.999994644165,4|0,0:0|0:0,0:0:0:0:
38,224,220255,1,2,0:0:0:0:
38,224,220346,2,0,L|166:261,1,116.999994644165,4|2,0:0|0:0,0:0:0:0:
164,59,220709,1,2,0:0:0:0:
164,59,220800,1,6,0:0:0:0:
164,59,220891,6,0,B|60:7|60:7|61:122,1,229.500004377365,8|4,0:0|0:0,0:0:0:0:
146,156,221255,2,0,L|272:134,1,116.999994644165,8|0,0:0|0:0,0:0:0:0:
484,133,221618,5,4,0:0:0:0:
383,83,221800,1,8,0:0:0:0:
261,28,221982,1,4,0:0:0:0:
261,28,222073,1,0,0:0:0:0:
261,28,222164,2,0,B|333:-1|333:-1|368:0,1,90,8|0,0:0|0:0,0:0:0:0:
462,145,222528,5,2,0:0:0:0:
455,166,222618,1,4,0:0:0:0:
449,189,222709,2,0,L|428:251,1,45
401,332,222891,1,2,0:0:0:0:
511,374,223073,5,4,0:0:0:0:
390,314,223255,1,8,0:0:0:0:
260,364,223437,2,0,L|208:335,1,45,4|0,0:0|0:0,0:0:0:0:
140,295,223618,6,2,B|126:261|142:229|142:229|158:237|165:271,1,90,4|0,0:0|0:0,0:0:0:0:
61,345,223982,5,2,0:0:0:0:
42,357,224073,1,2,0:0:0:0:
25,369,224164,1,4,0:0:0:0:
302,281,224528,6,0,P|315:245|316:235,1,40.4999987640381,6|0,0:0|0:0,0:0:0:0:
236,198,224891,6,8,P|240:178|250:160,1,40.4999987640381,10|8,0:0|0:0,0:0:0:0:
357,122,225255,6,8,P|352:141|342:159,1,40.4999987640381,6|8,0:0|0:0,3:0:0:0:
278,74,225618,5,4,0:0:0:0:
395,33,225800,1,8,0:0:0:0:
195,31,225982,5,4,0:0:0:0:
108,122,226164,1,8,0:0:0:0:
7,36,226346,1,4,0:0:0:0:
197,121,226528,6,0,L|223:233,1,90,10|0,0:0|0:0,0:0:0:0:
126,383,226891,5,4,0:0:0:0:
84,384,226982,1,4,0:0:0:0:
46,369,227073,1,4,0:0:0:0:
15,343,227164,1,4,0:0:0:0:
0,305,227255,1,4,0:0:0:0:
1,265,227346,1,4,0:0:0:0:
16,228,227437,6,0,L|65:161,1,58.4999973220826,4|0,0:0|0:0,0:0:0:0:
152,300,227618,1,8,0:0:0:0:
152,300,227709,2,0,L|74:283,1,58.4999973220826,10|0,0:0|0:0,0:0:0:0:
143,205,227891,1,4,0:0:0:0:
143,205,227982,1,0,0:0:0:0:
222,363,228164,6,0,B|372:345|372:345|431:280,1,229.500004377365,8|0,0:0|0:0,0:0:0:0:
487,219,228528,1,4,0:0:0:0:
296,157,228709,2,0,B|285:216|285:216|338:268,1,116.999994644165,8|0,0:0|0:0,0:0:0:0:
398,197,228982,1,0,0:0:0:0:
398,197,229073,2,0,B|409:138|409:138|356:86,1,116.999994644165,4|0,0:0|0:0,0:0:0:0:
179,0,229437,1,0,0:0:0:0:
179,0,229528,1,2,0:0:0:0:
179,0,229618,6,0,B|190:39|190:39|367:97,1,229.500004377365,8|0,0:0|0:0,0:0:0:0:
493,40,229982,2,0,L|354:-4,1,135.000005149842,4|0,0:0|0:0,0:0:0:0:
180,0,230346,5,8,0:0:0:0:
186,96,230528,2,0,B|257:92|257:92|282:4,1,135.000005149842,4|0,0:0|0:0,0:0:0:0:
85,21,230891,1,2,0:0:0:0:
85,21,230982,1,2,0:0:0:0:
85,21,231073,2,0,B|65:103|65:103|143:195|143:195|115:298,1,306.000005836487,8|4,0:0|0:0,0:0:0:0:
46,384,231618,6,0,B|30:372|30:372|19:270,1,116.999994644165,8|0,0:0|0:0,0:0:0:0:
116,292,231891,1,2,0:0:0:0:
116,292,231982,2,0,L|275:322,1,116.999994644165,4|0,0:0|0:0,0:0:0:0:
425,343,232346,1,10,0:0:0:0:
425,343,232437,1,2,0:0:0:0:
425,343,232528,6,0,B|316:390|316:390|329:280,1,229.500004377365,4|0,0:0|0:0,0:0:0:0:
451,248,232891,5,8,0:0:0:0:
205,79,233255,5,8,0:0:0:0:
324,158,233437,2,0,B|449:146|449:146|505:74,1,202.500007724762,4|0,0:0|0:0,0:0:0:0:
438,5,233800,2,0,L|386:76,1,67.5000025749208,8|0,0:0|0:0,0:0:0:0:
324,158,233982,2,0,B|298:48|298:48|285:24,1,135.000005149842,4|0,0:0|0:0,0:0:0:0:
205,79,234255,1,2,0:0:0:0:
205,79,234346,5,0,0:0:0:0:
83,170,234528,2,0,B|28:13|28:13|118:91,2,270.000010299683,4|4|2,0:0|0:0|0:0,0:0:0:0:
158,226,235346,1,2,0:0:0:0:
158,226,235437,5,4,0:0:0:0:
44,374,235618,1,8,0:0:0:0:
34,258,235800,2,0,P|134:322|134:322,1,116.999994644165,4|0,0:0|0:0,0:0:0:0:
305,377,236164,5,8,0:0:0:0:
243,275,236346,1,4,0:0:0:0:
213,362,236528,1,8,0:0:0:0:
402,379,236709,5,8,0:0:0:0:
485,275,236891,2,0,B|423:239|423:239|379:298,1,135.000005149842,4|0,0:0|0:0,0:0:0:0:
499,367,237255,5,8,0:0:0:0:
385,289,237437,2,0,B|357:151|357:151|381:86,1,202.500007724762,2|6,0:0|0:0,0:0:0:0:
465,37,237800,1,14,0:0:0:0:
465,37,237891,1,6,0:0:0:0:
465,37,237982,2,0,B|475:95|475:95|454:161,1,116.999994644165,6|14,0:0|0:0,0:0:0:0:
275,215,238346,5,12,0:0:0:0:
241,192,238437,1,12,0:0:0:0:
207,169,238528,1,12,0:0:0:0:
173,146,238618,1,12,0:0:0:0:
139,122,238709,1,12,0:0:0:0:
105,99,238800,1,12,0:0:0:0:
71,75,238891,1,12,0:0:0:0:
37,52,238982,1,12,0:0:0:0:
3,25,239073,5,4,0:0:0:0:
121,0,239255,1,0,0:0:0:0:
201,83,239437,2,0,B|218:173|131:229|131:229|98:175|122:117,1,270.000010299683,8|4,0:0|0:0,0:0:0:0:
22,248,239982,6,0,B|64:277|91:330|91:330,1,107.999996704102
178,338,240255,1,0,0:0:0:0:
184,316,240346,2,0,B|213:274|266:247|266:247,1,107.999996704102,0|4,0:0|0:0,0:0:0:0:
411,150,240709,5,0,0:0:0:0:
296,134,240891,1,8,0:0:0:0:
285,254,241073,1,0,0:0:0:0:
470,357,241255,5,6,0:0:0:0:
475,244,241437,1,2,0:0:0:0:
377,236,241618,1,10,0:0:0:0:
378,336,241800,1,2,0:0:0:0:
378,336,241891,1,0,0:0:0:0:
378,336,241982,5,4,0:0:0:0:
467,262,242164,1,0,0:0:0:0:
285,254,242346,2,0,B|223:337|299:390|299:390,2,135.000005149842,8|0|4,0:0|0:0|0:0,0:0:0:0:
69,267,242891,6,0,B|75:329|37:382|37:382,1,107.999996704102,0|8,0:0|0:0,0:0:0:0:
155,358,243164,1,0,0:0:0:0:
163,337,243255,2,0,B|156:274|194:221|194:221,1,107.999996704102,0|4,0:0|0:0,0:0:0:0:
117,42,243618,5,0,0:0:0:0:
0,98,243800,1,8,0:0:0:0:
110,183,243982,1,0,0:0:0:0:
203,5,244164,5,4,0:0:0:0:
102,63,244346,1,0,0:0:0:0:
198,119,244528,2,0,P|225:108|245:83,1,53.9999983520508,8|0,0:0|0:0,0:0:0:0:
377,12,244891,5,4,0:0:0:0:
461,66,245073,1,0,0:0:0:0:
451,159,245255,1,8,0:0:0:0:
337,189,245437,2,0,B|331:137|355:102|355:102|367:100|377:107,1,107.999996704102
497,246,245800,6,0,B|443:267|392:266|392:266,1,107.999996704102,0|8,0:0|0:0,0:0:0:0:
331,340,246073,1,0,0:0:0:0:
349,356,246164,2,0,B|400:355|454:376,1,107.999996704102,0|4,0:0|0:0,0:0:0:0:
272,268,246528,5,2,0:0:0:0:
195,370,246709,1,8,0:0:0:0:
177,276,246891,1,0,0:0:0:0:
92,356,247073,5,4,0:0:0:0:
70,188,247255,1,0,0:0:0:0:
158,261,247437,1,8,0:0:0:0:
12,286,247618,1,0,0:0:0:0:
12,286,247709,1,0,0:0:0:0:
12,286,247800,5,4,0:0:0:0:
77,212,247982,1,0,0:0:0:0:
45,65,248164,2,0,B|12:81|10:117|10:117|44:86|105:90|142:114,1,202.500007724762,8|0,0:0|0:0,0:0:0:0:
199,179,248528,1,4,0:0:0:0:
306,18,248709,6,0,B|265:51|202:47|202:47,1,107.999996704102
278,131,248982,1,0,0:0:0:0:
301,130,249073,2,0,B|342:97|405:101|405:101,1,107.999996704102,0|4,0:0|0:0,0:0:0:0:
402,10,249437,5,2,0:0:0:0:
493,82,249618,1,8,0:0:0:0:
448,184,249800,1,0,0:0:0:0:
314,228,249982,5,4,0:0:0:0:
369,350,250164,1,0,0:0:0:0:
369,350,250255,1,0,0:0:0:0:
369,350,250346,1,12,0:0:0:0:
499,301,250528,1,0,0:0:0:0:
475,290,250618,1,0,0:0:0:0:
452,282,250709,6,0,P|460:344|484:373,3,90,4|0|8|0,0:0|0:0|0:0|0:0,0:0:0:0:
372,240,251437,2,0,P|347:297|354:343,3,99.0000030212403,4|0|8|0,0:0|0:0|0:0|0:0,0:0:0:0:
450,188,252164,2,0,P|458:126|495:88,3,107.999996704102,4|0|8|0,0:0|0:0|0:0|0:0,0:0:0:0:
357,143,252892,2,0,P|332:85|345:24,3,116.999994644165,4|0|8|0,0:0|0:0|0:0|0:0,0:0:0:0:
281,201,253618,2,0,P|233:251|232:331,3,125.999996154785,4|0|8|0,0:0|0:0|0:0|0:0,0:0:0:0:
147,209,254346,2,0,P|118:272|147:353,3,135.000005149842,4|0|8|0,0:0|0:0|0:0|0:0,0:0:0:0:
207,133,255073,2,0,P|182:68|218:-14,3,144,4|0|4|0,0:0|0:0|0:0|0:0,0:0:0:0:
99,130,255800,2,0,P|45:86|34:-8,3,153.000002918243,8|0|10|2,0:0|0:0|0:0|0:0,0:0:0:0:
32,205,256528,5,4,0:0:0:0:
40,229,256709,1,2,0:0:0:0:
49,252,256891,1,8,0:0:0:0:
57,276,257072,1,2,0:0:0:0:
152,267,257255,5,4,0:0:0:0:
161,295,257436,1,2,0:0:0:0:
172,323,257618,1,8,0:0:0:0:
182,352,257799,1,2,0:0:0:0:
222,198,257982,5,4,0:0:0:0:
210,164,258163,1,2,0:0:0:0:
198,132,258345,1,8,0:0:0:0:
187,98,258528,1,2,0:0:0:0:
301,119,258709,5,4,0:0:0:0:
288,80,258890,1,2,0:0:0:0:
273,43,259072,1,8,0:0:0:0:
261,5,259255,1,2,0:0:0:0:
404,15,259437,5,4,0:0:0:0:
394,106,259618,1,2,0:0:0:0:
483,176,259800,1,8,0:0:0:0:
493,85,259981,1,2,0:0:0:0:
393,130,260164,5,4,0:0:0:0:
405,247,260345,1,2,0:0:0:0:
301,331,260527,1,8,0:0:0:0:
288,213,260708,1,2,0:0:0:0:
470,322,260891,6,0,P|501:325|480:305,2,67.5000025749208,4|0|0,0:0|0:0|0:0,0:0:0:0:
381,348,261437,2,0,P|347:346|313:351,1,67.5000025749208,8|0,0:0|0:0,0:0:0:0:
197,378,261800,5,4,0:0:0:0:
88,306,261982,1,0,0:0:0:0:
197,239,262164,6,0,B|195:259|205:270|205:270|190:272|180:290|180:290|182:269|171:259|171:259|186:256|197:239|197:239,1,134.999995880127,12|0,0:0|0:0,0:0:0:0:
