osu file format v14

[General]
AudioFilename: audio.mp3
AudioLeadIn: 0
PreviewTime: 64437
Countdown: 0
SampleSet: Drum
StackLeniency: 0.3
Mode: 0
LetterboxInBreaks: 0
WidescreenStoryboard: 1

[Editor]
DistanceSpacing: 0.2
BeatDivisor: 8
GridSize: 8
TimelineZoom: 1.7

[Metadata]
Title:Sorry Jack
TitleUnicode:Sorry Jack
Artist:Scratch21
ArtistUnicode:Scratch21
Creator:Shiny Braixen
Version:Ah! So Sorry!
Source:
Tags:Alternative Rock Pop Punk Emo English dPeace Furry Matt Robinson Cooper Mathers Ed Flint Riley Crompton Blake Swift ShadyVox
BeatmapID:3969531
BeatmapSetID:1920057

[Difficulty]
HPDrainRate:8
CircleSize:4
OverallDifficulty:9
ApproachRate:9.4
SliderMultiplier:1.7
SliderTickRate:2

[Events]
//Background and Video events
Video,44,"Move on.mp4"
0,0,"Cute Furries.jpg",0,0
//Break Periods
2,154709,157073
//Storyboard Layer 0 (Background)
//Storyboard Layer 1 (Fail)
//Storyboard Layer 2 (Pass)
//Storyboard Layer 3 (Foreground)
//Storyboard Layer 4 (Overlay)
//Storyboard Sound Samples
Sample,44164,0,"beep.wav",85
Sample,99800,0,"beep.wav",85

[TimingPoints]
528,363.636363636364,4,3,0,30,1,0
528,-333.333333333333,4,3,0,30,0,0
6346,-166.666666666667,4,3,0,40,0,0
9255,-166.666666666667,4,3,0,50,0,0
11437,-71.4285714285714,4,3,0,50,0,0
12164,-83.3333333333333,4,3,0,60,0,0
13073,-66.6666666666667,4,3,0,60,0,0
13437,-83.3333333333333,4,3,0,60,0,0
13982,-66.6666666666667,4,3,0,60,0,0
14709,-66.6666666666667,4,3,0,60,0,0
15437,-58.8235294117647,4,3,0,60,0,0
15982,-83.3333333333333,4,3,0,60,0,0
17255,-62.5,4,3,0,60,0,0
19800,-55.5555555555556,4,3,0,60,0,0
20164,-66.6666666666667,4,3,0,60,0,0
21437,-62.5,4,3,0,60,0,0
23073,-62.5,4,3,0,80,0,0
23255,-50,4,3,0,60,0,0
23437,-50,4,3,0,80,0,0
23618,-50,4,3,0,60,0,0
23800,-43.4782608695652,4,3,0,80,0,0
24528,-55.5555555555556,4,3,0,80,0,0
24709,-43.4782608695652,4,3,0,80,0,0
25073,-83.3333333333333,4,3,0,80,0,0
25618,-76.9230769230769,4,3,0,80,0,0
25982,-62.5,4,3,0,80,0,0
26346,-100,4,3,0,80,0,0
27073,-60.6060606060605,4,3,0,80,0,0
27618,-76.9230769230769,4,3,0,80,0,0
27982,-62.5,4,3,0,80,0,0
28528,-76.9230769230769,4,3,0,80,0,0
28891,-90.9090909090909,4,3,0,80,0,0
29255,-125,4,3,0,80,0,0
29618,-76.9230769230769,4,3,0,80,0,0
29982,-38.4615384615385,4,3,0,80,0,0
30528,-58.8235294117647,4,3,0,80,0,0
30891,-76.9230769230769,4,3,0,80,0,0
31437,-55.5555555555556,4,3,0,80,0,0
31800,-83.3333333333333,4,3,0,80,0,0
32528,-58.8235294117647,4,3,0,80,0,0
33073,-45.4545454545455,4,3,0,80,0,0
33982,-83.3333333333333,4,3,0,80,0,0
34346,-52.6315789473684,4,3,0,80,0,0
35437,-71.4285714285714,4,3,0,55,0,0
35982,-100,4,3,0,55,0,0
41982,-76.9230769230769,4,3,0,55,0,0
42528,-100,4,3,0,55,0,0
44194,-100,4,3,0,5,0,0
44528,-100,4,3,0,55,0,0
49982,-500,4,3,0,55,0,0
50346,-66.6666666666667,4,3,0,55,0,0
50891,-100,4,3,0,55,0,0
53073,-71.4285714285714,4,3,0,55,0,0
53618,-100,4,3,0,55,0,0
58346,-500,4,3,0,55,0,0
63982,-83.3333333333333,4,3,0,55,0,0
64528,-66.6666666666667,4,3,0,70,0,0
65255,-83.3333333333333,4,3,0,70,0,0
65800,-66.6666666666667,4,3,0,70,0,0
66709,-58.8235294117647,4,3,0,70,0,0
67073,-62.5,4,3,0,70,0,0
67437,-142.857142857143,4,3,0,70,0,0
68164,-111.111111111111,4,3,0,70,0,0
68709,-43.4782608695652,4,3,0,70,0,0
69073,-66.6666666666667,4,3,0,70,0,0
69437,-58.8235294117647,4,3,0,70,0,0
70891,-500,4,3,0,70,0,0
71346,-83.3333333333333,4,3,0,70,0,0
73982,-500,4,3,0,70,0,0
74709,-66.6666666666667,4,3,0,70,0,0
76164,-66.6666666666667,4,3,0,75,0,0
76800,-83.3333333333333,4,3,0,75,0,0
76891,-66.6666666666667,4,3,0,75,0,0
77437,-62.5,4,3,0,75,0,0
77800,-66.6666666666667,4,3,0,75,0,0
78346,-58.8235294117647,4,3,0,75,0,0
78709,-66.6666666666667,4,3,0,75,0,0
79800,-58.8235294117647,4,3,0,75,0,0
80346,-66.6666666666667,4,3,0,75,0,0
80709,-62.5,4,3,0,75,0,0
81073,-66.6666666666667,4,3,0,75,0,0
81255,-58.8235294117647,4,3,0,75,0,0
81618,-66.6666666666667,4,3,0,75,0,0
84164,-66.6666666666667,4,3,0,75,0,0
84346,-62.5,4,3,0,75,0,0
84528,-58.8235294117647,4,3,0,75,0,0
84891,-66.6666666666667,4,3,0,75,0,0
86709,-62.5,4,3,0,75,0,0
87800,-76.9230769230769,4,3,0,60,0,0
88164,-90.9090909090909,4,3,0,60,0,0
89073,-71.4285714285714,4,3,0,60,0,0
89618,-83.3333333333333,4,3,0,60,0,0
89982,-90.9090909090909,4,3,0,60,0,0
91073,-71.4285714285714,4,3,0,60,0,0
91982,-66.6666666666667,4,3,0,60,0,0
92528,-58.8235294117647,4,3,0,60,0,0
93618,-111.111111111111,4,3,0,60,0,0
96528,-66.6666666666667,4,3,0,60,0,0
99073,-500,4,3,0,60,0,0
99437,-76.9230769230769,4,3,0,50,0,0
99831,-76.9230769230769,4,3,0,5,0,0
100164,-76.9230769230769,4,3,0,55,0,0
101073,-111.111111111111,4,3,0,55,0,0
105255,-100,4,3,0,55,0,0
105982,-111.111111111111,4,3,0,55,0,0
110164,-100,4,3,0,55,0,0
110709,-111.111111111111,4,3,0,55,0,0
111255,-100,4,3,0,55,0,0
112164,-111.111111111111,4,3,0,55,0,0
114709,-90.9090909090909,4,3,0,55,0,0
115437,-100,4,3,0,55,0,0
116164,-111.111111111111,4,3,0,55,0,0
116528,-500,4,3,0,55,0,0
119073,-71.4285714285714,4,3,0,55,0,0
119437,-83.3333333333333,4,3,0,55,0,0
122709,-66.6666666666667,4,3,0,70,0,0
123436,-83.3333333333333,4,3,0,70,0,0
123981,-66.6666666666667,4,3,0,70,0,0
124891,-58.8235294117647,4,3,0,70,0,0
125254,-62.5,4,3,0,70,0,0
125618,-142.857142857143,4,3,0,70,0,0
126345,-111.111111111111,4,3,0,70,0,0
126890,-43.4782608695652,4,3,0,70,0,0
127254,-66.6666666666667,4,3,0,70,0,0
127618,-58.8235294117647,4,3,0,70,0,0
129072,-500,4,3,0,70,0,0
129527,-83.3333333333333,4,3,0,70,0,0
130528,-71.4285714285714,4,3,0,70,0,0
131437,-83.3333333333333,4,3,0,70,0,0
132163,-500,4,3,0,70,0,0
132890,-66.6666666666667,4,3,0,70,0,0
134345,-66.6666666666667,4,3,0,75,0,0
134618,-62.5,4,3,0,75,0,0
134800,-66.6666666666667,4,3,0,75,0,0
135073,-66.6666666666667,4,3,0,75,0,0
135618,-62.5,4,3,0,75,0,0
135982,-66.6666666666667,4,3,0,75,0,0
136528,-58.8235294117647,4,3,0,75,0,0
136891,-66.6666666666667,4,3,0,75,0,0
137982,-62.5,4,3,0,75,0,0
138528,-66.6666666666667,4,3,0,75,0,0
139437,-58.8235294117647,4,3,0,75,0,0
139800,-62.5,4,3,0,75,0,0
140164,-66.6666666666667,4,3,0,75,0,0
142346,-66.6666666666667,4,3,0,75,0,0
142528,-62.5,4,3,0,75,0,0
142709,-58.8235294117647,4,3,0,75,0,0
143073,-66.6666666666667,4,3,0,75,0,0
145982,-1000,4,3,0,60,0,0
157618,-250,4,3,0,50,0,0
172164,-250,4,3,0,60,0,0
180891,-250,4,3,0,60,0,0
188618,-250,4,3,0,60,0,0
188709,-83.3333333333333,4,3,0,60,0,0
188740,-83.3333333333333,4,3,0,60,0,0
189618,-333.333333333333,4,3,0,60,0,0
191982,-83.3333333333333,4,3,0,60,0,0
192528,-66.6666666666667,4,3,0,70,0,0
193255,-83.3333333333333,4,3,0,70,0,0
193800,-66.6666666666667,4,3,0,70,0,0
194709,-58.8235294117647,4,3,0,70,0,0
195073,-62.5,4,3,0,70,0,0
195437,-142.857142857143,4,3,0,70,0,0
196164,-111.111111111111,4,3,0,70,0,0
196709,-43.4782608695652,4,3,0,70,0,0
197073,-66.6666666666667,4,3,0,70,0,0
197437,-58.8235294117647,4,3,0,70,0,0
198891,-500,4,3,0,70,0,0
199346,-83.3333333333333,4,3,0,70,0,0
200346,-71.4285714285714,4,3,0,70,0,0
201255,-71.4285714285714,4,3,0,70,0,0
201618,-83.3333333333333,4,3,0,70,0,0
201982,-500,4,3,0,70,0,0
202709,-66.6666666666667,4,3,0,70,0,0
204164,-66.6666666666667,4,3,0,75,0,0
204437,-62.5,4,3,0,75,0,0
204618,-66.6666666666667,4,3,0,75,0,0
204891,-66.6666666666667,4,3,0,75,0,0
205437,-62.5,4,3,0,75,0,0
205800,-66.6666666666667,4,3,0,75,0,0
206346,-58.8235294117647,4,3,0,75,0,0
206709,-66.6666666666667,4,3,0,75,0,0
207800,-58.8235294117647,4,3,0,75,0,0
208346,-66.6666666666667,4,3,0,75,0,0
208709,-62.5,4,3,0,75,0,0
209073,-66.6666666666667,4,3,0,75,0,0
209255,-58.8235294117647,4,3,0,75,0,0
209618,-62.5,4,3,0,75,0,0
209982,-66.6666666666667,4,3,0,75,0,0
212164,-66.6666666666667,4,3,0,75,0,0
212346,-62.5,4,3,0,75,0,0
212528,-58.8235294117647,4,3,0,75,0,0
212891,-66.6666666666667,4,3,0,75,0,0
215800,-125,4,3,0,90,0,0
217073,-100,4,3,0,90,0,0
217982,-83.3333333333333,4,3,0,90,0,0
218709,-71.4285714285714,4,3,0,90,0,0
219528,-62.5,4,3,0,90,0,0
219982,-55.5555555555556,4,3,0,90,0,0
225982,-62.5,4,3,0,90,0,0
226346,-55.5555555555556,4,3,0,90,0,0
227437,-62.5,4,3,0,85,0,0
227709,-58.8235294117647,4,3,0,85,0,0
227891,-62.5,4,3,0,85,0,0
228709,-58.8235294117647,4,3,0,85,0,0
229073,-62.5,4,3,0,85,0,0
229618,-55.5555555555556,4,3,0,85,0,0
229982,-62.5,4,3,0,85,0,0
231073,-55.5555555555556,4,3,0,85,0,0
231618,-62.5,4,3,0,85,0,0
231982,-58.8235294117647,4,3,0,85,0,0
232528,-52.6315789473684,4,3,0,85,0,0
232891,-62.5,4,3,0,85,0,0
234891,-55.5555555555556,4,3,0,85,0,0
235437,-58.8235294117647,4,3,0,85,0,0
235618,-55.5555555555556,4,3,0,85,0,0
235800,-52.6315789473684,4,3,0,85,0,0
236346,-55.5555555555556,4,3,0,85,0,0
239073,-71.4285714285714,4,3,0,70,0,0
239437,-83.3333333333333,4,3,0,70,0,0
240346,-71.4285714285714,4,3,0,70,0,0
240891,-83.3333333333333,4,3,0,70,0,0
242346,-71.4285714285714,4,3,0,70,0,0
242891,-83.3333333333333,4,3,0,70,0,0
243255,-76.9230769230769,4,3,0,70,0,0
243618,-83.3333333333333,4,3,0,70,0,0
243800,-71.4285714285714,4,3,0,70,0,0
244164,-83.3333333333333,4,3,0,70,0,0
245255,-66.6666666666667,4,3,0,70,0,0
245800,-62.5,4,3,0,70,0,0
246164,-83.3333333333333,4,3,0,70,0,0
246709,-71.4285714285714,4,3,0,70,0,0
247073,-62.5,4,3,0,70,0,0
247437,-83.3333333333333,4,3,0,70,0,0
248709,-76.9230769230769,4,3,0,70,0,0
249073,-71.4285714285714,4,3,0,70,0,0
249618,-83.3333333333333,4,3,0,70,0,0
250709,-100,4,3,0,60,0,0
251073,-95.2380952380952,4,3,0,60,0,0
251437,-90.9090909090909,4,3,0,60,0,0
251800,-86.9565217391304,4,3,0,60,0,0
252164,-83.3333333333333,4,3,0,60,0,0
252528,-80,4,3,0,60,0,0
252891,-76.9230769230769,4,3,0,60,0,0
253255,-74.0740740740741,4,3,0,60,0,0
253618,-71.4285714285714,4,3,0,70,0,0
253982,-68.9655172413793,4,3,0,70,0,0
254346,-66.6666666666667,4,3,0,70,0,0
254709,-64.5161290322581,4,3,0,70,0,0
255073,-62.5,4,3,0,70,0,0
255437,-60.6060606060606,4,3,0,70,0,0
255800,-58.8235294117647,4,3,0,70,0,0
256164,-57.1428571428571,4,3,0,70,0,0
256194,-57.1428571428571,4,3,0,30,0,0
256528,-100,4,3,0,80,0,0
256891,-95.2380952380952,4,3,0,80,0,0
257255,-90.9090909090909,4,3,0,80,0,0
257618,-86.9565217391304,4,3,0,80,0,0
257982,-83.3333333333333,4,3,0,80,0,0
258346,-80,4,3,0,80,0,0
258709,-76.9230769230769,4,3,0,80,0,0
259073,-74.0740740740741,4,3,0,80,0,0
259437,-71.4285714285714,4,3,0,90,0,0
259800,-68.9655172413793,4,3,0,90,0,0
260164,-66.6666666666667,4,3,0,90,0,0
260528,-64.5161290322581,4,3,0,90,0,0
260891,-62.5,4,3,0,70,0,0
262164,-500,4,3,0,50,0,0
262346,-500,4,3,0,50,0,0
262528,-500,4,3,0,5,0,0
262709,-500,4,3,0,5,0,0
262891,-500,4,3,0,5,0,0
263073,-500,4,3,0,10,0,0

[Colours]
Combo1 : 147,147,255
Combo2 : 255,87,6
Combo3 : 153,77,77
Combo4 : 255,128,64

[HitObjects]
470,382,528,5,2,0:2:0:0:
466,378,709,1,2,0:2:0:0:
462,374,891,2,0,L|402:364,1,50.9999984436036,2|0,0:2|0:2,0:2:0:0:
338,355,1437,2,0,P|357:313|368:305,1,50.9999984436036,2|2,0:2|0:2,0:2:0:0:
494,242,2164,1,2,0:2:0:0:
498,246,2346,2,0,B|485:243|485:243|477:245|477:245|463:243,1,25.4999992218018,2|0,0:2|0:2,0:2:0:0:
419,184,2709,2,0,B|384:191|384:191|362:202,1,50.9999984436036,2|2,0:2|0:2,0:2:0:0:
123,244,3437,5,2,0:2:0:0:
127,248,3618,1,2,0:2:0:0:
131,252,3800,2,0,L|183:262,1,50.9999984436036,2|0,0:2|0:2,0:2:0:0:
245,221,4346,2,0,B|267:188|267:188|267:175,1,50.9999984436036,2|2,0:2|0:2,0:2:0:0:
227,36,5073,1,2,0:2:0:0:
231,40,5255,2,0,P|204:40|178:57,1,50.9999984436036,2|2,0:2|0:2,0:2:0:0:
160,120,5982,1,2,0:2:0:0:
347,124,6346,5,6,0:2:0:0:
351,128,6528,1,2,0:2:0:0:
355,132,6709,2,2,L|407:137,2,50.9999984436036,2|2|2,0:2|0:2|0:2,0:2:0:0:
320,60,7255,2,0,B|295:45|295:45|252:41,1,50.9999984436036,2|0,0:2|0:2,0:2:0:0:
153,59,7618,2,0,B|172:68|172:68|201:68,1,50.9999984436036,2|0,0:2|0:2,0:2:0:0:
354,52,7982,1,2,0:2:0:0:
357,55,8164,2,0,P|381:70|403:147,1,101.999996887207,2|2,0:2|0:2,0:2:0:0:
350,233,8709,1,0,0:2:0:0:
354,237,8891,2,0,L|412:244,1,50.9999984436036,2|0,0:2|0:2,0:2:0:0:
448,304,9255,5,2,0:2:0:0:
452,308,9437,1,2,0:2:0:0:
456,312,9618,2,2,P|480:273|480:253,2,50.9999984436036,2|2|2,0:2|0:2|0:2,0:2:0:0:
342,375,10164,2,0,L|288:368,1,50.9999984436036,2|0,0:2|0:2,0:2:0:0:
181,347,10528,2,0,L|246:314,1,50.9999984436036,2|0,0:2|0:2,0:2:0:0:
326,182,10891,1,2,0:2:0:0:
329,185,11073,2,0,L|346:121,1,50.9999984436036,2|0,0:2|0:2,0:2:0:0:
499,235,11437,6,0,B|457:188|457:188|406:220|406:220|361:198|361:198|297:232|297:232|244:196|244:196|187:226|187:226|140:198,1,416.499987289429
249,50,12164,5,6,3:3:0:0:
8,173,12346,1,8,0:0:0:0:
185,1,12528,2,0,B|154:69|198:115|198:115|190:153|131:204,1,203.999993774414,4|0,0:0|0:0,0:0:0:0:
318,131,13073,2,0,P|292:57|212:81,1,127.500004863739,12|8,0:0|0:3,0:0:0:0:
154,182,13346,1,0,0:0:0:0:
162,199,13437,2,0,B|274:221,1,101.999996887207,0|4,0:0|3:3,0:0:0:0:
402,316,13800,5,8,0:0:0:0:
263,219,13982,2,0,B|269:181|295:163|295:163|301:85|368:57|368:57,1,191.250007295609,4|0,0:0|0:0,0:0:0:0:
359,61,14346,1,8,0:0:0:0:
473,213,14528,1,4,0:0:0:0:
262,300,14709,2,0,B|231:307|207:273|207:273|182:232|143:246,1,127.500004863739,4|0,0:0|0:0,0:0:0:0:
224,68,15073,5,4,3:3:0:0:
156,243,15255,1,8,0:0:0:0:
184,0,15437,2,0,B|136:33|103:87|177:178|242:157|278:124|278:124|306:169,1,289.000005512238,4|0,0:0|0:0,0:0:0:0:
328,46,15891,1,2,0:0:0:0:
314,31,15982,2,0,P|239:52|212:88,1,101.999996887207,8|8,0:0|0:3,0:0:0:0:
59,263,16346,2,0,B|50:236|50:236|69:205|91:135,1,101.999996887207,0|4,0:0|0:0,0:0:0:0:
238,4,16709,6,0,B|207:13|186:61,1,50.9999984436036
243,209,16891,2,0,P|258:209|256:121,1,101.999996887207,8|0,0:0|0:0,0:0:0:0:
174,168,17255,2,0,B|284:209|284:209|297:242|297:242|377:286,1,204,4|0,0:0|0:0,0:0:0:0:
470,134,17618,2,0,B|382:147|382:147|334:236,1,136,8|0,0:0|0:0,0:0:0:0:
506,367,17982,5,4,3:3:0:0:
485,379,18164,1,0,0:0:0:0:
489,174,18346,1,8,0:3:0:0:
469,140,18528,1,0,0:0:0:0:
360,369,18709,5,4,3:3:0:0:
280,179,18891,2,0,B|298:169|298:169|296:88|337:-2,1,136,0|8,0:0|0:3,0:0:0:0:
391,108,19164,1,2,0:0:0:0:
391,108,19255,2,0,P|277:97|206:53,1,136,0|4,0:0|0:0,0:0:0:0:
53,5,19618,2,0,P|25:39|34:88,1,68,6|0,0:0|0:0,0:0:0:0:
0,269,19800,6,0,B|38:242|38:242|111:98|111:98|139:111,1,229.499992996216,8|0,0:3|0:0,0:0:0:0:
227,94,20164,2,0,P|166:88|187:1,1,127.500004863739,4|0,0:0|0:0,0:0:0:0:
301,66,20437,1,2,0:0:0:0:
301,66,20528,2,0,B|322:125|269:161|269:161|227:185|244:269,1,191.250007295609,8|0,0:0|0:0,0:0:0:0:
251,377,20891,6,0,B|226:371|226:371|213:363|213:363|177:357,1,63.7500024318696,4|0,3:3|0:0,0:0:0:0:
188,319,21073,2,0,B|194:295|194:295|203:282|203:282|210:246,1,63.7500024318696
239,232,21255,2,0,B|263:238|263:238|276:247|276:247|312:254,1,63.7500024318696,8|0,0:3|0:0,0:0:0:0:
394,244,21437,6,0,B|383:259|383:259|185:180|185:180|119:203,1,272
190,273,21891,1,2,0:0:0:0:
206,264,21982,1,8,0:3:0:0:
403,175,22164,2,0,B|465:181|469:245|469:245|522:287,1,136,0|4,0:0|0:0,0:0:0:0:
348,374,22528,2,0,B|325:381|325:381|281:340,1,68
355,120,22709,2,0,P|334:46|386:101,1,204,8|0,0:3|3:3,0:0:0:0:
403,175,23073,5,4,0:0:0:0:
381,188,23164,1,2,0:0:0:0:
355,120,23255,1,8,0:0:0:0:
329,119,23346,1,2,0:0:0:0:
281,189,23437,6,0,L|179:168,1,85,4|0,0:0|0:0,0:0:0:0:
111,103,23618,2,0,L|218:76,1,85,12|0,0:0|0:0,0:0:0:0:
302,67,23800,6,0,B|246:229|246:229|258:289,2,195.500003728867,6|4|8,3:3|0:0|0:3,0:0:0:0:
512,200,24346,2,0,B|400:248|400:248|319:232,1,195.500003728867,0|4,0:0|0:0,0:0:0:0:
113,136,24709,6,0,B|62:104|75:43|75:43|117:-3|155:42|155:42|216:14|246:84,1,293.2500055933
179,175,25073,2,0,P|125:213|79:204,1,101.999996887207,0|8,0:0|0:0,0:0:0:0:
429,0,25437,2,0,B|414:79,1,50.9999984436036,6|0,0:0|0:0,0:0:0:0:
327,233,25618,2,0,B|295:171|295:171|295:111|295:111|263:69,1,165.749992412568,4|0,0:0|0:0,0:0:0:0:
267,7,25982,6,2,P|231:17|196:66,2,68,6|2|2,3:3|0:0|0:0,0:0:0:0:
339,312,26346,2,2,P|361:306|382:297,2,42.5,10|2|2,0:3|0:0|0:0,0:0:0:0:
173,149,26709,5,6,3:3:0:0:
149,384,26891,1,0,0:0:0:0:
339,312,27073,2,0,B|447:327|446:209|357:167|305:245|305:245|271:258|265:297|265:297|196:291,1,350.625003343821,8|0,0:0|0:0,0:0:0:0:
133,355,27618,2,2,P|93:337|82:302,2,55.2499974708558,2|2|10,0:0|0:0|0:0,0:0:0:0:
209,173,27982,6,0,B|198:149|213:118|213:118|190:91|194:37|194:37|186:78|155:106,1,204
283,152,28346,2,0,P|313:165|382:174,1,68,4|0,0:0|0:0,0:0:0:0:
464,205,28528,2,0,P|459:118|403:142,1,165.749992412568,8|0,0:0|0:0,0:0:0:0:
347,172,28891,5,6,0:0:0:0:
422,0,29073,1,0,0:0:0:0:
168,92,29255,2,0,P|143:122|163:157,1,68,8|0,0:3|0:0,0:0:0:0:
334,197,29618,5,6,3:3:0:0:
123,261,29800,1,0,0:0:0:0:
504,295,29982,2,0,B|473:304|473:304|408:360|408:360|269:330|271:329,2,220.999989883423,8|0|4,0:0|0:0|0:0,0:0:0:0:
150,147,30528,2,0,B|94:157|68:213|68:213|107:225|143:255|143:255|163:195,1,216.750004134178
230,150,30891,2,0,P|197:84|124:71,1,110.499994941712,0|4,0:0|0:0,0:0:0:0:
7,20,31255,1,6,0:0:0:0:
7,20,31346,1,2,0:0:0:0:
15,117,31437,2,0,B|58:115|58:115|85:71|58:26|20:8,1,152.999995330811,8|0,0:0|0:0,0:0:0:0:
268,225,31800,2,0,B|311:195|307:134|307:134|349:99|436:132,1,203.999993774414,4|8,0:0|0:0,0:0:0:0:
485,288,32346,1,2,0:0:0:0:
485,288,32437,1,2,0:0:0:0:
485,288,32528,6,0,B|438:284|425:240,1,72.2500013780594,6|0,3:3|0:0,0:0:0:0:
496,16,32709,2,0,B|447:12|410:60,1,72.2500013780594
170,116,32891,2,0,B|172:119|172:119|192:151|235:150,1,72.2500013780594,8|0,0:3|0:0,0:0:0:0:
408,172,33073,6,0,B|357:155|317:184|317:184|282:240|219:234|219:234|194:270|230:327,1,280.500008560181,8|0,0:0|0:0,0:0:0:0:
297,299,33437,2,2,B|325:293|348:309|348:309|361:319|402:316,2,93.5000028533936,2|2|10,0:0|0:0|0:0,0:0:0:0:
38,102,33800,2,0,P|-10:171|94:148,1,187.000005706787,0|4,0:0|0:0,0:0:0:0:
393,33,34164,1,2,0:0:0:0:
393,33,34255,1,2,0:0:0:0:
393,33,34346,2,0,B|308:0|308:0|275:44|275:44|235:31|235:31|153:51,1,242.249993531227,8|0,0:0|0:0,0:0:0:0:
225,180,34709,6,0,L|212:133,1,40.3749989218712,6|0,3:3|0:0,0:0:0:0:
228,110,34891,2,0,L|240:177,1,40.3749989218712,8|0,0:0|0:0,0:0:0:0:
282,353,35073,6,0,P|254:361|229:358,1,40.3749989218712,12|0,0:3|0:0,0:0:0:0:
38,102,35255,2,0,P|53:106|98:136,1,40.3749989218712,12|0,0:0|0:0,0:0:0:0:
372,262,35437,6,0,B|349:254|349:254|287:267|287:267|176:227|176:227|116:234,1,237.999992736817,4|8,0:0|0:0,0:0:0:0:
7,109,35982,2,0,P|14:65|47:36,1,85,0|4,0:0|0:0,0:0:0:0:
152,147,36346,2,0,P|196:151|232:127,1,85,0|8,0:0|0:0,0:0:0:0:
339,35,36709,6,0,B|325:34|203:56|203:56|164:91,2,170,4|8|4,0:0|0:0|0:0,0:0:0:0:
434,135,37618,2,0,B|446:112|447:74|422:40,1,85,4|0,0:0|0:0,0:0:0:0:
297,123,37982,1,8,0:0:0:0:
511,239,38164,1,4,0:0:0:0:
511,239,38528,6,0,B|494:214|494:214|354:161,1,170,4|0,0:0|0:0,0:0:0:0:
286,222,39073,1,4,0:0:0:0:
123,275,39255,2,0,P|55:266|41:237,1,85,0|8,0:0|0:0,0:0:0:0:
286,222,39618,2,0,B|278:252|267:307|261:322,1,85,0|4,0:0|0:0,0:0:0:0:
196,367,39982,2,0,B|137:377|137:377|95:370,1,85,0|8,0:0|0:0,0:0:0:0:
136,258,40346,2,0,B|191:264|224:214|224:214|258:195|292:221|302:240,1,170,4|0,0:0|0:0,0:0:0:0:
151,184,40891,1,8,0:0:0:0:
335,288,41073,2,0,P|350:270|358:197,1,85,4|4,0:0|0:0,0:0:0:0:
359,42,41437,5,0,0:0:0:0:
438,21,41618,2,0,B|438:40|432:71|413:118,1,85,8|0,0:0|0:0,0:0:0:0:
238,177,41982,2,0,B|158:193|158:193|102:171,2,110.499994941712,4|0|8,0:0|0:0|0:0,0:0:0:0:
339,105,42528,2,0,P|337:57|288:27,1,85,0|4,0:0|0:0,0:0:0:0:
153,91,42891,2,0,P|216:79|242:56,1,85,0|8,0:0|0:0,0:0:0:0:
9,22,43255,2,0,P|39:63|94:182,1,170,4|0,0:0|0:0,0:0:0:0:
21,260,43800,2,0,L|122:292,1,85,8|0,0:0|0:0,0:0:0:0:
252,319,44164,6,0,L|276:313,9,14.1666666666667,4|0|0|0|0|0|0|0|0|0,0:0|0:0|0:0|0:0|0:0|0:0|0:0|0:0|0:0|0:0,0:0:0:0:
252,319,44528,1,8,0:0:0:0:
368,233,44709,2,0,P|426:218|459:210,1,85,4|4,0:0|0:0,0:0:0:0:
508,60,45073,2,0,P|448:79|426:118,1,85,0|8,0:0|0:0,0:0:0:0:
377,163,45437,5,8,0:0:0:0:
185,0,45618,1,4,0:0:0:0:
364,17,45800,1,8,0:0:0:0:
364,17,46164,2,0,B|412:33|429:79|429:79|427:154|359:233|359:233|253:247,1,340,4|8,0:0|0:0,0:0:0:0:
202,193,47073,5,4,0:0:0:0:
337,92,47255,1,0,0:0:0:0:
254,78,47437,2,0,P|199:64|145:69,1,85,8|0,0:0|0:0,0:0:0:0:
101,112,47800,1,4,0:0:0:0:
55,0,47982,2,0,P|37:38|26:79,1,85,0|8,0:0|0:0,0:0:0:0:
32,274,48346,2,0,B|83:261|83:261|134:230,1,85,0|4,0:0|0:0,0:0:0:0:
174,142,48709,2,0,B|210:164|210:164|230:228,1,85,0|8,0:0|0:0,0:0:0:0:
298,327,49073,2,0,B|253:354|253:354|181:324|181:324|119:322,1,170,4|0,0:0|0:0,0:0:0:0:
139,189,49618,2,0,L|234:206,1,85,8|0,0:0|0:0,0:0:0:0:
468,291,49982,6,0,L|438:296,1,25.5,4|0,0:0|0:0,0:0:0:0:
401,359,50346,2,0,P|375:326|390:244,2,127.500004863739,8|0|4,0:0|0:0|0:0,0:0:0:0:
481,231,50891,2,0,P|461:182|429:143,1,85,0|8,0:0|0:0,0:0:0:0:
307,64,51255,2,0,L|400:78,1,85,0|4,0:0|0:0,0:0:0:0:
498,55,51618,2,0,P|448:64|390:167,1,170,8|0,0:0|0:0,0:0:0:0:
277,222,52164,1,4,0:0:0:0:
277,222,52255,1,0,0:0:0:0:
277,222,52346,2,0,L|189:210,2,85,4|8|4,0:0|0:0|0:0,0:0:0:0:
340,262,52891,1,4,0:0:0:0:
445,140,53073,6,0,P|474:75|517:45,2,118.999996368408,0|8|0,0:0|0:0|0:0,0:0:0:0:
492,211,53618,1,4,0:0:0:0:
303,159,53800,1,0,0:0:0:0:
321,168,53982,1,8,0:0:0:0:
286,85,54164,2,0,B|230:71|230:71|165:84,1,85,0|4,0:0|0:0,0:0:0:0:
70,140,54528,1,0,0:0:0:0:
192,161,54709,1,8,0:0:0:0:
0,85,54891,2,0,P|31:141|78:247,1,170,4|0,0:0|0:0,0:0:0:0:
28,312,55437,1,8,0:0:0:0:
21,337,55618,1,0,0:0:0:0:
154,182,55800,6,0,P|118:128|110:239,1,255,4|0,0:0|0:0,0:0:0:0:
151,258,56528,2,0,B|178:299|236:292|236:292|299:227|299:227|345:215|387:250,1,255,8|0,0:0|0:0,0:0:0:0:
441,348,57255,2,0,P|365:348|349:315,1,85,4|0,0:0|0:0,0:0:0:0:
435,134,57618,2,0,P|493:182|484:218,1,85,8|0,0:0|0:0,0:0:0:0:
352,209,57982,2,0,L|241:222,1,85,4|0,0:0|0:0,0:0:0:0:
157,137,58346,6,0,L|186:143,1,25.5,12|0,0:0|0:0,0:0:0:0:
181,142,58709,5,4,0:0:0:0:
246,162,58891,1,4,0:0:0:0:
308,129,59073,1,8,0:0:0:0:
394,153,59255,1,4,0:0:0:0:
365,40,59437,5,4,0:0:0:0:
296,71,59618,1,8,0:0:0:0:
233,53,59800,1,4,0:0:0:0:
137,106,59982,1,8,0:0:0:0:
297,242,60164,5,4,0:0:0:0:
322,204,60346,1,4,0:0:0:0:
281,158,60528,1,8,0:0:0:0:
258,221,60709,1,4,0:0:0:0:
457,355,60891,5,4,0:0:0:0:
463,342,60982,1,12,0:0:0:0:
467,328,61073,1,4,0:0:0:0:
235,186,61255,1,4,0:0:0:0:
240,198,61346,1,12,0:0:0:0:
243,218,61437,1,4,0:0:0:0:
473,228,61618,5,4,0:0:0:0:
347,309,61800,1,4,0:0:0:0:
243,243,61982,1,8,0:0:0:0:
309,188,62164,1,4,0:0:0:0:
382,225,62346,5,4,0:0:0:0:
88,164,62528,1,8,0:0:0:0:
223,101,62709,1,4,0:0:0:0:
41,304,62891,1,8,0:0:0:0:
157,15,63073,5,4,0:0:0:0:
181,24,63982,2,0,B|222:30|222:30|265:57|265:57|311:60,1,101.999996887207,4|8,0:0|2:1,0:0:0:0:
292,73,64528,5,4,0:0:0:0:
38,167,64709,1,12,0:0:0:0:
38,179,64800,1,8,0:0:0:0:
190,57,64982,1,8,0:0:0:0:
199,76,65073,1,4,0:0:0:0:
367,84,65255,2,0,B|337:85|302:119|302:119|269:119|269:119|226:163|173:156,1,203.999993774414,4|0,0:0|0:0,0:3:0:0:
416,376,65800,6,0,B|453:382|453:382|514:346|517:278|517:278|469:232|403:257,1,255.000009727478,8|0,0:0|0:0,0:0:0:0:
363,281,66255,1,4,0:0:0:0:
370,294,66346,2,0,B|350:305|312:291|312:291|280:269|241:288,1,127.500004863739,6|0,0:0|0:0,0:0:0:0:
40,294,66709,2,0,P|-1:315|46:374,1,144.500002756119,8|0,0:0|0:0,0:0:0:0:
39,217,67073,2,0,B|91:219|112:259|112:259|195:254,1,136,4|0,0:0|0:0,0:0:0:0:
287,20,67437,6,0,P|232:6|209:18,1,59.4999981842042,12|0,0:0|0:0,0:0:0:0:
213,79,67709,1,2,0:0:0:0:
292,99,67800,2,0,P|344:77|356:54,1,59.4999981842042,12|0,0:0|0:0,0:0:0:0:
488,356,68164,2,0,P|406:333|374:363,1,114.749996498108,4|0,0:0|0:0,0:0:0:0:
310,362,68528,2,0,B|291:380|259:378,1,38.2499988327027,8|0,0:0|0:0,0:0:0:0:
103,259,68709,6,0,B|151:245|151:245|211:281|289:250|296:172,1,195.500003728867,4|0,0:0|0:0,0:0:0:0:
339,121,68982,1,2,0:0:0:0:
339,121,69073,2,0,B|287:86|230:108|230:108|197:168|209:238,1,191.250007295609,4|0,0:0|0:0,0:0:0:0:
362,196,69437,2,0,B|401:206|447:161,1,72.2500013780594,4|0,0:0|0:0,0:0:0:0:
512,0,69618,6,0,P|460:56|518:43,1,144.500002756119,8|0,0:0|0:0,0:0:0:0:
512,0,69982,2,0,B|413:19|413:19|362:66,1,144.500002756119,4|0,0:0|0:0,0:0:0:0:
512,0,70346,5,4,0:0:0:0:
250,246,70528,1,8,0:0:0:0:
512,167,70709,2,0,B|477:158|477:158|421:150,1,72.2500013780594,4|0,0:0|0:0,0:0:0:0:
135,149,70891,6,0,L|125:122,1,25.5,10|0,0:0|0:0,0:0:0:0:
87,7,71255,5,2,0:0:0:0:
87,7,71346,2,0,B|135:100|135:100|135:165,1,152.999995330811,12|0,0:0|0:0,0:0:0:0:
80,355,71800,5,4,0:0:0:0:
214,155,71982,1,8,0:0:0:0:
426,300,72164,1,4,0:0:0:0:
0,365,72346,2,0,B|29:343|29:343|40:346|40:346|117:325,1,101.999996887207,8|8,0:0|0:0,0:0:0:0:
259,287,72709,1,2,0:0:0:0:
259,287,72800,1,2,0:0:0:0:
327,324,72891,2,0,L|452:295,1,101.999996887207,4|0,0:0|0:0,0:0:0:0:
241,66,73255,6,0,P|150:97|140:157,1,152.999995330811,8|0,0:0|0:0,0:0:0:0:
136,143,73618,2,0,P|145:70|210:37,1,152.999995330811,4|0,0:0|0:0,0:0:0:0:
210,37,73982,2,0,L|196:65,1,25.5,8|0,0:0|0:0,0:0:0:0:
238,131,74346,5,4,0:0:0:0:
235,155,74437,1,2,0:0:0:0:
298,59,74528,1,8,0:0:0:0:
293,37,74618,1,2,0:0:0:0:
308,195,74709,6,0,B|280:311|280:311|289:351,1,127.500004863739,8|4,0:0|0:0,0:0:0:0:
281,318,75073,1,8,0:0:0:0:
459,54,75255,2,0,P|388:44|389:-8,1,127.500004863739,4|0,0:0|0:0,0:0:0:0:
0,105,75618,5,4,0:0:0:0:
25,142,75709,1,4,0:0:0:0:
57,145,75800,1,4,0:0:0:0:
97,173,75891,1,4,0:0:0:0:
147,167,75982,1,4,0:0:0:0:
167,177,76073,1,4,0:0:0:0:
188,210,76164,6,0,P|273:241|343:246,1,127.500004863739,4|8,0:0|0:0,0:0:0:0:
406,75,76437,2,0,B|374:38|374:38|329:45,1,63.7500024318696,8|0,0:0|0:0,0:0:0:0:
88,2,76618,2,0,B|100:34|134:50|134:50|182:30|231:51,1,127.500004863739,4|0,0:0|0:0,0:0:0:0:
512,159,76891,6,0,B|494:161|454:139|454:139|397:167|353:131|353:131|315:125|251:165,1,255.000009727478,8|4,0:0|0:0,0:0:0:0:
108,322,77437,2,0,B|87:318|71:289|71:289|69:261|75:246|133:210,1,136,8|0,0:0|0:0,0:0:0:0:
108,322,77800,2,0,B|85:334|47:325|47:325|16:301|0:257|0:257|39:176|102:216,1,255.000009727478,4|0,0:0|0:0,0:0:0:0:
190,165,78255,1,2,0:0:0:0:
190,165,78346,6,0,B|212:173|212:173|210:240|260:311,1,144.500002756119,8|0,0:0|0:0,0:0:0:0:
499,128,78709,2,0,P|418:160|399:242,1,127.500004863739,4|0,0:0|0:0,0:0:0:0:
364,363,79073,6,0,P|388:359|470:322,1,63.7500024318696,8|0,0:0|0:0,0:0:0:0:
512,310,79255,2,0,B|505:274|465:268|465:268|410:197|323:229|323:229|330:274|327:297,1,255.000009727478,4|0,0:0|0:0,0:0:0:0:
387,379,79709,1,2,0:0:0:0:
387,379,79800,2,0,B|393:350|393:350|378:265|467:190|467:190|465:148|488:115,1,289.000005512238,8|4,0:0|0:0,0:0:0:0:
229,12,80346,6,0,B|289:15|320:49|320:49|369:37,1,127.500004863739,8|0,0:0|0:0,0:0:0:0:
372,146,80618,1,2,0:0:0:0:
353,156,80709,2,0,P|270:134|255:86,1,136,4|0,0:0|0:0,0:0:0:0:
423,13,81073,2,0,P|435:28|399:79,1,63.7500024318696,8|0,0:0|0:0,0:0:0:0:
199,172,81255,6,0,B|95:148|95:148|74:105,1,144.500002756119,4|0,0:0|0:0,0:0:0:0:
334,285,81618,2,0,B|244:305|244:305|226:343,1,127.500004863739,8|0,0:0|0:0,0:0:0:0:
498,158,81982,6,0,P|463:162|441:195,1,63.7500024318696,8|0,0:0|0:0,0:0:0:0:
475,266,82164,2,0,P|413:251|360:190,1,127.500004863739,4|0,0:0|0:0,0:0:0:0:
175,1,82528,2,0,P|134:15|118:74,1,63.7500024318696,8|0,0:0|0:0,0:0:0:0:
15,154,82709,2,0,P|82:149|135:77,1,127.500004863739,4|0,0:0|0:0,0:0:0:0:
15,154,83073,2,0,P|30:139|21:162,1,63.7500024318696,8|0,0:0|0:0,0:0:0:0:
52,239,83255,6,0,L|12:62,1,127.500004863739,4|0,0:0|0:0,0:0:0:0:
94,65,83528,1,2,0:0:0:0:
98,82,83618,2,0,B|89:103|89:103|40:211,1,127.500004863739,4|0,0:0|0:0,0:0:0:0:
17,15,83982,1,2,0:0:0:0:
17,15,84073,1,2,0:0:0:0:
17,15,84164,6,0,P|34:19|100:35,1,63.7500024318696,4|0,0:0|0:0,0:0:0:0:
201,10,84346,2,0,P|218:10|286:13,1,68,8|0,0:0|0:0,0:0:0:0:
485,0,84528,2,0,B|501:8|501:8|336:37,1,144.500002756119,4|0,0:0|0:0,0:0:0:0:
196,126,84891,5,8,0:0:0:0:
115,173,85073,2,0,B|99:167|93:151|93:151|165:163|216:131,1,127.500004863739,4|0,0:0|0:0,0:0:0:0:
364,138,85437,2,0,B|348:144|342:160|342:160|414:148|465:180,2,127.500004863739,8|4|0,0:0|0:0|0:0,0:0:0:0:
415,241,85982,2,0,P|393:233|345:259,1,63.7500024318696,8|0,0:0|0:0,0:0:0:0:
387,317,86164,2,0,L|414:82,1,191.250007295609,4|0,0:0|0:0,0:0:0:0:
407,46,86528,1,2,0:0:0:0:
410,21,86618,1,2,0:0:0:0:
414,0,86709,6,0,B|430:-2|430:-2|382:149,1,136,4|0,0:0|0:0,0:0:0:0:
335,374,87073,5,4,0:0:0:0:
293,366,87164,1,4,0:0:0:0:
265,375,87255,1,4,0:0:0:0:
224,363,87346,1,4,0:0:0:0:
186,330,87437,1,4,0:0:0:0:
174,276,87528,1,4,0:0:0:0:
194,229,87618,1,4,0:0:0:0:
244,199,87709,1,4,0:0:0:0:
306,214,87800,6,0,B|366:239|413:220|413:220|425:186|485:173,1,165.749992412568,4|0,0:0|0:0,0:0:0:0:
495,115,88164,2,0,B|511:91|511:91|475:15,1,93.5000028533936,8|0,0:0|0:0,0:0:0:0:
483,32,88528,1,4,0:0:0:0:
246,141,88709,2,0,B|194:143|171:120|171:120|175:60|235:66,1,140.25000428009,0|0,0:0|0:0,0:0:0:0:
246,141,89073,2,0,B|256:173|240:201|240:201|215:243|246:299,1,118.999996368408,0|4,0:0|0:0,0:0:0:0:
230,255,89437,1,0,0:0:0:0:
353,36,89618,6,0,B|306:26|306:26|240:-11,1,101.999996887207,8|0,0:0|0:0,0:0:0:0:
319,254,89982,2,0,B|311:275|325:302|325:302|352:333|398:325,1,93.5000028533936,4|0,0:0|0:0,0:0:0:0:
438,327,90255,1,2,0:0:0:0:
409,252,90346,2,0,B|399:231|370:222|370:222|329:220|302:258,1,93.5000028533936,8|0,0:0|0:0,0:0:0:0:
237,364,90709,5,4,0:0:0:0:
101,164,90891,1,0,0:0:0:0:
308,166,91073,2,0,B|214:148|214:148|190:97|190:97|116:159,1,237.999992736817,8|4,0:0|0:0,0:0:0:0:
237,364,91618,2,0,L|373:316,1,118.999996368408,0|8,0:0|0:0,0:0:0:0:
32,339,91982,2,0,B|42:260|42:260|77:208,1,127.500004863739,0|4,0:0|0:0,0:0:0:0:
68,220,92346,1,0,0:0:0:0:
349,324,92528,2,0,B|280:185|280:185|246:165|219:122,1,216.750004134178,8|0,0:0|0:0,0:0:0:0:
303,107,92891,5,4,0:0:0:0:
218,269,93073,1,8,0:0:0:0:
452,358,93255,1,4,0:0:0:0:
506,93,93437,1,12,0:0:0:0:
506,93,93528,1,2,0:0:0:0:
506,93,93618,6,0,B|470:51|473:5|473:5|433:-10|402:23,1,152.999995330811,4|8,0:0|0:0,0:0:0:0:
407,104,94073,1,0,0:0:0:0:
407,104,94164,2,0,B|425:120|425:120|402:197,1,76.4999976654053,0|4,0:0|0:0,0:0:0:0:
274,348,94528,6,0,P|310:372|343:372,1,76.4999976654053,0|8,0:0|0:0,0:0:0:0:
273,267,94891,2,0,P|230:275|207:298,1,76.4999976654053,0|4,0:3|0:0,0:0:0:0:
396,245,95255,2,0,L|415:137,1,76.4999976654053,0|8,0:0|0:0,0:0:0:0:
207,298,95618,2,0,P|186:242|139:147,1,152.999995330811,4|0,0:0|0:0,0:0:0:0:
28,37,96164,2,0,B|85:20|85:20|118:24,1,76.4999976654053,8|0,0:0|0:0,0:0:0:0:
125,41,96437,1,0,0:0:0:0:
125,41,96528,5,4,0:0:0:0:
309,135,96709,2,0,B|357:46|357:46|353:1,2,127.500004863739,4|8|4,0:0|0:0|0:0,0:0:0:0:
352,209,97255,1,4,0:0:0:0:
181,153,97437,1,0,0:0:0:0:
415,156,97618,1,8,0:0:0:0:
437,233,97800,6,0,B|506:257|506:257|492:189,1,127.500004863739,0|4,0:0|0:0,0:0:0:0:
445,9,98164,2,0,B|368:31|368:31|323:70,1,127.500004863739,0|8,0:0|0:0,0:0:0:0:
140,309,98528,2,0,B|199:257|199:257|285:208|285:208|330:66,1,255.000009727478,4|0,0:0|0:0,0:0:0:0:
192,19,99073,2,0,L|164:26,1,25.5,8|0,0:0|0:0,0:0:0:0:
167,25,99437,6,0,B|199:85|199:85|210:160,1,110.499994941712,4|0,0:0|0:0,0:0:0:0:
179,261,99800,2,0,L|183:285,9,18.4166658236186,8|0|0|0|0|0|0|0|0|0,0:0|0:0|0:0|0:0|0:0|0:0|0:0|0:0|0:0|0:0,0:0:0:0:
183,280,100164,2,0,B|232:217|232:217|279:202,1,110.499994941712,4|0,0:0|0:0,0:0:0:0:
330,248,100528,2,0,B|416:236|416:236|476:262,1,110.499994941712,8|0,0:0|0:0,0:0:0:0:
492,309,100891,1,4,0:0:0:0:
394,322,101073,2,0,L|368:151,1,152.999995330811,8|0,0:0|0:0,0:0:0:0:
467,55,101618,2,0,P|510:4|525:8,1,76.4999976654053,4|0,0:0|0:0,0:0:0:0:
441,136,101982,1,8,0:0:0:0:
444,139,102164,1,0,0:0:0:0:
289,23,102346,6,0,P|352:13|398:9,1,76.4999976654053,4|0,0:0|0:0,0:0:0:0:
218,98,102709,2,0,P|208:48|204:6,1,76.4999976654053,8|0,0:0|0:0,0:0:0:0:
205,22,102982,1,2,0:0:0:0:
205,22,103073,1,8,0:0:0:0:
283,151,103255,1,0,0:0:0:0:
245,245,103437,2,0,P|196:283|158:308,1,76.4999976654053,8|0,0:0|0:0,0:0:0:0:
97,259,103800,1,4,0:0:0:0:
194,76,103982,6,0,P|249:71|266:173,1,152.999995330811,8|0,0:0|0:0,0:0:0:0:
108,116,104528,2,0,B|45:107|0:86|0:86|-9:58|1:28,1,152.999995330811,8|0,0:0|0:0,0:0:0:0:
75,14,105073,1,8,0:0:0:0:
44,213,105255,6,0,L|71:380,1,170,4|8,0:0|0:0,0:0:0:0:
71,380,105800,1,0,0:0:0:0:
210,224,105982,2,0,P|191:287|167:377,1,152.999995330811,4|8,0:0|0:0,0:0:0:0:
169,372,106528,1,0,0:0:0:0:
331,294,106709,6,0,B|385:281|385:281|426:285,2,76.4999976654053,4|0|8,0:0|0:0|0:0,0:0:0:0:
418,361,107255,2,0,B|436:340|436:340|476:214,1,152.999995330811,4|0,0:0|0:0,0:0:0:0:
401,168,107800,2,0,B|386:122|386:122|339:81,1,76.4999976654053,8|0,0:0|0:0,0:0:0:0:
187,29,108164,5,4,0:0:0:0:
191,33,108346,1,0,0:0:0:0:
245,188,108528,2,0,P|297:180|328:156,1,76.4999976654053,8|0,0:0|0:0,0:0:0:0:
382,26,108891,5,4,0:0:0:0:
386,30,109073,1,0,0:0:0:0:
245,188,109255,2,0,P|193:196|162:220,1,76.4999976654053,8|0,0:0|0:0,0:0:0:0:
173,208,109528,1,4,0:0:0:0:
173,208,109618,5,4,0:0:0:0:
312,315,109800,2,0,P|349:300|405:266,1,76.4999976654053,0|8,0:0|0:0,0:0:0:0:
512,98,110164,2,0,B|455:117|427:143|427:143|431:182|406:215,1,170,4|0,0:0|0:0,0:0:0:0:
484,364,110709,2,0,L|521:273,1,76.4999976654053,8|0,0:0|0:0,0:0:0:0:
276,231,111073,1,4,0:0:0:0:
276,231,111164,1,2,0:0:0:0:
276,231,111255,6,0,P|230:217|187:241,2,85,0|8|0,0:0|0:0|0:0,0:0:0:0:
330,291,111800,1,4,0:0:0:0:
397,166,111982,1,0,0:0:0:0:
276,231,112164,2,0,L|276:94,1,114.749996498108,8|0,0:0|0:0,0:0:0:0:
279,84,112528,5,4,0:0:0:0:
416,186,112709,1,8,0:0:0:0:
105,128,112891,2,0,L|154:123,1,38.2499988327027,4|2,0:0|0:0,0:0:0:0:
274,118,113073,1,8,0:0:0:0:
274,118,113618,5,4,0:0:0:0:
221,369,113800,1,8,0:0:0:0:
153,144,113982,2,0,P|193:97|279:126,1,152.999995330811,4|8,0:0|0:0,0:0:0:0:
355,242,114528,1,2,0:0:0:0:
355,242,114618,1,2,0:0:0:0:
355,242,114709,6,0,P|313:231|290:184,1,93.5000028533936,4|0,0:0|0:0,0:0:0:0:
474,0,115073,2,0,P|506:28|506:80,1,93.5000028533936,8|0,0:0|0:0,0:0:0:0:
191,141,115437,6,0,L|291:112,1,85,4|0,0:0|0:0,0:0:0:0:
423,172,115800,2,0,L|506:196,1,85,8|0,0:0|0:0,0:0:0:0:
228,267,116164,6,0,L|146:285,1,76.4999976654053,4|0,0:0|0:0,0:0:0:0:
25,357,116528,6,0,L|15:327,1,25.5,8|0,0:0|0:0,0:0:0:0:
11,306,116891,5,4,0:0:0:0:
52,234,117073,1,4,0:0:0:0:
138,180,117255,1,8,0:0:0:0:
155,193,117437,1,4,0:0:0:0:
197,342,117618,5,4,0:0:0:0:
64,222,117800,1,8,0:0:0:0:
263,85,117982,1,4,0:0:0:0:
236,205,118164,1,8,0:0:0:0:
373,173,118346,5,4,0:0:0:0:
388,192,118528,1,4,0:0:0:0:
367,214,118709,1,8,0:0:0:0:
362,182,118891,1,4,0:0:0:0:
492,279,119073,6,0,B|433:279|433:279|403:304|403:304|384:277,1,118.999996368408,4|0,0:0|0:0,0:0:0:0:
191,130,119437,2,0,B|211:94|211:94|300:77,1,101.999996887207,8|0,0:0|0:0,0:0:0:0:
333,43,119709,1,6,0:0:0:0:
316,25,119800,5,4,0:0:0:0:
486,119,119982,1,4,0:0:0:0:
273,179,120164,1,8,0:0:0:0:
269,166,120346,1,4,0:0:0:0:
383,75,120528,5,4,0:0:0:0:
506,169,120709,1,8,0:0:0:0:
271,209,120891,1,4,0:0:0:0:
290,198,121073,1,8,0:0:0:0:
176,0,121255,5,4,0:0:0:0:
207,12,122164,2,0,L|194:140,1,101.999996887207,4|8,0:0|2:1,0:0:0:0:
203,123,122709,5,4,0:0:0:0:
284,295,122891,1,12,0:0:0:0:
298,296,122982,1,8,0:0:0:0:
385,148,123164,1,8,0:0:0:0:
371,179,123255,1,4,0:0:0:0:
355,350,123437,2,0,B|275:346|233:302|233:302|254:356|305:377,1,203.999993774414,4|0,0:0|0:0,0:3:0:0:
493,106,123982,6,0,B|487:75|438:38|438:38|380:41|355:101|355:101|388:153,1,255.000009727478,8|0,0:0|0:0,0:0:0:0:
418,251,124437,1,6,0:0:0:0:
418,251,124528,2,0,B|457:233|464:183|464:183|495:195|529:181,1,127.500004863739,6|0,0:0|0:0,0:0:0:0:
229,89,124891,2,0,P|205:35|274:6,1,144.500002756119,8|0,0:0|0:0,0:0:0:0:
174,141,125255,2,0,B|208:174|265:163|265:163|275:185|258:222,1,136,4|0,0:0|0:0,0:0:0:0:
45,384,125618,6,0,P|11:363|0:332,1,59.4999981842042,12|0,0:0|0:0,0:0:0:0:
32,231,125891,1,2,0:0:0:0:
100,259,125982,2,0,P|82:286|48:303,1,59.4999981842042,12|0,0:0|0:0,0:0:0:0:
46,0,126346,2,0,P|55:61|124:84,1,114.749996498108,4|0,0:0|0:0,0:0:0:0:
181,62,126709,2,0,P|206:66|232:92,1,38.2499988327027,8|0,0:0|0:0,0:0:0:0:
394,303,126891,6,0,B|348:307|305:359|305:359|236:330|240:257|240:257|273:224|262:162,1,293.2500055933,4|2,0:0|0:0,0:0:0:0:
216,72,127255,2,0,B|158:106|140:170|140:170|157:213|213:194,1,191.250007295609,4|0,0:0|0:0,0:0:0:0:
335,242,127618,2,0,L|376:149,1,72.2500013780594,4|0,0:0|0:0,0:0:0:0:
269,0,127800,6,0,B|316:-11|316:-11|388:17|388:17|410:-18,1,144.500002756119,8|0,0:0|0:0,0:0:0:0:
269,0,128164,2,0,B|294:59|294:59|371:13,1,144.500002756119,4|0,0:0|0:0,0:0:0:0:
269,0,128528,5,4,0:0:0:0:
498,108,128709,1,8,0:0:0:0:
450,311,128891,2,0,B|404:337|404:337|344:324,1,72.2500013780594,4|0,0:0|0:0,0:0:0:0:
262,189,129073,6,0,L|289:191,1,25.5,10|0,0:0|0:0,0:0:0:0:
413,135,129437,1,2,0:0:0:0:
413,135,129528,2,0,L|255:163,1,152.999995330811,12|0,0:0|0:0,0:0:0:0:
425,197,129982,6,0,L|445:122,1,50.9999984436036,4|0,0:0|0:0,0:0:0:0:
183,184,130164,2,0,L|203:259,1,50.9999984436036,8|0,0:0|0:0,0:0:0:0:
433,203,130346,2,0,L|453:128,1,50.9999984436036,4|0,0:0|0:0,0:0:0:0:
159,172,130528,2,0,B|196:319|196:319|196:222,1,237.999992736817,8|2,0:0|0:0,0:0:0:0:
189,102,130982,1,2,0:0:0:0:
189,102,131073,2,0,P|121:102|91:142,1,118.999996368408,4|0,0:0|0:0,0:0:0:0:
278,349,131437,6,0,L|441:299,1,152.999995330811,8|0,0:0|0:0,0:0:0:0:
278,349,131800,2,0,L|257:179,1,152.999995330811,4|0,0:0|0:0,0:0:0:0:
278,349,132164,2,0,L|254:329,1,25.5,8|0,0:0|0:0,0:0:0:0:
121,322,132528,5,4,0:0:0:0:
143,335,132618,1,2,0:0:0:0:
211,259,132709,1,8,0:0:0:0:
186,267,132800,1,2,0:0:0:0:
121,322,132891,6,0,B|71:234|71:234|23:213,1,127.500004863739,8|4,0:0|0:0,0:0:0:0:
46,223,133255,1,8,0:0:0:0:
406,369,133437,2,0,P|468:339|417:260,1,127.500004863739,4|0,0:0|0:0,0:0:0:0:
480,19,133800,5,4,0:0:0:0:
446,50,133891,1,4,0:0:0:0:
396,37,133982,1,4,0:0:0:0:
356,81,134073,1,4,0:0:0:0:
326,121,134164,1,4,0:0:0:0:
309,126,134255,1,4,0:0:0:0:
294,118,134346,6,0,B|222:149|222:149|172:189,1,127.500004863739,4|8,0:0|0:0,0:0:0:0:
473,82,134618,2,0,B|479:39|479:39|481:-22,1,68,10|0,0:0|0:0,0:0:0:0:
283,229,134800,2,0,B|320:289|320:289|321:258|343:227,1,127.500004863739,4|0,0:0|0:0,0:0:0:0:
405,11,135073,6,0,B|386:17|343:1|343:1|307:52|255:56|255:56|230:108|334:128,1,255.000009727478,8|4,0:0|0:0,0:0:0:0:
443,364,135618,2,0,B|486:348|486:348|493:287|493:287|474:277|434:272,1,136,8|0,0:0|0:0,0:0:0:0:
443,364,135982,2,0,B|510:341|510:341|503:244|503:244|423:287,1,255.000009727478,4|0,0:0|0:0,0:0:0:0:
288,303,136437,1,2,0:0:0:0:
288,303,136528,2,0,B|275:302|275:302|226:165,1,144.500002756119,8|0,0:0|0:0,0:0:0:0:
491,70,136891,2,0,P|425:16|364:59,1,127.500004863739,4|0,0:0|0:0,0:0:0:0:
123,50,137255,6,0,P|152:65|207:55,1,63.7500024318696,8|0,0:0|0:0,0:0:0:0:
312,0,137437,2,0,B|250:11|220:55|220:55|210:125|277:171,1,191.250007295609,4|0,0:0|0:0,0:0:0:0:
169,283,137800,2,0,B|214:297|214:297|247:276,1,63.7500024318696,0|2,0:0|0:0,0:0:0:0:
285,242,137982,2,0,B|363:207|344:135|344:135|318:97|257:100|257:100|236:133,1,272,8|4,0:0|0:0,0:0:0:0:
225,282,138528,6,0,B|248:323|313:315|313:315|332:353,1,127.500004863739,8|0,0:0|0:0,0:0:0:0:
285,242,138800,1,2,0:0:0:0:
208,203,138891,2,0,P|150:262|156:330,1,127.500004863739,4|0,0:0|0:0,0:0:0:0:
272,153,139255,2,0,P|209:122|170:136,1,63.7500024318696,8|0,0:0|0:0,0:0:0:0:
18,162,139437,6,0,B|4:117|18:78|18:78|33:67|88:56,1,144.500002756119,4|0,0:0|0:0,0:0:0:0:
313,0,139800,2,0,B|320:42|346:68|346:68|363:71|412:58,1,136,8|0,0:0|0:0,0:0:0:0:
496,258,140164,6,0,P|479:222|421:218,1,63.7500024318696,8|0,0:0|0:0,0:0:0:0:
332,203,140346,2,0,P|382:268|457:272,1,127.500004863739,4|0,0:0|0:0,0:0:0:0:
253,2,140709,2,0,P|220:15|199:76,1,63.7500024318696,8|0,0:0|0:0,0:0:0:0:
246,198,140891,2,0,P|272:112|247:33,1,127.500004863739,4|0,0:0|0:0,0:0:0:0:
246,198,141255,2,0,P|263:213|260:186,1,63.7500024318696,8|0,0:0|0:0,0:0:0:0:
165,181,141437,6,0,L|279:289,1,127.500004863739,4|0,0:0|0:0,0:0:0:0:
259,357,141709,1,2,0:0:0:0:
259,357,141800,2,0,L|191:205,1,127.500004863739,4|0,0:0|0:0,0:0:0:0:
463,206,142164,1,2,0:0:0:0:
463,206,142255,1,2,0:0:0:0:
463,206,142346,6,0,P|433:223|380:224,1,63.7500024318696,4|0,0:0|0:0,0:0:0:0:
305,227,142528,2,0,P|275:244|249:290,1,68,8|0,0:0|0:0,0:0:0:0:
252,371,142709,2,0,B|242:376|237:385|247:400|264:395|282:375|290:352|301:331|313:324|330:315|349:315,1,144.500002756119,4|0,0:0|0:0,0:0:0:0:
452,129,143073,5,8,0:0:0:0:
365,103,143255,2,0,B|397:102|443:72|443:72|470:92|412:127,1,127.500004863739,4|0,0:0|0:0,0:0:0:0:
168,60,143618,2,0,B|200:61|246:91|246:91|273:71|215:36,2,127.500004863739,8|4|0,0:0|0:0|0:0,0:0:0:0:
205,164,144164,2,0,P|157:137|115:149,1,63.7500024318696,8|0,0:0|0:0,0:0:0:0:
193,360,144346,2,0,P|247:356|275:323,1,63.7500024318696,2|0,0:0|0:0,0:0:0:0:
424,104,144528,5,6,0:0:0:0:
407,110,144618,1,6,0:0:0:0:
393,115,144709,1,14,0:0:0:0:
379,120,144800,1,6,0:0:0:0:
383,143,144891,5,6,0:0:0:0:
352,137,144982,1,6,0:0:0:0:
315,131,145073,1,14,0:0:0:0:
283,125,145164,1,6,0:0:0:0:
235,154,145255,5,12,0:0:0:0:
196,145,145346,1,12,0:0:0:0:
171,101,145437,1,12,0:0:0:0:
193,58,145528,1,12,0:0:0:0:
248,37,145618,1,12,0:0:0:0:
304,62,145709,1,12,0:0:0:0:
333,112,145800,1,12,0:0:0:0:
331,174,145891,1,12,0:0:0:0:
275,240,145982,6,0,B|260:246|232:275|178:279|152:252|151:216|140:188|98:175|53:178|30:195,1,272,14|0,0:0|0:0,0:0:0:0:
343,7,157618,6,0,B|391:13|456:-12|480:20,2,136,4|8|4,0:0|0:0|0:0,0:0:0:0:
312,34,159800,1,4,0:0:0:0:
194,105,159982,1,2,0:0:0:0:
179,67,160073,1,2,0:0:0:0:
177,16,160164,1,10,0:0:0:0:
169,7,160528,6,0,B|121:13|56:-12|31:20,2,136,4|8|4,0:0|0:0|0:0,0:0:0:0:
76,81,162164,1,2,0:0:0:0:
86,109,162255,1,2,0:0:0:0:
77,133,162346,1,2,0:0:0:0:
168,257,162709,2,0,L|183:265,1,17,2|0,0:0|0:0,0:0:0:0:
246,324,162891,1,4,0:0:0:0:
313,379,163073,1,4,0:0:0:0:
433,332,163255,1,4,0:0:0:0:
463,209,163437,6,0,B|418:217|418:217|325:250,2,136,4|8|4,0:0|0:0|0:0,0:0:0:0:
498,264,165618,1,6,0:0:0:0:
439,348,165800,1,2,0:0:0:0:
400,375,165891,1,2,0:0:0:0:
353,376,165982,2,0,B|327:377|327:377|314:374,1,34,6|0,0:0|0:0,0:0:0:0:
223,279,166346,6,0,B|173:296|173:296|149:338|149:338|118:360,2,136,4|8|4,0:0|0:0|0:0,0:0:0:0:
457,152,168528,1,4,0:0:0:0:
463,100,168709,1,4,0:0:0:0:
399,116,168891,1,8,0:0:0:0:
438,174,169073,1,8,0:0:0:0:
417,13,169255,6,0,B|390:57|390:57|385:117,1,102,4|0,0:0|0:0,0:0:0:0:
459,132,169982,2,0,L|476:240,1,102,8|0,0:0|0:0,0:0:0:0:
496,311,170709,1,4,0:0:0:0:
492,331,171437,1,6,0:0:0:0:
397,358,171618,1,2,0:0:0:0:
355,370,171709,1,2,0:0:0:0:
297,364,171800,1,8,0:0:0:0:
237,204,172164,6,0,P|210:208|139:256,1,102,4|0,0:0|0:0,0:0:0:0:
99,308,172891,2,0,P|125:322|199:306,1,102,8|0,0:0|0:0,0:0:0:0:
233,191,173618,2,2,P|167:153|158:252,1,204,4|0,0:0|0:0,0:0:0:0:
233,191,174891,1,8,0:0:0:0:
308,25,175073,6,0,B|236:11|236:11|192:17,1,102,4|0,0:0|0:0,0:0:0:0:
181,96,175800,2,0,L|76:82,1,102,8|0,0:0|0:0,0:0:0:0:
6,59,176528,1,4,0:0:0:0:
10,58,177255,1,4,0:0:0:0:
211,24,177437,1,8,0:0:0:0:
117,97,177618,2,0,B|123:93|123:93|157:109,1,34,12|8,0:0|0:0,0:0:0:0:
361,138,177982,6,0,P|311:151|293:162,2,68,4|8|4,0:0|0:0|0:0,0:0:0:0:
392,150,179437,2,0,B|403:185|405:199|383:223|361:246|359:284,1,136,4|8,0:0|0:0,0:0:0:0:
228,143,180891,5,4,0:0:0:0:
232,147,181073,2,0,B|267:142|309:178|321:227|321:227|298:253|274:249|258:216|258:212|258:212|298:144|298:103|279:60|254:41|205:7,1,442,8|8,0:0|0:0,0:0:0:0:
11,64,183800,6,0,B|15:112|48:129|48:129|102:202|70:258|70:258|119:186|229:177|242:348|137:266,1,476,4|8,0:0|0:0,0:0:0:0:
279,14,186709,6,0,B|223:-3|145:32|145:32|167:105|206:122|206:122|245:91|311:100|311:100,1,357,4|2,0:0|0:0,0:0:0:0:
355,41,188709,6,2,L|381:46,27,16.9999994812012
431,106,189618,6,0,B|454:100|454:100|474:102|474:102|484:98,2,50.9999984436036,8|2|2,0:0|0:0|0:0,0:0:0:0:
424,99,191073,1,0,0:0:0:0:
440,104,191800,1,8,0:0:0:0:
275,338,191982,6,0,B|222:289|222:289|270:270,1,101.999996887207,4|8,0:0|2:1,0:0:0:0:
273,296,192528,5,4,0:0:0:0:
409,376,192709,1,12,0:0:0:0:
447,366,192800,1,8,0:0:0:0:
377,157,192982,1,8,0:0:0:0:
358,240,193073,1,4,0:0:0:0:
197,218,193255,2,0,B|231:244|283:237|283:237|281:283|318:307|318:307|336:372,1,203.999993774414,4|0,0:0|0:0,0:3:0:0:
503,139,193800,6,0,B|476:107|489:55|489:55|442:13|390:48|390:48|388:86|372:127,1,255.000009727478,8|0,0:0|0:0,0:0:0:0:
399,222,194255,1,4,0:0:0:0:
477,224,194346,2,0,B|460:200|406:178|406:178|381:188|329:169,1,127.500004863739,6|0,0:0|0:0,0:0:0:0:
90,227,194709,2,0,P|85:182|181:195,1,144.500002756119,8|0,0:0|0:0,0:0:0:0:
23,264,195073,2,0,B|54:313|109:302|109:302|153:344,1,136,4|0,0:0|0:0,0:0:0:0:
499,272,195437,6,0,P|482:233|441:220,1,59.4999981842042,12|0,0:0|0:0,0:0:0:0:
396,199,195709,1,2,0:0:0:0:
455,334,195800,2,0,P|494:350|532:332,1,59.4999981842042,12|0,0:0|0:0,0:0:0:0:
509,26,196164,2,0,P|458:78|401:81,1,114.749996498108,4|0,0:0|0:0,0:0:0:0:
334,0,196528,2,0,P|304:37|301:63,1,38.2499988327027,8|0,0:0|0:0,0:0:0:0:
188,247,196709,6,0,B|254:273|305:225|307:180|307:180|330:199|339:255,1,195.500003728867,4|0,0:0|0:0,0:0:0:0:
346,286,196982,1,2,0:0:0:0:
191,303,197073,2,0,B|225:147|225:147|234:229,1,191.250007295609,4|0,0:0|0:0,0:0:0:0:
310,359,197437,2,0,L|204:381,1,72.2500013780594,4|0,0:0|0:0,0:0:0:0:
228,178,197618,6,0,P|239:118|303:165,1,144.500002756119,8|0,0:0|0:0,0:0:0:0:
228,178,197982,2,0,P|217:238|153:191,1,144.500002756119,4|0,0:0|0:0,0:0:0:0:
228,178,198346,5,4,0:0:0:0:
408,73,198528,1,8,0:0:0:0:
381,337,198709,2,0,P|333:320|325:260,1,72.2500013780594,4|0,0:0|0:0,0:0:0:0:
230,93,198891,6,0,L|240:62,1,25.5,10|0,0:0|0:0,0:0:0:0:
321,0,199255,1,2,0:0:0:0:
321,0,199346,2,0,B|206:36|206:36|158:37,1,152.999995330811,12|0,0:0|0:0,0:0:0:0:
14,90,199800,6,0,P|3:64|43:18,1,50.9999984436036,4|0,0:0|0:0,0:0:0:0:
250,150,199982,2,0,P|237:175|176:175,1,50.9999984436036,8|0,0:0|0:0,0:0:0:0:
4,169,200164,1,4,0:0:0:0:
4,169,200255,1,2,0:0:0:0:
4,169,200346,2,0,B|59:218|137:164|137:164|129:226|183:258,1,237.999992736817,8|2,0:0|0:0,0:0:0:0:
374,268,200800,1,2,0:0:0:0:
335,206,200891,2,0,L|205:184,1,118.999996368408,4|0,0:0|0:0,0:0:0:0:
367,372,201255,6,0,P|389:316|518:315,1,178.499994552612,8|0,0:0|0:0,0:0:0:0:
374,268,201618,2,0,P|386:218|312:140,1,152.999995330811,4|0,0:0|0:0,0:0:0:0:
421,180,201982,2,0,P|436:170|449:167,1,25.5,8|0,0:0|0:0,0:0:0:0:
395,91,202346,5,4,0:0:0:0:
391,71,202437,1,2,0:0:0:0:
443,168,202528,1,8,0:0:0:0:
447,188,202619,1,2,0:0:0:0:
512,107,202709,6,0,B|441:96|441:96|367:59,1,127.500004863739,8|4,0:0|0:0,0:0:0:0:
391,71,203073,1,8,0:0:0:0:
220,336,203255,2,0,P|276:308|227:220,1,127.500004863739,4|0,0:0|0:0,0:0:0:0:
33,9,203618,5,4,0:0:0:0:
6,45,203709,1,4,0:0:0:0:
36,85,203800,1,4,0:0:0:0:
0,135,203891,1,4,0:0:0:0:
36,179,203982,1,4,0:0:0:0:
28,192,204073,1,4,0:0:0:0:
35,201,204164,6,0,P|14:261|54:327,1,127.500004863739,4|8,0:0|0:0,0:0:0:0:
233,66,204437,2,0,P|204:61|199:126,1,68,10|0,0:0|0:0,0:0:0:0:
220,336,204618,2,0,B|246:331|275:353|275:353|302:377|372:372,1,127.500004863739,4|0,0:0|0:0,0:0:0:0:
284,122,204891,6,0,B|307:95|309:60|309:60|337:49|373:71|373:71|378:154|283:213,1,255.000009727478,8|4,0:0|0:0,0:0:0:0:
128,371,205437,2,0,B|65:368|65:368|108:288,1,136,8|0,0:0|0:0,0:0:0:0:
128,371,205800,2,0,B|97:348|97:348|244:326|244:326|312:260,1,255.000009727478,4|0,0:0|0:0,0:0:0:0:
431,146,206255,1,2,0:0:0:0:
431,146,206346,2,0,P|365:150|329:225,1,144.500002756119,8|0,0:0|0:0,0:0:0:0:
124,23,206709,2,0,P|143:97|208:116,1,127.500004863739,4|0,0:0|0:0,0:0:0:0:
475,89,207073,6,0,L|487:14,1,63.7500024318696,8|0,0:0|0:0,0:0:0:0:
391,107,207255,2,0,B|419:226|419:226|442:155,1,191.250007295609,4|0,0:0|0:0,0:0:0:0:
488,11,207618,2,0,P|450:25|436:67,1,63.7500024318696,0|2,0:0|0:0,0:0:0:0:
210,224,207800,2,0,B|189:237|153:247|153:247|86:224|82:170|82:170|234:89,1,289.000005512238,8|4,0:0|0:0,0:0:0:0:
469,288,208346,6,0,B|434:318|385:299|385:299|346:347,1,127.500004863739,8|0,0:0|0:0,0:0:0:0:
422,383,208618,1,2,0:0:0:0:
419,230,208709,2,0,L|260:201,1,136,4|0,0:0|0:0,0:0:0:0:
482,176,209073,2,0,L|460:83,1,63.7500024318696,8|0,0:0|0:0,0:0:0:0:
314,12,209255,6,0,P|242:6|245:83,1,144.500002756119,4|0,0:0|0:0,0:0:0:0:
0,314,209618,2,0,B|100:291|100:291|136:235,1,136,8|0,0:0|0:0,0:0:0:0:
327,146,209982,6,0,P|315:110|266:87,1,63.7500024318696,8|0,0:0|0:0,0:0:0:0:
305,224,210164,2,0,P|328:276|433:305,1,127.500004863739,4|0,0:0|0:0,0:0:0:0:
488,37,210528,2,0,P|453:24|407:46,1,63.7500024318696,8|0,0:0|0:0,0:0:0:0:
327,146,210709,2,0,P|417:127|465:64,1,127.500004863739,4|0,0:0|0:0,0:0:0:0:
327,146,211073,2,0,P|309:161|339:160,1,63.7500024318696,8|0,0:0|0:0,0:0:0:0:
258,231,211255,6,0,L|295:73,1,127.500004863739,4|0,0:0|0:0,0:0:0:0:
216,82,211528,1,2,0:0:0:0:
216,82,211618,2,0,L|371:170,1,127.500004863739,4|0,0:0|0:0,0:0:0:0:
460,275,211982,1,2,0:0:0:0:
460,275,212073,1,2,0:0:0:0:
460,275,212164,6,0,L|343:300,1,63.7500024318696,4|0,0:0|0:0,0:0:0:0:
225,234,212346,2,0,L|207:138,1,68,8|0,0:0|0:0,0:0:0:0:
325,252,212528,2,0,B|288:389|288:389|271:303,1,216.750004134178,4|0,0:0|0:0,0:0:0:0:
225,234,212891,5,8,0:0:0:0:
267,172,213073,2,0,B|220:179|186:221|186:221|243:209,1,127.500004863739,4|0,0:0|0:0,0:0:0:0:
415,140,213437,2,0,B|446:104|444:50|444:50|408:96,2,127.500004863739,8|4|0,0:0|0:0|0:0,0:0:0:0:
387,274,213982,2,0,P|402:307|466:332,1,63.7500024318696,8|0,0:0|0:0,0:0:0:0:
425,74,214164,2,0,P|374:109|372:156,1,63.7500024318696,2|0,0:0|0:0,0:0:0:0:
266,328,214346,5,6,0:0:0:0:
226,347,214437,1,6,0:0:0:0:
175,344,214528,1,14,0:0:0:0:
130,319,214618,1,6,0:0:0:0:
111,264,214709,1,6,0:0:0:0:
131,203,214800,1,6,0:0:0:0:
187,172,214891,1,14,0:0:0:0:
243,202,214982,1,6,0:0:0:0:
313,203,215073,1,12,0:0:0:0:
373,155,215164,1,12,0:0:0:0:
391,87,215255,1,12,0:0:0:0:
362,30,215346,1,12,0:0:0:0:
306,15,215437,1,12,0:0:0:0:
267,37,215528,1,12,0:0:0:0:
259,74,215618,1,12,0:0:0:0:
274,94,215709,1,12,0:0:0:0:
282,91,215800,6,0,L|337:99,1,34,4|0,0:0|0:0,0:0:0:0:
436,263,215982,1,8,0:0:0:0:
436,263,216073,2,0,L|495:234,1,34,0|8,0:0|0:0,0:0:0:0:
497,98,216255,2,0,L|485:173,1,68,8|0,0:0|0:0,0:0:0:0:
487,374,216528,2,0,L|372:332,1,102,4|8,0:0|0:0,0:0:0:0:
351,272,216891,2,0,L|370:219,1,34,8|0,0:0|0:0,0:0:0:0:
377,95,217073,6,0,L|291:130,1,85,4|8,0:0|0:0,0:0:0:0:
214,177,217346,1,2,0:0:0:0:
214,177,217438,2,0,L|309:215,1,85,4|0,0:0|0:0,0:0:0:0:
281,16,217709,1,0,0:0:0:0:
281,16,217800,2,0,L|299:93,1,42.5,8|0,0:0|0:0,0:0:0:0:
223,299,217982,6,2,L|133:290,3,50.9999984436036,2|2|2|6,0:0|0:0|0:0|0:0,0:0:0:0:
28,101,218346,2,0,P|94:112|114:157,1,101.999996887207,8|0,0:0|0:0,0:0:0:0:
223,192,218618,1,4,0:0:0:0:
223,192,218709,6,0,L|104:247,1,118.999996368408,8|0,0:0|0:0,0:0:0:0:
346,50,218982,1,0,0:0:0:0:
346,50,219073,2,0,L|460:13,1,118.999996368408,8|0,0:0|0:0,0:0:0:0:
157,71,219346,1,0,0:0:0:0:
157,71,219437,2,0,L|278:102,1,118.999996368408,6|4,0:0|0:0,0:0:0:0:
450,186,219709,1,2,0:0:0:0:
450,186,219800,2,0,P|394:199|371:251,1,68,8|0,0:0|0:0,0:0:0:0:
174,368,219982,6,0,P|223:366|272:271,1,152.999995330811,4|0,0:0|0:0,0:0:0:0:
257,165,220255,1,2,0:0:0:0:
257,165,220346,2,0,L|155:128,1,76.4999976654053,4|0,0:0|0:0,0:0:0:0:
63,153,220528,2,2,P|115:188|175:164,3,76.4999976654053,2|2|2|6,0:0|0:0|0:0|0:0,0:0:0:0:
160,27,220891,2,0,P|218:9|224:99,1,152.999995330811,8|0,0:0|0:0,0:0:0:0:
185,138,221164,1,4,0:0:0:0:
365,135,221255,2,0,B|423:153|452:102|452:102|439:69|439:69|434:10|361:10,1,229.499992996216,8|0,0:0|0:0,0:0:0:0:
242,81,221618,5,4,0:0:0:0:
267,158,221709,2,0,L|290:253,1,76.4999976654053,8|8,0:0|0:0,0:0:0:0:
387,360,221891,5,8,0:0:0:0:
412,283,221982,2,0,L|435:188,1,76.4999976654053,4|0,0:0|0:0,0:0:0:0:
478,136,222164,2,0,P|367:160|343:220,1,152.999995330811,8|0,0:0|0:0,0:0:0:0:
287,313,222437,1,2,0:0:0:0:
287,313,222528,1,2,0:0:0:0:
216,348,222618,2,0,P|170:329|176:215,1,152.999995330811,4|0,0:0|0:0,0:0:0:0:
217,115,222891,1,2,0:0:0:0:
217,115,222982,1,2,0:0:0:0:
153,66,223073,6,0,P|119:64|90:128,1,76.4999976654053,4|0,0:0|0:0,0:0:0:0:
287,77,223255,2,0,P|311:53|283:-11,1,76.4999976654053,8|0,0:0|0:0,0:0:0:0:
117,181,223437,2,0,P|126:220|188:224,1,76.4999976654053,4|0,0:0|0:0,0:0:0:0:
346,221,223618,6,2,B|218:160|218:160|207:134|207:134|151:76,1,229.499992996216,4|0,0:0|0:0,0:0:0:0:
359,295,223982,2,2,P|408:264|420:242,1,76.4999976654053
356,139,224164,2,0,B|411:24|411:24|455:59,1,152.999995330811,4|0,0:0|0:0,0:0:0:0:
476,118,224437,1,10,0:0:0:0:
356,139,224528,6,0,B|265:87|265:87|292:10|292:10|360:8,1,229.499992996216,6|0,0:0|0:0,0:0:0:0:
512,126,224891,2,8,B|513:229|513:229|432:244|432:244|396:187,1,229.499992996216,10|8,0:0|0:0,0:0:0:0:
233,91,225255,2,8,B|322:38|322:38|375:100|375:100|344:160,1,229.499992996216,6|8,0:0|0:0,3:0:0:0:
274,163,225618,5,4,0:0:0:0:
279,177,225709,1,2,0:0:0:0:
243,268,225800,1,8,0:0:0:0:
238,291,225891,1,2,0:0:0:0:
322,306,225982,6,0,L|262:126,1,136,4|8,0:0|0:0,0:0:0:0:
37,47,226255,1,0,0:0:0:0:
37,47,226346,2,0,P|59:60|47:22,1,76.4999976654053,4|0,0:0|0:0,0:0:0:0:
79,134,226528,2,0,B|139:112|149:47|149:47|209:49|259:124,1,229.499992996216,10|0,0:0|0:0,0:0:0:0:
180,160,226891,5,4,0:0:0:0:
225,187,226982,1,4,0:0:0:0:
281,180,227073,1,4,0:0:0:0:
317,138,227164,1,4,0:0:0:0:
328,82,227255,1,4,0:0:0:0:
303,29,227346,1,4,0:0:0:0:
251,8,227437,6,0,P|192:25|161:112,1,136,4|8,0:0|0:0,0:0:0:0:
446,252,227709,2,0,P|494:240|528:201,1,72.2500013780594,10|0,0:0|0:0,0:0:0:0:
79,134,227891,2,0,B|83:165|83:165|101:189|135:229|135:229|131:296,1,136,4|0,0:0|0:0,0:0:0:0:
368,380,228164,6,0,B|399:359|398:309|398:309|368:282|372:241|372:241|328:274|287:270|240:233,1,272,8|4,0:0|0:0,0:0:0:0:
354,6,228709,2,0,B|396:-6|426:0|426:0|443:30|427:92,1,144.500002756119,8|0,0:0|0:0,0:0:0:0:
354,6,229073,2,0,B|412:-18|447:31|447:31|459:90|428:97|428:97|379:164|336:119,1,272,4|0,0:0|0:0,0:0:0:0:
215,61,229528,1,2,0:0:0:0:
215,61,229618,6,0,B|176:62|147:29|147:29|117:-4|73:0,1,152.999995330811,8|0,0:0|0:0,0:0:0:0:
0,294,229982,2,0,B|33:292|56:260|56:260|79:226|119:226,1,136,4|0,0:0|0:0,0:0:0:0:
379,266,230346,6,0,P|409:248|403:175,1,68,8|0,0:0|0:0,0:0:0:0:
427,139,230528,2,0,B|369:143|342:106|342:106|318:132|316:153|316:153|364:224|358:222,1,204,4|0,0:0|0:0,0:0:0:0:
470,43,230891,2,0,P|439:44|397:112,1,68,2|2,0:0|0:0,0:0:0:0:
235,217,231073,2,0,B|231:255|231:255|396:375|396:375|326:377,1,305.999990661621,8|4,0:0|0:0,0:0:0:0:
172,175,231618,6,0,B|209:132|261:148|261:148|316:116,1,136,8|0,0:0|0:0,0:0:0:0:
330,62,231891,1,2,0:0:0:0:
235,217,231982,2,0,L|84:168,1,144.500002756119,4|0,0:0|0:0,0:0:0:0:
102,19,232346,1,10,0:0:0:0:
77,30,232437,1,2,0:0:0:0:
0,95,232528,6,0,B|-3:138|-3:138|30:160|102:140|95:88,1,161.499995687485,4|0,0:0|0:0,0:0:0:0:
435,48,232891,2,0,B|354:18|354:18|309:99,1,136,8|0,0:0|0:0,0:0:0:0:
399,126,233164,1,2,0:0:0:0:
399,126,233255,6,0,P|435:143|482:121,1,68,8|0,0:0|0:0,0:0:0:0:
263,13,233437,2,0,P|185:39|172:133,1,136,4|0,0:0|0:0,0:0:0:0:
339,357,233800,2,0,P|321:313|261:308,1,68,8|0,0:0|0:0,0:0:0:0:
10,245,233982,2,0,P|70:280|138:255,1,136,4|0,0:0|0:0,0:0:0:0:
95,195,234255,1,2,0:0:0:0:
95,195,234346,6,0,P|82:176|81:205,1,68
130,262,234528,2,0,L|274:192,1,136,4|0,0:0|0:0,0:0:0:0:
272,288,234800,1,2,0:0:0:0:
176,326,234891,2,0,L|228:123,1,152.999995330811,4|0,0:0|0:0,0:0:0:0:
448,86,235255,1,2,0:0:0:0:
439,72,235346,1,2,0:0:0:0:
419,0,235437,6,0,P|378:27|361:74,1,72.2500013780594,4|0,0:0|0:0,0:0:0:0:
467,156,235618,2,0,P|462:107|428:70,1,76.4999976654053,8|0,0:0|0:0,0:0:0:0:
270,36,235800,2,0,P|328:122|421:143,1,161.499995687485,4|0,0:0|0:0,0:0:0:0:
330,362,236164,5,8,0:0:0:0:
259,261,236346,2,0,B|261:239|261:239|335:302|332:372,1,152.999995330811,4|8,0:0|0:0,0:0:0:0:
197,311,236709,2,0,B|141:311|78:263|78:263|99:257,2,152.999995330811,8|4|0,0:0|0:0|0:0,0:0:0:0:
105,108,237255,2,0,P|61:118|36:199,1,76.4999976654053,8|0,0:0|0:0,0:0:0:0:
197,311,237437,2,0,L|300:279,1,76.4999976654053,2|0,0:0|0:0,0:0:0:0:
506,95,237618,5,6,0:0:0:0:
492,76,237709,1,6,0:0:0:0:
478,57,237800,1,14,0:0:0:0:
464,38,237891,1,6,0:0:0:0:
453,26,237982,5,6,0:0:0:0:
453,41,238073,1,6,0:0:0:0:
453,56,238164,1,14,0:0:0:0:
453,71,238255,1,6,0:0:0:0:
451,124,238346,5,12,0:0:0:0:
379,182,238437,1,12,0:0:0:0:
297,161,238528,1,12,0:0:0:0:
257,96,238618,1,12,0:0:0:0:
281,39,238709,1,12,0:0:0:0:
324,24,238800,1,12,0:0:0:0:
353,31,238891,1,12,0:0:0:0:
367,48,238982,1,12,0:0:0:0:
371,64,239073,6,0,B|371:107|342:133|342:133|378:170|378:170|354:200|365:260,1,178.499994552612,4|0,0:0|0:0,0:0:0:0:
446,302,239437,2,0,P|461:240|410:214,1,101.999996887207,8|0,0:0|0:0,0:0:0:0:
291,364,239800,1,4,0:0:0:0:
163,77,239982,2,0,B|222:112|222:112|264:82|264:82|296:74,1,152.999995330811
257,143,240346,2,0,B|255:186|255:186|235:228|235:228|231:288,1,118.999996368408,0|4,0:0|0:0,0:0:0:0:
233,257,240709,1,0,0:0:0:0:
16,375,240891,2,0,B|0:318|0:318|72:284,1,101.999996887207,8|0,0:0|0:0,0:0:0:0:
248,237,241255,6,2,L|305:271,2,50.9999984436036,6|2|2,0:0|0:0|0:0,0:0:0:0:
242,336,241618,2,2,L|263:398,2,50.9999984436036,10|2|2,0:0|0:0|0:0,0:0:0:0:
374,253,241982,5,4,0:0:0:0:
146,365,242164,1,0,0:0:0:0:
73,148,242346,2,0,B|120:113|107:52|107:52|119:-5|178:3|178:3|156:58,1,237.999992736817,8|4,0:0|0:0,0:0:0:0:
29,82,242800,1,2,0:0:0:0:
29,82,242891,6,0,P|-9:137|3:191,1,101.999996887207,0|8,0:0|0:0,0:0:0:0:
190,355,243255,2,0,B|260:319|260:319|276:246,1,110.499994941712,0|4,0:0|0:0,0:0:0:0:
252,75,243618,2,0,L|269:159,1,50.9999984436036
339,174,243800,2,0,B|351:142|351:142|331:56,1,118.999996368408,8|0,0:0|0:0,0:0:0:0:
268,209,244164,2,0,P|328:256|388:234,1,101.999996887207,4|0,0:0|0:0,0:0:0:0:
433,164,244437,1,2,0:0:0:0:
433,164,244528,2,0,P|366:157|321:194,1,101.999996887207,8|0,0:0|0:0,0:0:0:0:
454,253,244800,1,2,0:0:0:0:
480,246,244891,5,4,0:0:0:0:
397,41,245073,1,0,0:0:0:0:
434,380,245255,2,0,B|446:327|391:277|391:277|299:294|239:232|239:232|298:182,1,318.750012159348,8|0,0:0|0:0,0:0:0:0:
480,246,245800,2,0,B|482:194|461:160|461:160|391:126,1,136,0|8,0:0|0:0,0:0:0:0:
291,22,246164,2,0,B|370:-4|370:-4|433:9,1,101.999996887207,0|4,0:0|0:0,0:0:0:0:
162,145,246528,1,2,0:0:0:0:
162,145,246618,1,2,0:0:0:0:
162,145,246709,2,0,P|236:93|223:47,1,118.999996368408,8|0,0:0|0:0,0:0:0:0:
11,8,247073,6,0,L|106:37,1,68,4|0,0:0|0:0,0:0:0:0:
121,84,247255,1,0,0:0:0:0:
85,287,247437,2,0,L|153:272,1,50.9999984436036,8|0,0:0|0:0,0:0:0:0:
199,223,247618,1,0,0:0:0:0:
317,38,247800,5,4,0:0:0:0:
277,45,247982,1,0,0:0:0:0:
413,178,248164,1,8,0:0:0:0:
494,111,248346,1,0,0:0:0:0:
321,0,248528,1,4,0:0:0:0:
316,302,248709,6,0,B|368:288|368:288|425:296|425:296|460:246,1,165.749992412568
482,180,249073,2,0,L|362:137,1,118.999996368408,0|4,0:0|0:0,0:0:0:0:
194,13,249437,1,2,0:0:0:0:
194,13,249528,1,2,0:0:0:0:
194,13,249618,2,0,B|178:29|178:29|142:131,1,101.999996887207,8|0,0:0|0:0,0:0:0:0:
112,322,249982,5,4,0:0:0:0:
186,355,250073,2,0,P|233:345|281:269,1,101.999996887207,14|0,0:0|0:0,0:0:0:0:
225,141,250346,1,12,0:0:0:0:
151,103,250437,2,0,L|28:136,1,101.999996887207,14|0,0:0|0:0,0:0:0:0:
23,215,250709,6,0,P|7:189|64:138,1,85,4|0,0:0|0:0,0:0:0:0:
10,117,251073,2,0,P|25:185|68:209,1,89.2499972763062,8|0,0:0|0:0,0:0:0:0:
37,278,251437,2,0,P|61:208|95:185,1,93.5000028533936,4|0,0:0|0:0,0:0:0:0:
66,82,251800,2,0,P|67:137|101:184,1,97.7500018644333,8|0,0:0|0:0,0:0:0:0:
132,301,252164,2,0,P|109:248|114:189,1,101.999996887207,4|0,0:0|0:0,0:0:0:0:
137,58,252528,2,0,P|177:104|230:115,1,106.25,8|0,0:0|0:0,0:0:0:0:
200,250,252891,2,0,P|229:200|283:172,1,110.499994941712,4|0,0:0|0:0,0:0:0:0:
226,37,253255,2,0,P|267:83|328:93,1,114.750000437737,8|0,0:0|0:0,0:0:0:0:
286,297,253618,2,0,P|301:213|348:195,1,118.999996368408,4|0,0:0|0:0,0:0:0:0:
276,6,253982,2,0,P|312:77|353:99,1,123.250003761292,8|0,0:0|0:0,0:0:0:0:
268,346,254346,2,0,P|301:286|365:280,1,127.500004863739,4|0,0:0|0:0,0:0:0:0:
261,32,254709,2,0,P|330:58|403:37,1,131.750001005173,8|0,0:0|0:0,0:0:0:0:
341,342,255073,2,0,P|410:318|477:334,1,136,4|0,0:0|0:0,0:0:0:0:
283,17,255437,2,0,P|349:60|421:53,1,140.250001337528,4|0,0:0|0:0,0:0:0:0:
426,369,255800,2,0,P|475:305|527:344,1,144.500002756119,8|0,0:0|0:0,0:0:0:0:
447,116,256164,6,2,L|477:107,9,24.7916669030984
470,199,256528,5,4,0:0:0:0:
470,199,256709,2,0,B|491:208|491:208|453:220,1,42.5,2|0,0:0|0:0,0:0:0:0:
442,174,256891,5,8,0:0:0:0:
442,174,257072,2,0,B|463:183|463:183|424:195,1,44.6249986381531,2|0,0:0|0:0,0:0:0:0:
404,204,257255,5,4,0:0:0:0:
404,204,257437,2,0,B|425:213|425:213|386:225,1,46.7500014266968,2|0,0:0|0:0,0:0:0:0:
361,165,257618,5,8,0:0:0:0:
361,165,257799,2,0,B|383:174|383:174|342:187,1,48.8750009322167,2|0,0:0|0:0,0:0:0:0:
294,204,257982,5,4,0:0:0:0:
294,204,258163,2,0,B|318:214|318:214|273:228,1,50.9999984436036,2|0,0:0|0:0,0:0:0:0:
227,156,258346,5,8,0:0:0:0:
227,156,258527,2,0,B|252:167|252:167|206:181,1,53.125,2|0,0:0|0:0,0:0:0:0:
151,207,258709,5,4,0:0:0:0:
151,207,258890,2,0,B|179:219|179:219|128:235,1,55.2499974708558,2|0,0:0|0:0,0:0:0:0:
89,132,259073,5,8,0:0:0:0:
89,132,259254,2,0,B|117:144|117:144|66:160,1,57.3750002188683,2|0,0:0|0:0,0:0:0:0:
49,244,259437,5,4,0:0:0:0:
49,244,259618,2,0,B|77:256|77:256|26:272,1,59.4999981842042,2|0,0:0|0:0,0:0:0:0:
19,41,259800,5,8,0:0:0:0:
19,41,259981,2,0,B|48:53|48:53|-6:70,1,61.6250018806458,2|0,0:0|0:0,0:0:0:0:
1,328,260164,5,4,0:0:0:0:
1,328,260346,2,0,B|30:340|30:340|-23:357,1,63.7500024318696,2|0,0:0|0:0,0:0:0:0:
0,140,260528,5,8,0:0:0:0:
0,140,260709,2,0,B|13:172|17:166|34:195,1,65.8750005025864,2|0,0:0|0:0,0:0:0:0:
219,350,260891,6,0,B|205:385|205:385|252:349|310:347|310:347|336:308|412:294|412:294|470:205,1,340,4|0,0:0|0:0,0:0:0:0:
377,130,261437,2,0,L|528:110,1,136,8|0,0:0|0:0,0:0:0:0:
263,269,261800,2,0,B|180:279|180:279|145:218,1,136,4|0,0:0|0:0,0:0:0:0:
426,3,262164,6,0,L|510:32,1,85,12|0,0:0|0:0,0:0:0:0:
