osu file format v14

[General]
AudioFilename: audio.mp3
AudioLeadIn: 0
PreviewTime: -1
Countdown: 0
SampleSet: None
StackLeniency: 0.4
Mode: 0
LetterboxInBreaks: 0
WidescreenStoryboard: 0

[Editor]
DistanceSpacing: 1
BeatDivisor: 4
GridSize: 16
TimelineZoom: 1

[Metadata]
Title:Duel-rude Sandstorm
TitleUnicode:Duel-rude Sandstorm
Artist:Scrap
ArtistUnicode:Scrap
Creator:Pozy
Version:
Source:
Tags:
BeatmapID:1618386
BeatmapSetID:769696

[Difficulty]
HPDrainRate:4
CircleSize:4.3
OverallDifficulty:9
ApproachRate:9.2
SliderMultiplier:1.4
SliderTickRate:1

[Events]
//Background and Video events
//Break Periods
//Storyboard Layer 0 (Background)
//Storyboard Layer 1 (Fail)
//Storyboard Layer 2 (Pass)
//Storyboard Layer 3 (Foreground)
//Storyboard Sound Samples

[TimingPoints]
7064,434.782608695652,4,1,0,100,1,0
14564,441.176470588235,4,1,0,100,1,0
21622,-100,4,1,0,100,0,1
42799,-100,4,1,0,100,0,0

[HitObjects]
256,192,7064,5,0,0:0:0:0:
384,192,7498,2,0,L|448:192,4,35
256,192,10542,5,0,0:0:0:0:
128,192,10976,2,0,L|64:192,4,35
256,64,14564,6,0,L|256:29,4,35
256,320,15446,2,0,L|256:355,4,35
384,192,16328,2,0,L|419:192,4,35
128,192,17210,2,0,L|93:192,4,35
239,122,18093,5,0,0:0:0:0:
202,193,18203,1,0,0:0:0:0:
282,189,18314,1,0,0:0:0:0:
319,118,18424,1,0,0:0:0:0:
356,189,18534,1,0,0:0:0:0:
319,260,18645,1,0,0:0:0:0:
282,331,18755,1,0,0:0:0:0:
245,260,18865,1,0,0:0:0:0:
165,256,18976,5,0,0:0:0:0:
202,327,19086,1,0,0:0:0:0:
245,260,19196,1,0,0:0:0:0:
282,189,19306,1,0,0:0:0:0:
319,260,19416,1,0,0:0:0:0:
362,193,19527,1,0,0:0:0:0:
399,122,19637,1,0,0:0:0:0:
436,193,19747,1,0,0:0:0:0:
396,260,19858,6,0,P|371:317|285:329,1,140
190,275,20519,1,0,0:0:0:0:
190,275,20740,5,0,0:0:0:0:
153,346,20850,1,0,0:0:0:0:
86,216,21071,5,0,0:0:0:0:
153,346,21291,1,0,0:0:0:0:
256,192,21622,5,0,0:0:0:0:
297,248,21732,1,0,0:0:0:0:
364,227,21842,1,0,0:0:0:0:
364,157,21952,1,0,0:0:0:0:
297,135,22063,1,0,0:0:0:0:
227,257,22284,1,0,0:0:0:0:
157,271,22394,1,0,0:0:0:0:
103,228,22505,5,0,0:0:0:0:
103,157,22615,1,0,0:0:0:0:
157,114,22725,1,0,0:0:0:0:
226,129,22836,1,0,0:0:0:0:
256,192,22946,1,0,0:0:0:0:
256,320,23166,1,0,0:0:0:0:
336,192,23277,1,0,0:0:0:0:
336,320,23387,5,0,0:0:0:0:
416,192,23497,1,0,0:0:0:0:
416,320,23607,1,0,0:0:0:0:
496,192,23718,1,0,0:0:0:0:
496,320,23828,1,0,0:0:0:0:
496,192,24049,1,0,0:0:0:0:
416,320,24160,1,0,0:0:0:0:
416,192,24270,5,0,0:0:0:0:
336,320,24380,1,0,0:0:0:0:
336,192,24490,1,0,0:0:0:0:
256,320,24601,1,0,0:0:0:0:
256,192,24711,1,0,0:0:0:0:
256,192,24931,1,0,0:0:0:0:
192,80,25152,5,0,0:0:0:0:
272,80,25262,1,0,0:0:0:0:
352,80,25372,1,0,0:0:0:0:
352,160,25482,1,0,0:0:0:0:
352,240,25593,1,0,0:0:0:0:
272,320,25813,1,0,0:0:0:0:
192,320,25924,1,0,0:0:0:0:
112,320,26034,5,0,0:0:0:0:
112,240,26144,1,0,0:0:0:0:
112,160,26254,1,0,0:0:0:0:
112,80,26365,1,0,0:0:0:0:
192,80,26475,1,0,0:0:0:0:
192,192,26696,1,0,0:0:0:0:
112,192,26806,1,0,0:0:0:0:
272,192,26916,5,0,0:0:0:0:
352,192,27027,1,0,0:0:0:0:
352,272,27137,1,0,0:0:0:0:
272,272,27247,1,0,0:0:0:0:
192,272,27358,1,0,0:0:0:0:
272,352,27578,1,0,0:0:0:0:
352,352,27689,1,0,0:0:0:0:
432,352,27799,5,0,0:0:0:0:
432,272,27909,1,0,0:0:0:0:
352,272,28020,1,0,0:0:0:0:
272,272,28130,1,0,0:0:0:0:
192,272,28240,1,0,0:0:0:0:
192,112,28461,1,0,0:0:0:0:
192,32,28571,1,0,0:0:0:0:
192,192,28681,5,0,0:0:0:0:
192,272,28791,1,0,0:0:0:0:
192,352,28902,1,0,0:0:0:0:
272,352,29012,1,0,0:0:0:0:
272,272,29122,1,0,0:0:0:0:
400,272,29343,1,0,0:0:0:0:
400,352,29453,1,0,0:0:0:0:
480,352,29563,5,0,0:0:0:0:
480,272,29674,1,0,0:0:0:0:
480,192,29784,1,0,0:0:0:0:
400,192,29894,1,0,0:0:0:0:
400,272,30005,1,0,0:0:0:0:
272,272,30225,1,0,0:0:0:0:
272,144,30336,1,0,0:0:0:0:
144,144,30446,5,0,0:0:0:0:
144,272,30556,1,0,0:0:0:0:
272,144,30666,1,0,0:0:0:0:
272,272,30777,1,0,0:0:0:0:
144,144,30887,1,0,0:0:0:0:
272,144,31108,1,0,0:0:0:0:
400,272,31218,1,0,0:0:0:0:
400,144,31329,5,0,0:0:0:0:
272,272,31439,1,0,0:0:0:0:
272,144,31549,1,0,0:0:0:0:
400,144,31659,1,0,0:0:0:0:
400,272,31770,1,0,0:0:0:0:
272,272,31990,1,0,0:0:0:0:
272,240,32100,1,0,0:0:0:0:
272,304,32211,5,0,0:0:0:0:
272,384,32321,1,0,0:0:0:0:
192,384,32431,1,0,0:0:0:0:
192,304,32541,1,0,0:0:0:0:
192,224,32652,1,0,0:0:0:0:
112,304,32872,1,0,0:0:0:0:
192,304,32983,1,0,0:0:0:0:
272,304,33093,5,0,0:0:0:0:
272,224,33203,1,0,0:0:0:0:
272,144,33313,1,0,0:0:0:0:
192,144,33424,1,0,0:0:0:0:
192,224,33534,1,0,0:0:0:0:
352,224,33755,1,0,0:0:0:0:
272,224,33865,1,0,0:0:0:0:
432,224,33975,5,0,0:0:0:0:
432,304,34086,1,0,0:0:0:0:
352,304,34196,1,0,0:0:0:0:
272,304,34306,1,0,0:0:0:0:
192,304,34416,1,0,0:0:0:0:
272,224,34637,1,0,0:0:0:0:
272,304,34747,1,0,0:0:0:0:
352,304,34858,5,0,0:0:0:0:
352,224,34968,1,0,0:0:0:0:
352,144,35078,1,0,0:0:0:0:
272,144,35188,1,0,0:0:0:0:
272,224,35299,1,0,0:0:0:0:
272,304,35519,1,0,0:0:0:0:
352,304,35630,1,0,0:0:0:0:
192,304,35740,5,0,0:0:0:0:
192,224,35850,1,0,0:0:0:0:
112,224,35961,1,0,0:0:0:0:
112,304,36071,1,0,0:0:0:0:
32,304,36181,1,0,0:0:0:0:
112,224,36402,1,0,0:0:0:0:
112,304,36512,1,0,0:0:0:0:
192,304,36622,5,0,0:0:0:0:
192,224,36733,1,0,0:0:0:0:
192,144,36843,1,0,0:0:0:0:
272,144,36953,1,0,0:0:0:0:
272,224,37063,1,0,0:0:0:0:
272,352,37284,1,0,0:0:0:0:
400,352,37394,1,0,0:0:0:0:
272,224,37505,5,0,0:0:0:0:
272,352,37615,1,0,0:0:0:0:
400,224,37725,1,0,0:0:0:0:
272,224,37836,1,0,0:0:0:0:
400,352,37946,1,0,0:0:0:0:
272,352,38166,1,0,0:0:0:0:
144,352,38276,1,0,0:0:0:0:
272,224,38387,5,0,0:0:0:0:
272,352,38497,1,0,0:0:0:0:
144,224,38607,1,0,0:0:0:0:
272,224,38718,1,0,0:0:0:0:
144,352,38828,1,0,0:0:0:0:
272,224,39049,1,0,0:0:0:0:
240,224,39159,1,0,0:0:0:0:
304,224,39269,5,0,0:0:0:0:
304,144,39380,1,0,0:0:0:0:
304,64,39490,1,0,0:0:0:0:
224,64,39600,1,0,0:0:0:0:
224,144,39711,1,0,0:0:0:0:
224,224,39931,1,0,0:0:0:0:
224,304,40041,1,0,0:0:0:0:
224,144,40152,5,0,0:0:0:0:
304,144,40262,1,0,0:0:0:0:
304,224,40372,1,0,0:0:0:0:
304,304,40483,1,0,0:0:0:0:
224,304,40593,1,0,0:0:0:0:
144,304,40813,1,0,0:0:0:0:
224,304,40924,1,0,0:0:0:0:
64,304,41034,5,0,0:0:0:0:
64,224,41144,1,0,0:0:0:0:
144,224,41255,1,0,0:0:0:0:
144,304,41365,1,0,0:0:0:0:
224,304,41475,1,0,0:0:0:0:
336,304,41696,1,0,0:0:0:0:
336,224,41806,1,0,0:0:0:0:
256,224,41916,5,0,0:0:0:0:
256,144,42027,1,0,0:0:0:0:
336,144,42137,1,0,0:0:0:0:
336,224,42247,1,0,0:0:0:0:
256,224,42358,1,0,0:0:0:0:
256,352,42578,1,0,0:0:0:0:
256,224,42688,1,0,0:0:0:0:
256,192,42799,12,0,48975,0:0:0:0:
