osu file format v14

[General]
AudioFilename: audio.mp3
AudioLeadIn: 0
PreviewTime: 6129
Countdown: 1
SampleSet: Soft
StackLeniency: 0.2
Mode: 1
LetterboxInBreaks: 0
WidescreenStoryboard: 1

[Editor]
Bookmarks: 5777,17071
DistanceSpacing: 1.5
BeatDivisor: 4
GridSize: 4
TimelineZoom: 1.1

[Metadata]
Title:The Office Theme Song
TitleUnicode:The Office Theme Song
Artist:Scrantones
ArtistUnicode:Scrantones
Creator:TheDustOfTimes
Version:TDoT's Futsuu
Source:The Office
Tags:Comedy Dwight Michael Jim Kevin Creed Pam Angela Clark Ryan Meredith Toby Phyllis Oscar Stanley Sans Undertale Papyrus Jay Ferguson vallewabbel parkour Dunder Mifflin paper Collab Phytotoxicity
BeatmapID:1850878
BeatmapSetID:837419

[Difficulty]
HPDrainRate:6
CircleSize:5
OverallDifficulty:5
ApproachRate:5
SliderMultiplier:1.4
SliderTickRate:1

[Events]
//Background and Video events
0,0,"the office.jpg",0,0
//Break Periods
//Storyboard Layer 0 (Background)
//Storyboard Layer 1 (Fail)
//Storyboard Layer 2 (Pass)
//Storyboard Layer 3 (Foreground)
//Storyboard Sound Samples

[TimingPoints]
134,352.941176470588,4,2,0,50,1,0
6133,-80,4,2,0,50,0,0
16722,-76.9230769230769,4,2,0,18,0,0
16810,-74.0740740740741,4,2,0,26,0,0
16898,-71.4285714285714,4,2,0,34,0,0
16986,-68.9655172413793,4,2,0,42,0,0
17075,-66.6666666666667,4,2,0,50,0,1
28369,-66.6666666666667,4,2,0,50,0,0
28898,-100,4,2,0,42,0,0
29075,-100,4,2,0,34,0,0
29428,-100,4,2,0,26,0,0
29781,-100,4,2,0,18,0,0

[Colours]
Combo1 : 128,255,255
Combo2 : 0,0,255
Combo3 : 255,0,128
Combo4 : 159,97,11

[HitObjects]
178,144,134,5,0,0:0:0:0:
178,144,310,1,2,0:0:0:0:
178,144,486,1,0,0:0:0:0:
178,144,1192,1,0,0:0:0:0:
178,144,1369,1,2,0:0:0:0:
178,144,1545,1,0,0:0:0:0:
178,144,1722,1,2,0:0:0:0:
178,144,1898,1,0,0:0:0:0:
178,144,2604,1,0,0:0:0:0:
178,144,2781,1,2,0:0:0:0:
178,144,2957,1,2,0:0:0:0:
178,144,3133,1,0,0:0:0:0:
178,144,3310,1,2,0:0:0:0:
178,144,4016,1,2,0:0:0:0:
178,144,4192,1,2,0:0:0:0:
178,144,4369,1,0,0:0:0:0:
178,144,4722,1,2,0:0:0:0:
178,144,5075,1,0,0:0:0:0:
178,144,5251,1,2,0:0:0:0:
178,144,5428,1,0,0:0:0:0:
178,144,5604,1,2,0:0:0:0:
178,144,5781,1,0,0:0:0:0:
178,144,6133,1,0,0:0:0:0:
178,144,6486,1,2,0:0:0:0:
178,144,6839,1,0,0:0:0:0:
178,144,7016,1,2,0:0:0:0:
178,144,7192,1,0,0:0:0:0:
178,144,7369,1,2,0:0:0:0:
178,144,7545,1,0,0:0:0:0:
178,144,7898,1,0,0:0:0:0:
178,144,8075,1,2,0:0:0:0:
178,144,8251,1,0,0:0:0:0:
178,144,8428,1,2,0:0:0:0:
178,144,8604,1,2,0:0:0:0:
178,144,8781,1,0,0:0:0:0:
178,144,8957,1,2,0:0:0:0:
178,144,9310,1,0,0:0:0:0:
178,144,9663,1,2,0:0:0:0:
178,144,9839,1,0,0:0:0:0:
178,144,10016,1,2,0:0:0:0:
178,144,10369,1,2,0:0:0:0:
178,144,10722,1,0,0:0:0:0:
178,144,10898,1,2,0:0:0:0:
178,144,11075,1,0,0:0:0:0:
178,144,11251,1,2,0:0:0:0:
178,144,11428,1,2,0:0:0:0:
178,144,11604,1,0,0:0:0:0:
178,144,11781,1,2,0:0:0:0:
178,144,12133,1,2,0:0:0:0:
178,144,12486,1,0,0:0:0:0:
178,144,12663,1,2,0:0:0:0:
178,144,12839,1,0,0:0:0:0:
178,144,13016,1,2,0:0:0:0:
178,144,13192,1,0,0:0:0:0:
178,144,13545,1,0,0:0:0:0:
178,144,13722,1,2,0:0:0:0:
178,144,13898,1,0,0:0:0:0:
178,144,14075,1,2,0:0:0:0:
178,144,14251,1,2,0:0:0:0:
178,144,14428,1,0,0:0:0:0:
178,144,14604,1,2,0:0:0:0:
178,144,14957,1,0,0:0:0:0:
178,144,15133,1,2,0:0:0:0:
178,144,15310,1,0,0:0:0:0:
178,144,15486,1,2,0:0:0:0:
178,144,15663,1,0,0:0:0:0:
178,144,16016,1,0,0:0:0:0:
178,144,16369,1,0,0:0:0:0:
178,144,16545,1,2,0:0:0:0:
178,144,16722,1,0,0:0:0:0:
178,144,16810,1,0,0:0:0:0:
178,144,16898,1,0,0:0:0:0:
178,144,16986,1,0,0:0:0:0:
178,144,17075,1,2,0:0:0:0:
178,144,17428,1,0,0:0:0:0:
178,144,17781,1,2,0:0:0:0:
178,144,18133,1,0,0:0:0:0:
178,144,18310,1,2,0:0:0:0:
178,144,18486,1,0,0:0:0:0:
178,144,18663,1,2,0:0:0:0:
178,144,18839,1,0,0:0:0:0:
178,144,19192,1,0,0:0:0:0:
178,144,19369,1,2,0:0:0:0:
178,144,19545,1,0,0:0:0:0:
178,144,19722,1,2,0:0:0:0:
178,144,19898,1,2,0:0:0:0:
178,144,20075,1,0,0:0:0:0:
178,144,20251,1,2,0:0:0:0:
178,144,20604,1,2,0:0:0:0:
178,144,20781,1,2,0:0:0:0:
178,144,20957,1,0,0:0:0:0:
178,144,21133,1,2,0:0:0:0:
178,144,21310,1,0,0:0:0:0:
178,144,21663,1,0,0:0:0:0:
178,144,22016,1,0,0:0:0:0:
178,144,22192,1,2,0:0:0:0:
178,144,22369,1,0,0:0:0:0:
178,144,22545,1,2,0:0:0:0:
178,144,22722,1,2,0:0:0:0:
178,144,22898,1,0,0:0:0:0:
178,144,23075,1,0,0:0:0:0:
178,144,23428,1,2,0:0:0:0:
178,144,23604,1,0,0:0:0:0:
178,144,23781,1,0,0:0:0:0:
178,144,23957,1,2,0:0:0:0:
178,144,24133,1,0,0:0:0:0:
178,144,24310,1,2,0:0:0:0:
178,144,24486,1,0,0:0:0:0:
178,144,24839,1,2,0:0:0:0:
178,144,25016,1,0,0:0:0:0:
178,144,25192,1,2,0:0:0:0:
178,144,25369,1,0,0:0:0:0:
178,144,25545,1,0,0:0:0:0:
178,144,25722,1,2,0:0:0:0:
178,144,25898,1,0,0:0:0:0:
178,144,26251,1,2,0:0:0:0:
178,144,26428,1,0,0:0:0:0:
178,144,26604,1,2,0:0:0:0:
178,144,26781,1,0,0:0:0:0:
178,144,26957,1,2,0:0:0:0:
178,144,27310,1,0,0:0:0:0:
178,144,27663,1,0,0:0:0:0:
178,144,27839,1,0,0:0:0:0:
178,144,28016,1,0,0:0:0:0:
178,144,28192,1,0,0:0:0:0:
178,144,28369,1,0,0:0:0:0:
256,192,28722,12,0,32251,0:0:0:0:
