osu file format v14

[General]
AudioFilename: audio.mp3
AudioLeadIn: 0
PreviewTime: 6129
Countdown: 1
SampleSet: Soft
StackLeniency: 0.2
Mode: 0
LetterboxInBreaks: 0
WidescreenStoryboard: 1

[Editor]
Bookmarks: 5777,17071
DistanceSpacing: 1
BeatDivisor: 4
GridSize: 4
TimelineZoom: 1.4

[Metadata]
Title:The Office Theme Song
TitleUnicode:The Office Theme Song
Artist:Scrantones
ArtistUnicode:Scrantones
Creator:TheDustOfTimes
Version:Normal: Meredith
Source:The Office
Tags:Comedy Dwight Michael Jim Kevin Creed Pam Angela Clark Ryan Meredith Toby Phyllis Oscar Stanley Sans Undertale Papyrus Jay Ferguson vallewabbel parkour Dunder Mifflin paper Collab Phytotoxicity
BeatmapID:1826121
BeatmapSetID:837419

[Difficulty]
HPDrainRate:2
CircleSize:3
OverallDifficulty:1
ApproachRate:4
SliderMultiplier:1
SliderTickRate:1

[Events]
//Background and Video events
0,0,"the office.jpg",0,0
//Break Periods
//Storyboard Layer 0 (Background)
//Storyboard Layer 1 (Fail)
//Storyboard Layer 2 (Pass)
//Storyboard Layer 3 (Foreground)
//Storyboard Sound Samples

[TimingPoints]
134,352.941176470588,4,2,0,100,1,0
16722,-100,4,2,0,36,0,0
16810,-100,4,2,0,52,0,0
16898,-100,4,2,0,68,0,0
16986,-100,4,2,0,84,0,0
17075,-100,4,2,0,100,0,1
28369,-100,4,2,0,100,0,0
28898,-100,4,2,0,84,0,0
29075,-100,4,2,0,68,0,0
29428,-100,4,2,0,52,0,0
29781,-100,4,2,0,36,0,0

[Colours]
Combo1 : 128,255,255
Combo2 : 0,0,255
Combo3 : 255,0,128
Combo4 : 159,97,11

[HitObjects]
363,87,134,6,0,P|354:147|332:205,1,100
154,255,1192,1,0,0:0:0:0:
68,203,1545,2,0,P|59:129|76:96,1,100
249,193,2604,1,0,0:0:0:0:
346,215,2957,2,0,P|410:198|436:162,1,100
262,26,4016,5,0,0:0:0:0:
172,70,4369,2,0,P|118:105|81:148,1,100
60,230,5075,1,0,0:0:0:0:
156,200,5428,1,0,0:0:0:0:
248,240,5781,1,2,0:0:0:0:
328,300,6133,6,0,P|232:336|144:276,1,200,8|8,0:3|0:3,0:0:0:0:
120,196,7192,1,2,0:0:0:0:
153,101,7545,1,8,0:3:0:0:
252,109,7898,5,2,0:0:0:0:
312,188,8251,2,0,P|326:234|378:277,1,100,8|2,0:3|0:0,0:0:0:0:
409,179,8957,1,8,0:3:0:0:
171,26,10016,5,2,0:0:0:0:
124,114,10369,1,8,0:3:0:0:
131,213,10722,2,0,P|155:265|186:302,1,100,2|8,0:0|0:3,0:0:0:0:
281,285,11428,2,0,P|341:168|344:92,1,200,2|2,0:0|0:0,0:0:0:0:
260,47,12486,5,8,0:3:0:0:
185,114,12839,2,0,P|190:186|216:208,1,100,2|8,0:0|0:3,0:0:0:0:
305,221,13545,2,0,P|341:264|321:317,1,100,2|8,0:0|0:3,0:0:0:0:
254,366,14251,1,2,0:0:0:0:
163,324,14604,1,8,0:3:0:0:
172,224,14957,6,0,P|205:176|259:146,1,100,2|8,0:0|0:3,0:0:0:0:
334,185,15663,5,2,0:0:0:0:
364,279,16016,1,8,0:3:0:0:
276,327,16369,1,2,0:0:0:0:
198,263,16722,1,8,0:3:0:0:
238,170,17075,1,2,0:0:0:0:
336,186,17428,6,0,P|365:278|267:321,1,200,8|8,0:3|0:3,0:0:0:0:
252,232,18486,1,2,0:0:0:0:
174,295,18839,1,8,0:3:0:0:
74,290,19192,2,0,P|67:220|79:172,1,100,2|8,0:0|0:3,0:0:0:0:
159,140,19898,1,2,0:0:0:0:
84,73,20251,1,8,0:3:0:0:
374,146,21310,5,2,0:0:0:0:
370,245,21663,1,8,0:3:0:0:
280,199,22016,2,0,P|248:262|247:302,1,100,2|8,0:0|0:3,0:0:0:0:
338,329,22722,2,0,P|411:236|427:138,1,200,2|2,0:0|0:0,0:0:0:0:
377,70,23781,1,8,0:3:0:0:
321,152,24133,2,0,P|302:216|272:248,1,100,2|8,0:0|0:3,0:0:0:0:
183,215,24839,5,2,0:0:0:0:
159,117,25192,1,8,0:3:0:0:
254,146,25545,2,0,P|255:215|270:246,1,100,2|8,0:0|0:3,0:0:0:0:
366,225,26251,2,0,P|375:154|367:126,1,100,2|8,0:0|0:3,0:0:0:0:
323,37,26957,1,2,0:0:0:0:
268,120,27310,1,8,0:3:0:0:
341,187,27663,1,2,0:0:0:0:
423,129,28016,1,8,0:3:0:0:
386,35,28369,1,0,0:0:0:0:
256,192,28722,12,0,32251,0:0:0:0:
