osu file format v14

[General]
AudioFilename: audio.mp3
AudioLeadIn: 0
PreviewTime: 6129
Countdown: 1
SampleSet: Soft
StackLeniency: 0.7
Mode: 0
LetterboxInBreaks: 0
WidescreenStoryboard: 1

[Editor]
Bookmarks: 5777,17071
DistanceSpacing: 1
BeatDivisor: 4
GridSize: 4
TimelineZoom: 1.7

[Metadata]
Title:The Office Theme Song
TitleUnicode:The Office Theme Song
Artist:Scrantones
ArtistUnicode:Scrantones
Creator:TheDustOfTimes
Version:Normal: Kevin
Source:The Office
Tags:Comedy Dwight Michael Jim Kevin Creed Pam Angela Clark Ryan Meredith Toby Phyllis Oscar Stanley Sans Undertale Papyrus Jay Ferguson vallewabbel parkour Dunder Mifflin paper Collab Phytotoxicity
BeatmapID:1816122
BeatmapSetID:837419

[Difficulty]
HPDrainRate:5
CircleSize:2
OverallDifficulty:5
ApproachRate:6
SliderMultiplier:1
SliderTickRate:1

[Events]
//Background and Video events
0,0,"the office.jpg",0,0
//Break Periods
//Storyboard Layer 0 (Background)
//Storyboard Layer 1 (Fail)
//Storyboard Layer 2 (Pass)
//Storyboard Layer 3 (Foreground)
//Storyboard Sound Samples

[TimingPoints]
134,352.941176470588,4,2,0,50,1,0
486,-100,4,2,0,50,0,0
16722,-100,4,2,0,18,0,0
16810,-100,4,2,0,26,0,0
16898,-100,4,2,0,34,0,0
16986,-100,4,2,0,42,0,0
17075,-100,4,2,0,50,0,1
22722,-100,4,2,0,50,0,1
23428,-100,4,2,0,50,0,1
28369,-200,4,2,0,50,0,0
28898,-200,4,2,0,42,0,0
29075,-200,4,2,0,34,0,0
29428,-200,4,2,0,26,0,0
29781,-200,4,2,0,18,0,0

[Colours]
Combo1 : 128,255,255
Combo2 : 0,0,255
Combo3 : 255,0,128
Combo4 : 159,97,11

[HitObjects]
48,236,134,5,0,0:0:0:0:
64,285,310,1,0,0:0:0:0:
98,323,486,2,0,P|155:347|207:351,1,100
292,351,1192,2,0,L|324:293,1,50
365,300,1545,2,0,L|418:259,1,50
424,223,1898,2,0,P|358:173|321:163,2,100
463,191,2781,2,0,L|477:138,1,50
480,64,3133,2,0,L|441:31,1,50
329,31,4016,5,0,0:0:0:0:
285,55,4192,1,0,0:0:0:0:
242,28,4369,1,0,0:0:0:0:
175,102,4722,5,0,0:0:0:0:
75,112,5075,2,0,L|49:159,1,50
38,203,5428,1,0,0:0:0:0:
53,250,5604,2,0,L|81:304,1,50
174,265,6133,6,0,P|223:255|277:274,1,100,8|2,0:3|0:0,0:0:0:0:
243,353,6839,2,0,P|292:363|341:351,1,100,8|2,0:3|0:0,0:0:0:0:
427,303,7545,1,8,0:3:0:0:
335,263,7898,2,0,L|351:205,1,50,2|0,0:0|0:0,0:0:0:0:
432,195,8251,2,0,L|416:142,1,50,8|0,0:3|0:0,0:0:0:0:
395,101,8604,6,0,P|340:75|200:69,1,200,2|2,0:0|0:0,0:0:0:0:
104,86,9663,2,0,L|72:37,2,50,8|0|2,0:3|0:0|0:0,0:0:0:0:
178,153,10369,1,8,0:3:0:0:
85,190,10722,2,0,L|106:246,1,50,2|0,0:0|0:0,0:0:0:0:
71,275,11075,2,0,L|123:299,1,50,8|0,0:3|0:0,0:0:0:0:
132,343,11428,6,0,B|151:324|151:324|223:343|330:329,1,200,2|2,0:0|0:0,0:0:0:0:
422,338,12486,1,8,0:3:0:0:
463,309,12663,1,0,0:0:0:0:
473,260,12839,1,2,0:0:0:0:
488,212,13016,6,0,P|467:189|428:176,1,50,0|8,0:0|0:3,0:0:0:0:
449,80,13545,2,0,L|396:80,1,50,2|0,0:0|0:0,0:0:0:0:
378,125,13898,2,0,L|326:125,1,50,8|0,0:3|0:0,0:0:0:0:
297,164,14251,6,0,L|244:164,1,50,2|0,0:0|0:0,0:0:0:0:
226,209,14604,2,0,L|174:209,1,50,8|0,0:3|0:0,0:0:0:0:
144,247,14957,2,0,L|146:296,3,50,2|0|8|0,0:0|0:0|0:3|0:0,0:0:0:0:
129,344,15663,5,2,0:0:0:0:
224,373,16016,1,8,0:3:0:0:
311,325,16369,2,0,L|283:271,1,50
252,244,16722,2,0,L|245:192,1,50
257,145,17075,1,0,0:0:0:0:
362,57,17428,6,0,B|390:66|390:66|426:146,1,100,8|2,0:3|0:0,0:0:0:0:
475,212,18133,1,8,0:3:0:0:
425,298,18486,2,0,L|454:359,2,50,2|0|8,0:0|0:0|0:3,0:0:0:0:
324,295,19192,2,0,L|256:296,1,50,2|0,0:0|0:0,0:0:0:0:
234,326,19545,1,8,0:3:0:0:
191,298,19722,2,0,L|123:299,2,50,0|2|0,0:0|0:0|0:0,0:0:0:0:
202,249,20251,5,8,0:3:0:0:
104,225,20604,2,0,L|43:261,2,50,2|0|8,0:0|0:0|0:3,0:0:0:0:
179,158,21310,2,0,P|132:94|124:57,1,100,2|8,0:0|0:3,0:0:0:0:
205,12,22016,2,0,L|266:32,1,50,2|0,0:0|0:0,0:0:0:0:
267,75,22369,2,0,L|331:54,1,50,8|0,0:3|0:0,0:0:0:0:
354,29,22722,2,0,B|375:100|356:156|356:156|345:192|348:227,1,200,2|2,0:0|0:0,0:0:0:0:
438,183,23781,5,8,0:3:0:0:
463,226,23957,2,0,L|522:192,2,50,0|2|0,0:0|0:0|0:0,0:0:0:0:
457,275,24486,1,8,0:3:0:0:
363,311,24839,5,2,0:0:0:0:
318,333,25016,1,0,0:0:0:0:
269,342,25192,1,8,0:3:0:0:
220,328,25369,1,0,0:0:0:0:
172,311,25545,2,0,L|141:359,2,50,2|0|8,0:0|0:0|0:3,0:0:0:0:
105,235,26251,5,2,0:0:0:0:
92,186,26428,1,0,0:0:0:0:
110,139,26604,1,8,0:3:0:0:
151,111,26781,2,0,L|188:170,2,50,0|2|0,0:0|0:0|0:0,0:0:0:0:
178,69,27310,1,8,0:3:0:0:
272,35,27663,6,0,L|304:99,1,50,2|0,0:0|0:0,0:0:0:0:
330,114,28016,2,0,L|299:177,1,50,8|0,0:3|0:0,0:0:0:0:
314,183,28369,1,0,0:0:0:0:
256,192,28545,12,0,32251,0:0:0:0:
