osu file format v14

[General]
AudioFilename: audio.mp3
AudioLeadIn: 0
PreviewTime: 6129
Countdown: 1
SampleSet: Soft
StackLeniency: 0.7
Mode: 0
LetterboxInBreaks: 0
WidescreenStoryboard: 1

[Editor]
Bookmarks: 5777,17071
DistanceSpacing: 1.9
BeatDivisor: 4
GridSize: 4
TimelineZoom: 1

[Metadata]
Title:The Office Theme Song
TitleUnicode:The Office Theme Song
Artist:Scrantones
ArtistUnicode:Scrantones
Creator:TheDustOfTimes
Version:Light Insane: Pam
Source:The Office
Tags:Comedy Dwight Michael Jim Kevin Creed Pam Angela Clark Ryan Meredith Toby Phyllis Oscar Stanley Sans Undertale Papyrus Jay Ferguson vallewabbel parkour Dunder Mifflin paper Collab Phytotoxicity
BeatmapID:1817116
BeatmapSetID:837419

[Difficulty]
HPDrainRate:6
CircleSize:4
OverallDifficulty:7.5
ApproachRate:8.5
SliderMultiplier:1.4
SliderTickRate:1

[Events]
//Background and Video events
0,0,"the office.jpg",0,0
//Break Periods
//Storyboard Layer 0 (Background)
//Storyboard Layer 1 (Fail)
//Storyboard Layer 2 (Pass)
//Storyboard Layer 3 (Foreground)
//Storyboard Sound Samples

[TimingPoints]
134,352.941176470588,4,2,0,50,1,0
16722,-100,4,2,0,18,0,0
16810,-100,4,2,0,26,0,0
16898,-100,4,2,0,34,0,0
16986,-100,4,2,0,42,0,0
17075,-100,4,2,0,50,0,1
28369,-100,4,2,0,50,0,0
28898,-100,4,2,0,42,0,0
29075,-100,4,2,0,34,0,0
29428,-100,4,2,0,26,0,0
29781,-100,4,2,0,18,0,0

[Colours]
Combo1 : 128,255,255
Combo2 : 0,0,255
Combo3 : 255,0,128
Combo4 : 159,97,11

[HitObjects]
101,109,134,5,0,0:0:0:0:
158,174,310,1,0,0:0:0:0:
70,186,486,1,0,0:0:0:0:
267,351,1192,5,0,0:0:0:0:
355,279,1369,5,0,0:0:0:0:
271,258,1545,1,0,0:0:0:0:
291,173,1722,1,0,0:0:0:0:
377,194,1898,1,0,0:0:0:0:
55,264,2604,5,0,0:0:0:0:
171,290,2781,1,0,0:0:0:0:
147,173,2957,1,0,0:0:0:0:
62,256,3133,1,0,0:0:0:0:
200,146,3310,5,0,0:0:0:0:
202,310,4016,5,0,0:0:0:0:
270,237,4192,1,0,0:0:0:0:
173,208,4369,1,0,0:0:0:0:
202,310,4722,5,0,0:0:0:0:
153,106,5075,5,0,0:0:0:0:
232,267,5251,1,0,0:0:0:0:
257,86,5428,1,0,0:0:0:0:
117,184,5604,1,0,0:0:0:0:
304,321,5781,2,0,P|362:278|367:263,1,70,2|0,0:0|0:0,0:0:0:0:
388,197,6133,6,0,P|421:250|444:327,2,140,8|2|8,0:3|0:0|0:3,0:0:0:0:
287,127,7016,1,0,0:0:0:0:
426,140,7192,1,2,0:0:0:0:
327,253,7369,1,0,0:0:0:0:
65,262,7545,6,0,B|119:184|174:169,1,140,8|2,0:3|0:0,0:0:0:0:
236,271,8075,1,0,0:0:0:0:
327,173,8251,2,0,P|329:203|329:246,2,70,8|0|2,0:3|0:0|0:0,0:0:0:0:
220,137,8781,1,0,0:0:0:0:
344,32,8957,2,0,P|309:53|272:54,1,70,8|0,0:3|0:0,0:0:0:0:
53,91,9310,6,0,P|85:151|75:224,1,140,2|8,0:0|0:3,0:0:0:0:
160,342,9839,1,0,0:0:0:0:
228,207,10016,1,2,0:0:0:0:
48,315,10369,5,8,0:3:0:0:
201,335,10722,5,2,0:0:0:0:
312,181,10898,1,0,0:0:0:0:
133,212,11075,1,8,0:3:0:0:
297,297,11251,1,0,0:0:0:0:
269,129,11428,2,0,P|227:171|216:190,1,70,2|0,0:0|0:0,0:0:0:0:
147,297,11781,2,0,P|187:254|198:235,1,70,8|0,0:3|0:0,0:0:0:0:
442,228,12133,6,0,B|446:266|379:355,1,140,2|8,0:0|0:3,0:0:0:0:
341,165,12663,1,0,0:0:0:0:
171,278,12839,1,2,0:0:0:0:
249,114,13016,1,0,0:0:0:0:
283,304,13192,2,0,L|286:215,1,70,8|0,0:3|0:0,0:0:0:0:
85,46,13545,5,2,0:0:0:0:
38,228,13722,1,0,0:0:0:0:
129,74,13898,1,8,0:3:0:0:
88,248,14075,1,0,0:0:0:0:
85,46,14251,2,0,P|88:57|69:110,1,70,2|0,0:0|0:0,0:0:0:0:
362,238,14604,6,0,P|389:251|426:240,1,70,8|0,0:3|0:0,0:0:0:0:
240,187,14957,1,2,0:0:0:0:
408,168,15133,1,0,0:0:0:0:
307,80,15310,1,8,0:3:0:0:
310,262,15486,1,0,0:0:0:0:
404,80,15663,1,2,0:0:0:0:
385,334,16016,5,8,0:3:0:0:
212,94,16369,5,2,0:0:0:0:
259,289,16545,1,0,0:0:0:0:
77,127,16722,6,0,L|109:97,3,35
99,59,17075,1,2,0:0:0:0:
273,10,17251,1,0,0:0:0:0:
323,171,17428,2,0,P|285:197|250:206,1,70,8|0,0:3|0:0,0:0:0:0:
178,145,17781,5,2,0:0:0:0:
298,75,17957,1,0,0:0:0:0:
207,264,18133,1,8,0:3:0:0:
349,209,18310,1,0,0:0:0:0:
376,43,18486,5,2,0:0:0:0:
503,103,18663,1,0,0:0:0:0:
395,167,18839,2,0,L|399:258,1,70,8|0,0:3|0:0,0:0:0:0:
150,172,19192,5,2,0:0:0:0:
41,291,19369,1,0,0:0:0:0:
143,293,19545,1,8,0:3:0:0:
25,167,19722,1,0,0:0:0:0:
172,155,19898,2,0,L|236:118,1,70,2|0,0:0|0:0,0:0:0:0:
300,183,20251,6,0,L|238:218,2,70,8|0|2,0:3|0:0|0:0,0:0:0:0:
132,151,20781,1,0,0:0:0:0:
185,276,20957,1,8,0:3:0:0:
78,253,21133,1,0,0:0:0:0:
280,293,21310,6,0,P|282:287|320:222,1,70,2|0,0:0|0:0,0:0:0:0:
428,104,21663,2,0,P|425:111|388:175,1,70,8|0,0:3|0:0,0:0:0:0:
350,296,22016,1,2,0:0:0:0:
354,107,22192,1,0,0:0:0:0:
256,161,22369,1,8,0:3:0:0:
436,244,22545,1,0,0:0:0:0:
312,231,22722,2,0,P|295:257|282:295,1,70,2|0,0:0|0:0,0:0:0:0:
428,104,23075,1,8,0:3:0:0:
185,173,23428,5,2,0:0:0:0:
343,75,23604,1,8,0:3:0:0:
371,286,23781,2,0,L|401:200,1,70,8|2,0:3|0:0,0:0:0:0:
465,128,24133,1,2,0:0:0:0:
302,232,24310,1,8,0:3:0:0:
175,123,24486,2,0,B|180:130|180:130|252:112,1,70,8|0,0:3|0:0,0:0:0:0:
95,182,24839,5,2,0:0:0:0:
148,61,25016,1,0,0:0:0:0:
237,158,25192,1,8,0:3:0:0:
241,283,25369,6,0,L|200:339,1,70,2|0,0:0|0:0,0:0:0:0:
268,115,25722,1,0,0:0:0:0:
401,256,25898,2,0,L|444:201,1,70,8|0,0:3|0:0,0:0:0:0:
192,281,26251,5,2,0:0:0:0:
318,74,26428,1,8,0:3:0:0:
179,121,26604,1,0,0:0:0:0:
330,209,26781,1,0,0:0:0:0:
225,219,26957,2,0,L|191:281,1,70,2|0,0:0|0:0,0:0:0:0:
44,322,27310,6,0,L|78:253,1,70,8|0,0:3|0:0,0:0:0:0:
167,109,27663,1,2,0:0:0:0:
226,102,27839,1,0,0:0:0:0:
265,122,28016,1,8,0:3:0:0:
288,149,28192,1,0,0:0:0:0:
301,177,28369,6,0,P|322:206|326:246,2,70
277,294,28898,2,0,P|260:266|255:227,1,70
175,180,29251,2,0,B|177:185|167:248,1,70
92,154,29604,2,0,P|104:124|139:98,1,70
206,62,29957,2,0,P|228:58|301:59,1,70
343,53,30398,6,0,P|380:60|445:102,1,105
415,168,30928,1,0,0:0:0:0:
381,240,31192,1,0,0:0:0:0:
302,283,31633,1,0,0:0:0:0:
190,215,32251,5,0,0:0:0:0:
