osu file format v14

[General]
AudioFilename: audio.mp3
AudioLeadIn: 0
PreviewTime: 6129
Countdown: 1
SampleSet: Soft
StackLeniency: 1
Mode: 0
LetterboxInBreaks: 0
WidescreenStoryboard: 1

[Editor]
Bookmarks: 5777,17071
DistanceSpacing: 0.8
BeatDivisor: 4
GridSize: 4
TimelineZoom: 1

[Metadata]
Title:The Office Theme Song
TitleUnicode:The Office Theme Song
Artist:Scrantones
ArtistUnicode:Scrantones
Creator:TheDustOfTimes
Version:Insane: Oscar
Source:The Office
Tags:Comedy Dwight Michael Jim Kevin Creed Pam Angela Clark Ryan Meredith Toby Phyllis Oscar Stanley Sans Undertale Papyrus Jay Ferguson vallewabbel parkour Dunder Mifflin paper Collab Phytotoxicity
BeatmapID:1828207
BeatmapSetID:837419

[Difficulty]
HPDrainRate:6
CircleSize:6
OverallDifficulty:9.1
ApproachRate:9
SliderMultiplier:1.4
SliderTickRate:1

[Events]
//Background and Video events
0,0,"the office.jpg",0,0
//Break Periods
//Storyboard Layer 0 (Background)
//Storyboard Layer 1 (Fail)
//Storyboard Layer 2 (Pass)
//Storyboard Layer 3 (Foreground)
//Storyboard Sound Samples

[TimingPoints]
134,352.941176470588,4,2,0,50,1,0
16722,-100,4,2,0,18,0,0
16810,-100,4,2,0,26,0,0
16898,-100,4,2,0,34,0,0
16986,-100,4,2,0,42,0,0
17075,-100,4,2,0,50,0,1
28369,-100,4,2,0,50,0,0
28898,-100,4,2,0,42,0,0
29075,-100,4,2,0,34,0,0
29428,-100,4,2,0,26,0,0
29781,-100,4,2,0,18,0,0

[Colours]
Combo1 : 128,255,255
Combo2 : 0,0,255
Combo3 : 255,0,128
Combo4 : 159,97,11

[HitObjects]
256,177,134,5,0,0:0:0:0:
383,296,310,1,0,0:0:0:0:
235,299,486,1,0,0:0:0:0:
355,173,1192,5,0,0:0:0:0:
328,335,1369,1,0,0:0:0:0:
233,204,1545,1,0,0:0:0:0:
395,263,1722,1,0,0:0:0:0:
235,299,1898,1,0,0:0:0:0:
157,173,2604,5,0,0:0:0:0:
184,335,2781,1,0,0:0:0:0:
279,204,2957,1,0,0:0:0:0:
117,263,3133,1,0,0:0:0:0:
277,299,3310,1,0,0:0:0:0:
34,116,4016,5,0,0:0:0:0:
89,37,4192,1,0,0:0:0:0:
178,32,4369,1,0,0:0:0:0:
157,173,4722,5,0,0:0:0:0:
118,228,5075,5,0,0:0:0:0:
117,263,5251,1,0,0:0:0:0:
129,296,5428,1,0,0:0:0:0:
153,321,5604,1,0,0:0:0:0:
184,335,5781,1,0,0:0:0:0:
478,116,6133,5,0,0:0:0:0:
334,32,6486,2,0,P|360:79|359:169,1,140
287,163,7016,1,0,0:0:0:0:
423,37,7192,1,0,0:0:0:0:
380,197,7369,1,0,0:0:0:0:
378,33,7545,1,0,0:0:0:0:
233,204,7898,6,0,P|213:233|222:268,1,70
277,299,8251,2,0,P|258:324|214:334,1,70
394,228,8604,5,0,0:0:0:0:
450,75,8781,1,0,0:0:0:0:
322,160,8957,1,0,0:0:0:0:
130,110,9310,5,0,0:0:0:0:
62,75,9663,5,0,0:0:0:0:
147,141,9839,1,0,0:0:0:0:
134,33,10016,1,0,0:0:0:0:
225,163,10369,5,0,0:0:0:0:
132,197,10722,5,0,0:0:0:0:
251,323,10898,1,0,0:0:0:0:
190,160,11075,1,0,0:0:0:0:
291,232,11251,1,0,0:0:0:0:
287,163,11428,1,0,0:0:0:0:
129,296,11781,5,0,0:0:0:0:
290,267,12133,2,0,P|272:222|225:273,1,140
398,79,12663,5,0,0:0:0:0:
256,177,12839,1,0,0:0:0:0:
382,110,13016,1,0,0:0:0:0:
394,228,13192,1,0,0:0:0:0:
354,153,13545,6,0,P|315:166|276:159,1,70
114,79,13898,1,0,0:0:0:0:
190,160,14075,1,0,0:0:0:0:
287,163,14251,5,0,0:0:0:0:
222,267,14428,1,0,0:0:0:0:
394,228,14604,1,0,0:0:0:0:
322,160,14957,5,0,0:0:0:0:
235,299,15133,1,0,0:0:0:0:
395,263,15310,1,0,0:0:0:0:
286,162,15486,1,0,0:0:0:0:
221,232,15663,1,0,0:0:0:0:
222,267,16016,5,0,0:0:0:0:
380,197,16369,1,0,0:0:0:0:
395,263,16545,1,0,0:0:0:0:
359,321,16722,5,0,0:0:0:0:
328,335,16810,1,0,0:0:0:0:
293,335,16898,1,0,0:0:0:0:
261,323,16986,1,0,0:0:0:0:
235,299,17075,1,0,0:0:0:0:
132,197,17428,5,0,0:0:0:0:
117,263,17781,2,0,P|138:320|220:331,1,140
233,204,18310,5,0,0:0:0:0:
328,335,18486,1,0,0:0:0:0:
354,153,18663,1,0,0:0:0:0:
395,263,18839,1,0,0:0:0:0:
34,116,19192,6,0,P|56:90|101:75,1,70
135,117,19545,2,0,P|158:142|212:166,1,70
119,213,19898,1,0,0:0:0:0:
178,32,20075,1,0,0:0:0:0:
253,230,20251,1,0,0:0:0:0:
380,197,20604,5,0,0:0:0:0:
394,228,20781,1,0,0:0:0:0:
395,263,20957,1,0,0:0:0:0:
89,37,21310,5,0,0:0:0:0:
423,37,21663,1,0,0:0:0:0:
145,139,22016,5,0,0:0:0:0:
368,139,22192,1,0,0:0:0:0:
233,204,22369,1,0,0:0:0:0:
279,204,22545,1,0,0:0:0:0:
235,299,22722,1,0,0:0:0:0:
382,110,23075,5,0,0:0:0:0:
132,197,23428,1,0,0:0:0:0:
222,334,23781,5,0,0:0:0:0:
334,32,23957,1,0,0:0:0:0:
117,263,24133,1,0,0:0:0:0:
394,228,24310,1,0,0:0:0:0:
178,32,24486,1,0,0:0:0:0:
117,263,24839,5,0,0:0:0:0:
129,296,25016,2,0,P|147:323|187:333,1,70
279,204,25369,1,0,0:0:0:0:
334,32,25545,5,0,0:0:0:0:
354,153,25722,1,0,0:0:0:0:
450,75,25898,1,0,0:0:0:0:
355,173,26251,5,0,0:0:0:0:
395,263,26428,1,0,0:0:0:0:
328,335,26604,1,0,0:0:0:0:
235,299,26781,1,0,0:0:0:0:
233,204,26957,1,0,0:0:0:0:
355,173,27310,5,0,0:0:0:0:
157,173,27663,5,0,0:0:0:0:
184,335,27839,1,0,0:0:0:0:
279,204,28016,1,0,0:0:0:0:
117,263,28192,1,0,0:0:0:0:
277,299,28369,2,0,P|269:260|298:147,1,140
322,160,28898,5,0,0:0:0:0:
355,173,29075,1,0,0:0:0:0:
380,197,29251,1,0,0:0:0:0:
394,228,29428,1,0,0:0:0:0:
395,263,29604,1,0,0:0:0:0:
383,296,29781,1,0,0:0:0:0:
359,321,29957,1,0,0:0:0:0:
293,335,30133,5,0,0:0:0:0:
235,299,30398,1,0,0:0:0:0:
221,232,30663,1,0,0:0:0:0:
190,160,30839,1,0,0:0:0:0:
132,197,31192,1,0,0:0:0:0:
129,296,31633,1,0,0:0:0:0:
293,335,32251,5,0,0:0:0:0:
