osu file format v14

[General]
AudioFilename: audio.mp3
AudioLeadIn: 0
PreviewTime: 6129
Countdown: 1
SampleSet: Soft
StackLeniency: 0.7
Mode: 0
LetterboxInBreaks: 0
WidescreenStoryboard: 1

[Editor]
Bookmarks: 1365,5777,17071
DistanceSpacing: 2.1
BeatDivisor: 4
GridSize: 4
TimelineZoom: 1

[Metadata]
Title:The Office Theme Song
TitleUnicode:The Office Theme Song
Artist:Scrantones
ArtistUnicode:Scrantones
Creator:TheDustOfTimes
Version:Insane: Jim
Source:The Office
Tags:Comedy Dwight Michael Jim Kevin Creed Pam Angela Clark Ryan Meredith Toby Phyllis Oscar Stanley Sans Undertale Papyrus Jay Ferguson vallewabbel parkour Dunder Mifflin paper Collab Phytotoxicity
BeatmapID:1753435
BeatmapSetID:837419

[Difficulty]
HPDrainRate:6
CircleSize:4
OverallDifficulty:8
ApproachRate:9.1
SliderMultiplier:1.4
SliderTickRate:1

[Events]
//Background and Video events
0,0,"the office.jpg",0,0
//Break Periods
//Storyboard Layer 0 (Background)
//Storyboard Layer 1 (Fail)
//Storyboard Layer 2 (Pass)
//Storyboard Layer 3 (Foreground)
//Storyboard Sound Samples

[TimingPoints]
134,352.941176470588,4,2,0,50,1,0
16722,-100,4,2,0,18,0,0
16810,-100,4,2,0,26,0,0
16898,-100,4,2,0,34,0,0
16986,-100,4,2,0,42,0,0
17075,-100,4,2,0,50,0,1
28369,-100,4,2,0,50,0,0
28898,-100,4,2,0,42,0,0
29075,-100,4,2,0,34,0,0
29428,-100,4,2,0,26,0,0
29781,-100,4,2,0,18,0,0

[Colours]
Combo1 : 128,255,255
Combo2 : 0,0,255
Combo3 : 255,0,128
Combo4 : 159,97,11

[HitObjects]
389,142,134,5,0,0:0:0:0:
377,224,310,1,0,0:0:0:0:
365,306,486,1,0,0:0:0:0:
286,189,1192,5,0,0:0:0:0:
262,353,1369,5,0,0:0:0:0:
274,271,1545,1,0,0:0:0:0:
286,189,1722,1,0,0:0:0:0:
297,105,1898,1,0,0:0:0:0:
164,164,2604,5,0,0:0:0:0:
33,266,2781,5,0,0:0:0:0:
98,215,2957,1,0,0:0:0:0:
164,164,3133,1,0,0:0:0:0:
98,215,3310,1,0,0:0:0:0:
197,59,4016,5,0,0:0:0:0:
272,140,4192,1,0,0:0:0:0:
164,164,4369,1,0,0:0:0:0:
197,59,4722,5,0,0:0:0:0:
142,287,5075,5,0,0:0:0:0:
230,107,5251,1,0,0:0:0:0:
259,309,5428,1,0,0:0:0:0:
102,200,5604,1,0,0:0:0:0:
311,46,5781,2,0,P|375:94|382:111,1,70,2|0,0:0|0:0,0:0:0:0:
371,189,6133,6,0,P|349:261|309:321,2,140,8|2|8,0:3|0:0|0:3,0:0:0:0:
438,51,7016,1,0,0:0:0:0:
461,246,7192,1,2,0:0:0:0:
288,123,7369,1,0,0:0:0:0:
30,258,7545,6,0,B|105:199|133:152,1,140,8|2,0:3|0:0,0:0:0:0:
206,24,8075,1,0,0:0:0:0:
337,213,8251,2,0,P|341:178|340:144,2,70,8|0|2,0:3|0:0|0:0,0:0:0:0:
169,254,8781,1,0,0:0:0:0:
275,361,8957,2,0,P|247:332|199:322,1,70,8|0,0:3|0:0,0:0:0:0:
63,316,9310,6,0,P|27:249|34:179,1,140,2|8,0:0|0:3,0:0:0:0:
150,23,9839,1,0,0:0:0:0:
226,173,10016,1,2,0:0:0:0:
25,53,10369,5,8,0:3:0:0:
303,48,10722,5,2,0:0:0:0:
382,264,10898,1,0,0:0:0:0:
136,213,11075,1,8,0:3:0:0:
361,83,11251,1,0,0:0:0:0:
319,301,11428,2,0,P|273:254|261:232,1,70,2|0,0:0|0:0,0:0:0:0:
193,83,11781,2,0,P|239:130|251:152,1,70,8|0,0:3|0:0,0:0:0:0:
468,228,12133,6,0,P|420:139|414:102,1,140,2|8,0:0|0:3,0:0:0:0:
75,43,12663,1,0,0:0:0:0:
288,133,12839,1,2,0:0:0:0:
127,223,13016,1,0,0:0:0:0:
190,13,13192,2,0,L|194:112,1,70,8|0,0:3|0:0,0:0:0:0:
25,286,13545,5,2,0:0:0:0:
268,256,13722,1,0,0:0:0:0:
79,355,13898,1,8,0:3:0:0:
311,331,14075,1,0,0:0:0:0:
25,286,14251,2,0,P|38:291|97:270,1,70,2|0,0:0|0:0,0:0:0:0:
264,135,14604,6,0,P|295:120|328:127,1,70,8|0,0:3|0:0,0:0:0:0:
452,220,14957,1,2,0:0:0:0:
319,347,15133,1,0,0:0:0:0:
264,135,15310,1,8,0:3:0:0:
458,344,15486,1,0,0:0:0:0:
159,140,15663,1,2,0:0:0:0:
401,32,16016,5,8,0:3:0:0:
208,300,16369,5,2,0:0:0:0:
266,41,16545,1,0,0:0:0:0:
98,106,16722,6,0,P|95:113|67:133,4,35,8|8|8|8|2,0:3|0:3|0:3|0:3|0:0,0:0:0:0:
184,336,17251,1,0,0:0:0:0:
378,201,17428,2,0,P|335:173|297:162,1,70,8|0,0:3|0:0,0:0:0:0:
117,218,17781,5,2,0:0:0:0:
316,340,17957,1,0,0:0:0:0:
195,89,18133,1,8,0:3:0:0:
378,201,18310,1,0,0:0:0:0:
369,0,18486,5,2,0:0:0:0:
195,89,18663,1,0,0:0:0:0:
381,131,18839,2,0,L|376:233,1,70,8|0,0:3|0:0,0:0:0:0:
196,257,19192,5,2,0:0:0:0:
50,105,19369,1,0,0:0:0:0:
195,89,19545,1,8,0:3:0:0:
26,266,19722,1,0,0:0:0:0:
196,257,19898,2,0,L|268:299,1,70,2|0,0:0|0:0,0:0:0:0:
306,201,20251,6,0,L|246:166,2,70,8|0|2,0:3|0:0|0:0,0:0:0:0:
26,266,20781,1,0,0:0:0:0:
195,89,20957,1,8,0:3:0:0:
50,105,21133,1,0,0:0:0:0:
229,54,21310,6,0,P|231:61|274:134,1,70,2|0,0:0|0:0,0:0:0:0:
415,297,21663,2,0,P|412:289|370:217,1,70,8|0,0:3|0:0,0:0:0:0:
307,51,22016,1,2,0:0:0:0:
332,293,22192,1,0,0:0:0:0:
189,199,22369,1,8,0:3:0:0:
443,183,22545,1,0,0:0:0:0:
260,116,22722,2,0,P|242:86|229:54,1,70,2|0,0:0|0:0,0:0:0:0:
415,297,23075,1,8,0:3:0:0:
138,188,23428,5,2,0:0:0:0:
354,321,23604,1,8,0:3:0:0:
251,43,23781,2,0,L|285:139,1,70,8|2,0:3|0:0,0:0:0:0:
431,131,24133,1,2,0:0:0:0:
247,331,24310,1,8,0:3:0:0:
143,65,24486,2,0,B|150:79|150:79|208:122,1,70,8|0,0:3|0:0,0:0:0:0:
380,153,24839,5,8,0:3:0:0:
368,299,25016,1,0,0:0:0:0:
239,230,25192,1,2,0:0:0:0:
241,89,25369,6,0,L|201:31,1,70,2|0,0:0|0:0,0:0:0:0:
209,343,25722,1,0,0:0:0:0:
419,119,25898,2,0,L|459:177,1,70,8|0,0:3|0:0,0:0:0:0:
185,91,26251,5,2,0:0:0:0:
373,384,26428,1,8,0:3:0:0:
172,270,26604,1,0,0:0:0:0:
340,171,26781,1,0,0:0:0:0:
215,154,26957,2,0,L|185:92,1,70,2|0,0:0|0:0,0:0:0:0:
20,45,27310,6,0,L|58:122,1,70,8|0,0:3|0:0,0:0:0:0:
55,283,27663,1,2,0:0:0:0:
158,323,27839,1,0,0:0:0:0:
247,305,28016,1,8,0:3:0:0:
297,257,28192,1,0,0:0:0:0:
307,207,28369,6,0,P|332:175|335:140,2,70
282,76,28898,2,0,P|264:106|256:140,1,70
166,204,29251,2,0,B|170:199|162:135,1,70
74,233,29604,2,0,P|88:266|109:294,1,70
201,336,29957,2,0,P|227:340|283:344,1,70
354,345,30398,6,0,P|396:338|444:304,1,93.3333333333333
435,217,30928,1,0,0:0:0:0:
397,137,31192,1,0,0:0:0:0:
309,89,31633,1,0,0:0:0:0:
183,165,32251,5,0,0:0:0:0:
