osu file format v14

[General]
AudioFilename: audio.mp3
AudioLeadIn: 0
PreviewTime: 6129
Countdown: 1
SampleSet: Soft
StackLeniency: 0.2
Mode: 0
LetterboxInBreaks: 0
WidescreenStoryboard: 1

[Editor]
Bookmarks: 5777,17071
DistanceSpacing: 2.9
BeatDivisor: 4
GridSize: 16
TimelineZoom: 1.4

[Metadata]
Title:The Office Theme Song
TitleUnicode:The Office Theme Song
Artist:Scrantones
ArtistUnicode:Scrantones
Creator:TheDustOfTimes
Version:Insane: Dwight
Source:The Office
Tags:Comedy Dwight Michael Jim Kevin Creed Pam Angela Clark Ryan Meredith Toby Phyllis Oscar Stanley Sans Undertale Papyrus Jay Ferguson vallewabbel parkour Dunder Mifflin paper Collab Phytotoxicity
BeatmapID:1753434
BeatmapSetID:837419

[Difficulty]
HPDrainRate:7
CircleSize:3
OverallDifficulty:9
ApproachRate:8
SliderMultiplier:1.4
SliderTickRate:1

[Events]
//Background and Video events
0,0,"the office.jpg",0,0
//Break Periods
//Storyboard Layer 0 (Background)
//Storyboard Layer 1 (Fail)
//Storyboard Layer 2 (Pass)
//Storyboard Layer 3 (Foreground)
//Storyboard Sound Samples

[TimingPoints]
134,352.941176470588,4,2,0,50,1,0
16722,-100,4,2,0,18,0,0
16810,-100,4,2,0,26,0,0
16898,-100,4,2,0,34,0,0
16986,-100,4,2,0,42,0,0
17075,-100,4,2,0,50,0,1
21310,-100,4,2,0,50,0,1
21398,-100,4,2,0,5,0,1
21663,-100,4,2,0,50,0,1
21751,-100,4,2,0,5,0,1
22016,-100,4,2,0,50,0,1
22104,-100,4,2,0,5,0,1
22192,-100,4,2,0,50,0,1
28369,-100,4,2,0,50,0,0
28898,-100,4,2,0,42,0,0
29075,-100,4,2,0,34,0,0
29428,-100,4,2,0,26,0,0
29781,-100,4,2,0,18,0,0

[Colours]
Combo1 : 128,255,255
Combo2 : 0,0,255
Combo3 : 255,0,128
Combo4 : 159,97,11

[HitObjects]
225,202,134,5,0,0:0:0:0:
265,68,310,1,0,0:0:0:0:
265,68,486,2,0,L|224:209,1,140
381,177,1192,5,0,0:0:0:0:
225,202,1369,1,0,0:0:0:0:
265,68,1545,1,0,0:0:0:0:
225,202,1722,1,0,0:0:0:0:
225,202,1898,2,0,L|336:303,1,140
328,296,2604,5,0,0:0:0:0:
225,202,2781,1,0,0:0:0:0:
328,296,2957,1,0,0:0:0:0:
328,296,3133,1,0,0:0:0:0:
225,202,3310,2,0,L|264:67,1,140
69,44,4016,5,0,0:0:0:0:
41,309,4192,1,0,0:0:0:0:
263,67,4369,1,0,0:0:0:0:
225,202,4722,1,0,0:0:0:0:
225,202,5075,1,0,0:0:0:0:
41,309,5251,1,0,0:0:0:0:
225,202,5428,1,0,0:0:0:0:
69,44,5604,1,0,0:0:0:0:
41,309,5781,1,2,0:0:0:0:
359,53,6133,6,0,P|412:86|441:183,1,140,8|2,0:3|0:0,0:0:0:0:
359,53,6839,1,8,0:3:0:0:
403,288,7016,1,0,0:0:0:0:
403,288,7192,1,2,0:0:0:0:
442,155,7369,1,0,0:0:0:0:
359,53,7545,2,0,P|384:117|442:155,1,140,8|2,0:3|0:0,0:0:0:0:
442,155,8075,1,0,0:0:0:0:
38,37,8251,5,8,0:3:0:0:
441,154,8428,1,0,0:0:0:0:
309,189,8604,1,2,0:0:0:0:
38,37,8781,1,0,0:0:0:0:
309,189,8957,2,0,B|336:169|336:169|447:154,1,140,8|2,0:3|0:0,0:0:0:0:
441,154,9663,6,0,B|335:168|335:168|308:188,1,140,8|2,0:3|0:0,0:0:0:0:
162,324,10369,5,8,0:3:0:0:
255,37,10722,5,2,0:0:0:0:
346,321,10898,5,0,0:0:0:0:
404,146,11075,5,8,0:3:0:0:
105,146,11251,5,0,0:0:0:0:
162,324,11428,6,0,P|177:249|257:227,1,140,2|8,0:0|0:3,0:0:0:0:
404,146,12133,6,0,B|395:115|395:115|333:83|333:83|327:42,1,140,2|8,0:0|0:3,0:0:0:0:
106,71,12663,1,0,0:0:0:0:
104,284,12839,1,2,0:0:0:0:
327,45,13016,1,0,0:0:0:0:
104,284,13192,1,8,0:3:0:0:
422,112,13545,6,0,L|401:189,1,70,2|0,0:0|0:0,0:0:0:0:
403,179,13898,2,0,L|422:112,1,70,8|0,0:3|0:0,0:0:0:0:
440,44,14251,2,0,L|419:121,1,70,2|0,0:0|0:0,0:0:0:0:
421,111,14604,1,8,0:3:0:0:
122,263,14957,6,0,P|104:222|112:175,1,70,2|0,0:0|0:0,0:0:0:0:
87,131,15310,2,0,P|105:172|97:219,1,70,8|0,0:3|0:0,0:0:0:0:
87,131,15663,1,2,0:0:0:0:
87,131,16016,1,8,0:3:0:0:
104,197,16369,1,2,0:0:0:0:
416,47,16722,5,4,0:3:0:0:
369,115,16810,5,4,0:3:0:0:
291,91,16898,5,4,0:3:0:0:
227,142,16986,5,4,0:3:0:0:
158,96,17075,5,6,0:3:0:0:
234,311,17428,6,0,B|304:272|250:250|330:202,1,140,8|2,0:3|0:0,0:0:0:0:
234,311,17957,2,0,B|304:272|261:234,1,70,0|8,0:0|0:3,0:0:0:0:
234,311,18310,1,0,0:0:0:0:
321,207,18486,1,2,0:0:0:0:
234,311,18663,1,0,0:0:0:0:
216,154,18839,1,8,0:3:0:0:
216,154,19192,6,0,L|225:246,2,70,2|0|8,0:0|0:0|0:3,0:0:0:0:
216,154,19722,1,0,0:0:0:0:
222,223,19898,2,0,L|216:154,2,70,2|0|8,0:0|0:0|0:3,0:0:0:0:
33,243,20604,5,2,0:0:0:0:
391,376,20781,1,0,0:0:0:0:
328,0,20957,1,8,0:3:0:0:
33,243,21310,6,0,L|73:217,1,35,2|0,0:0|0:0,0:0:0:0:
327,0,21663,6,0,L|298:19,1,35,8|0,0:3|0:0,0:0:0:0:
391,376,22016,6,0,L|365:336,1,35,2|0,0:0|0:0,0:0:0:0:
174,98,22192,1,0,0:0:0:0:
327,291,22369,1,8,0:3:0:0:
277,233,22545,1,0,0:0:0:0:
125,40,22722,1,2,0:0:0:0:
125,40,23075,6,0,L|216:149,1,140,8|2,0:3|0:0,0:0:0:0:
325,384,23604,1,0,0:0:0:0:
214,147,23781,1,8,0:3:0:0:
151,197,23957,1,0,0:0:0:0:
151,197,24133,1,2,0:0:0:0:
214,147,24310,1,0,0:0:0:0:
214,147,24486,1,8,0:3:0:0:
359,53,24839,6,0,L|359:148,1,70,2|0,0:0|0:0,0:0:0:0:
359,123,25192,2,0,L|359:53,1,70,8|0,0:3|0:0,0:0:0:0:
359,123,25545,1,2,0:0:0:0:
359,123,25722,1,0,0:0:0:0:
359,123,25898,1,8,0:3:0:0:
33,243,26251,5,2,0:0:0:0:
391,376,26428,1,0,0:0:0:0:
328,0,26604,1,8,0:3:0:0:
28,237,26957,1,2,0:0:0:0:
391,376,27310,1,8,0:3:0:0:
28,237,27663,5,2,0:0:0:0:
328,0,27839,5,0,0:0:0:0:
28,237,28016,5,8,0:3:0:0:
391,376,28192,5,0,0:0:0:0:
28,237,28369,6,0,B|112:272|48:304|128:336,1,140
160,144,28898,1,0,0:0:0:0:
160,240,29075,1,0,0:0:0:0:
256,240,29251,1,0,0:0:0:0:
256,144,29428,1,0,0:0:0:0:
352,144,29604,1,0,0:0:0:0:
352,240,29781,1,0,0:0:0:0:
256,240,29957,1,0,0:0:0:0:
160,144,30133,1,0,0:0:0:0:
256,240,30398,5,0,0:0:0:0:
256,144,30663,1,0,0:0:0:0:
352,240,30928,1,0,0:0:0:0:
160,240,31192,1,0,0:0:0:0:
0,384,31633,5,0,0:0:0:0:
512,0,32251,1,0,0:0:0:0:
