osu file format v14

[General]
AudioFilename: audio.mp3
AudioLeadIn: 0
PreviewTime: 6129
Countdown: 1
SampleSet: Soft
StackLeniency: 0.2
Mode: 0
LetterboxInBreaks: 0
WidescreenStoryboard: 1

[Editor]
Bookmarks: 5777,17071
DistanceSpacing: 1.5
BeatDivisor: 4
GridSize: 8
TimelineZoom: 1.1

[Metadata]
Title:The Office Theme Song
TitleUnicode:The Office Theme Song
Artist:Scrantones
ArtistUnicode:Scrantones
Creator:TheDustOfTimes
Version:Insane: Angela
Source:The Office
Tags:Comedy Dwight Michael Jim Kevin Creed Pam Angela Clark Ryan Meredith Toby Phyllis Oscar Stanley Sans Undertale Papyrus Jay Ferguson vallewabbel parkour Dunder Mifflin paper Collab Phytotoxicity
BeatmapID:1817069
BeatmapSetID:837419

[Difficulty]
HPDrainRate:6
CircleSize:7
OverallDifficulty:10
ApproachRate:9
SliderMultiplier:1.4
SliderTickRate:1

[Events]
//Background and Video events
0,0,"the office.jpg",0,0
//Break Periods
//Storyboard Layer 0 (Background)
//Storyboard Layer 1 (Fail)
//Storyboard Layer 2 (Pass)
//Storyboard Layer 3 (Foreground)
//Storyboard Sound Samples

[TimingPoints]
134,352.941176470588,4,2,0,50,1,0
16722,-100,4,2,0,18,0,0
16810,-100,4,2,0,26,0,0
16898,-100,4,2,0,34,0,0
16986,-100,4,2,0,42,0,0
17075,-100,4,2,0,50,0,1
28369,-100,4,2,0,50,0,0
28898,-100,4,2,0,42,0,0
29075,-100,4,2,0,34,0,0
29428,-100,4,2,0,26,0,0
29781,-100,4,2,0,18,0,0

[Colours]
Combo1 : 128,255,255
Combo2 : 0,0,255
Combo3 : 255,0,128
Combo4 : 159,97,11

[HitObjects]
65,339,134,5,0,0:0:0:0:
113,237,310,1,0,0:0:0:0:
177,329,486,1,0,0:0:0:0:
342,155,1192,5,0,0:0:0:0:
292,86,1369,1,0,0:0:0:0:
341,16,1545,1,0,0:0:0:0:
423,42,1722,1,0,0:0:0:0:
424,128,1898,1,0,0:0:0:0:
297,337,2604,5,0,0:0:0:0:
396,336,2781,1,0,0:0:0:0:
492,336,2957,1,0,0:0:0:0:
448,256,3133,1,0,0:0:0:0:
352,256,3310,1,0,0:0:0:0:
72,156,4016,5,0,0:0:0:0:
72,60,4192,1,0,0:0:0:0:
168,156,4369,1,0,0:0:0:0:
168,60,4722,5,0,0:0:0:0:
366,153,5075,5,0,0:0:0:0:
405,280,5251,1,0,0:0:0:0:
256,190,5428,1,0,0:0:0:0:
107,280,5604,1,0,0:0:0:0:
146,153,5781,2,0,L|203:108,1,70,2|0,0:0|0:0,0:0:0:0:
334,25,6133,6,0,L|396:66,1,70,8|0,0:3|0:0,0:0:0:0:
427,164,6486,2,0,L|368:125,1,70,2|0,0:0|0:0,0:0:0:0:
302,125,6839,2,0,P|286:92|262:67,1,70,8|0,0:3|0:0,0:0:0:0:
222,121,7192,2,0,P|198:95|183:63,1,70,2|0,0:0|0:0,0:0:0:0:
48,116,7545,2,0,B|75:93|75:93|105:121,1,70,8|0,0:3|0:0,0:0:0:0:
137,159,7898,2,0,B|162:182|162:182|189:159,1,70,2|0,0:0|0:0,0:0:0:0:
66,277,8251,5,8,0:3:0:0:
120,331,8428,1,0,0:0:0:0:
140,258,8604,1,2,0:0:0:0:
203,207,8781,6,0,L|238:282,1,70,0|8,0:0|0:3,0:0:0:0:
282,286,9133,2,0,L|247:361,2,70,0|2|0,0:0|0:0|0:0,0:0:0:0:
320,232,9663,5,8,0:3:0:0:
320,160,9839,1,0,0:0:0:0:
392,160,10016,1,2,0:0:0:0:
392,232,10192,1,0,0:0:0:0:
424,327,10369,6,0,P|459:313|460:265,1,70,8|0,0:3|0:0,0:0:0:0:
468,215,10722,2,0,P|457:183|425:173,1,70,2|0,0:0|0:0,0:0:0:0:
354,173,11075,6,0,P|319:159|318:111,1,70,8|0,0:3|0:0,0:0:0:0:
310,60,11428,2,0,P|321:28|353:17,1,70,2|0,0:0|0:0,0:0:0:0:
428,17,11781,6,0,L|428:96,1,70,8|0,0:3|0:0,0:0:0:0:
424,173,12133,2,0,L|345:173,1,70,2|0,0:0|0:0,0:0:0:0:
328,48,12486,5,8,0:3:0:0:
256,48,12663,1,0,0:0:0:0:
184,48,12839,1,2,0:0:0:0:
184,120,13016,1,0,0:0:0:0:
256,120,13192,2,0,L|256:48,1,70,8|0,0:3|0:0,0:0:0:0:
168,224,13545,5,2,0:0:0:0:
168,363,13722,1,0,0:0:0:0:
85,251,13898,1,8,0:3:0:0:
217,293,14075,1,0,0:0:0:0:
86,337,14251,1,2,0:0:0:0:
295,313,14428,6,0,P|334:332|363:332,2,70,0|8|0,0:0|0:3|0:0,0:0:0:0:
259,190,14957,5,2,0:0:0:0:
311,236,15133,1,0,0:0:0:0:
381,231,15310,1,8,0:3:0:0:
429,180,15486,1,0,0:0:0:0:
406,113,15663,2,0,L|492:122,2,70,2|0|8,0:0|0:0|0:3,0:0:0:0:
317,104,16192,6,0,P|331:140|330:183,1,70,0|2,0:0|0:0,0:0:0:0:
283,214,16545,1,0,0:0:0:0:
243,228,16722,5,8,0:3:0:0:
218,193,16810,1,8,0:3:0:0:
242,158,16898,1,8,0:3:0:0:
283,171,16986,1,8,0:3:0:0:
283,214,17075,1,2,0:0:0:0:
56,304,17428,6,0,L|128:304,1,70,8|0,0:3|0:0,0:0:0:0:
128,352,17781,2,0,L|200:352,1,70,2|0,0:0|0:0,0:0:0:0:
200,304,18133,2,0,L|272:304,1,70,8|0,0:3|0:0,0:0:0:0:
272,352,18486,2,0,L|344:352,1,70,2|0,0:0|0:0,0:0:0:0:
344,296,18839,6,0,P|376:280|384:248,1,70,8|0,0:3|0:0,0:0:0:0:
344,248,19192,2,2,P|312:232|304:200,1,70,2|0,0:0|0:0,0:0:0:0:
344,200,19545,2,8,P|376:184|384:152,1,70,8|0,0:3|0:0,0:3:0:0:
344,152,19898,2,2,P|312:136|304:104,1,70,2|0,0:0|0:0,0:0:0:0:
256,0,20251,5,8,0:3:0:0:
256,0,20428,2,0,L|256:72,1,70,0|2,0:0|0:0,0:0:0:0:
256,120,20781,1,0,0:0:0:0:
256,120,20957,2,0,L|176:120,1,70,8|0,0:3|0:0,0:0:0:0:
184,176,21310,1,2,0:0:0:0:
184,176,21486,2,0,L|184:248,2,70,0|8|0,0:0|0:3|0:0,0:0:0:0:
186,120,22016,5,2,0:0:0:0:
234,96,22192,1,0,0:0:0:0:
282,120,22369,1,8,0:3:0:0:
330,96,22545,1,0,0:0:0:0:
376,120,22722,2,0,L|376:200,2,70,2|0|8,0:0|0:0|0:3,0:0:0:0:
376,40,23428,6,0,B|348:64|348:64|323:41,1,70,2|0,0:0|0:0,0:0:0:0:
280,72,23781,2,0,B|255:49|255:49|227:73,1,70,8|0,0:3|0:0,0:0:0:0:
192,40,24133,2,0,B|164:64|164:64|139:41,1,70,2|0,0:0|0:0,0:0:0:0:
96,72,24486,2,0,B|71:49|71:49|43:73,1,70,8|0,0:3|0:0,0:0:0:0:
96,72,24839,5,2,0:0:0:0:
157,131,25016,1,0,0:0:0:0:
121,208,25192,1,8,0:3:0:0:
35,197,25369,1,0,0:0:0:0:
19,112,25545,2,0,L|19:43,2,70,2|0|8,0:0|0:0|0:3,0:0:0:0:
19,112,26251,5,2,0:0:0:0:
88,32,26428,1,0,0:0:0:0:
160,112,26604,1,8,0:3:0:0:
168,192,26957,5,2,0:0:0:0:
336,192,27310,1,8,0:3:0:0:
168,192,27663,5,2,0:0:0:0:
336,192,27839,1,0,0:0:0:0:
168,192,28016,1,8,0:3:0:0:
336,192,28192,1,0,0:0:0:0:
256,88,28369,6,0,L|256:312,1,210
256,298,29075,2,0,L|256:208,2,70
256,298,29604,2,0,L|256:224,1,70
256,228,29957,2,0,L|256:152,1,70
256,88,30398,1,0,0:0:0:0:
256,158,30575,1,0,0:0:0:0:
256,224,30839,1,0,0:0:0:0:
256,298,31192,1,0,0:0:0:0:
256,88,31633,1,0,0:0:0:0:
256,296,32251,1,0,0:0:0:0:
