osu file format v14

[General]
AudioFilename: audio.mp3
AudioLeadIn: 0
PreviewTime: 6129
Countdown: 1
SampleSet: Soft
StackLeniency: 0.7
Mode: 0
LetterboxInBreaks: 0
WidescreenStoryboard: 1

[Editor]
Bookmarks: 5777,17071
DistanceSpacing: 1.2
BeatDivisor: 4
GridSize: 4
TimelineZoom: 1

[Metadata]
Title:The Office Theme Song
TitleUnicode:The Office Theme Song
Artist:Scrantones
ArtistUnicode:Scrantones
Creator:TheDustOfTimes
Version:High-Speed Insane: Creed
Source:The Office
Tags:Comedy Dwight Michael Jim Kevin Creed Pam Angela Clark Ryan Meredith Toby Phyllis Oscar Stanley Sans Undertale Papyrus Jay Ferguson vallewabbel parkour Dunder Mifflin paper Collab Phytotoxicity
BeatmapID:1817070
BeatmapSetID:837419

[Difficulty]
HPDrainRate:8
CircleSize:4
OverallDifficulty:10
ApproachRate:10
SliderMultiplier:1.5
SliderTickRate:4

[Events]
//Background and Video events
0,0,"fbombingepic.jpg",0,0
//Break Periods
//Storyboard Layer 0 (Background)
//Storyboard Layer 1 (Fail)
//Storyboard Layer 2 (Pass)
//Storyboard Layer 3 (Foreground)
//Storyboard Sound Samples

[TimingPoints]
134,352.941176470588,4,2,1,50,1,0
134,-1000,4,2,1,50,0,0
486,-66.6666666666667,4,2,1,50,0,0
1192,-1000,4,2,1,50,0,0
1545,-66.6666666666667,4,2,1,50,0,0
1898,-50,4,2,1,50,0,0
2604,-1000,4,2,1,50,0,0
2957,-66.6666666666667,4,2,1,50,0,0
3310,-50,4,2,1,50,0,0
4016,-1000,4,2,1,50,0,0
4369,-66.6666666666667,4,2,1,50,0,0
4722,-50,4,2,1,50,0,0
5075,-40,4,2,1,50,0,0
5781,-1000,4,2,1,70,0,0
5781,-1000,4,2,1,70,0,0
6133,-333.333333333333,4,2,1,70,0,0
6486,-100,4,2,1,70,0,0
7898,-25,4,2,1,70,0,0
8604,-100,4,2,1,70,0,0
10016,-50,4,2,1,70,0,0
13545,-25,4,2,1,70,0,0
14251,-50,4,2,1,70,0,0
15663,-1000,4,2,1,70,0,0
16369,-1000,4,2,1,70,0,0
17075,-33.3333333333333,4,2,1,75,0,1
17428,-1000,4,2,1,75,0,1
17781,-50,4,2,1,75,0,1
19192,-25,4,2,1,75,0,1
19898,-133.333333333333,4,2,1,75,0,1
21310,-33.3333333333333,4,2,1,75,0,1
22016,-66.6666666666667,4,2,1,75,0,1
22722,-50,4,2,1,75,0,1
24839,-500,4,2,1,75,0,1
25545,-1000,4,2,1,75,0,1
26251,-66.6666666666667,4,2,1,75,0,1
26428,-50,4,2,1,75,0,1
26604,-33.3333333333333,4,2,1,75,0,1
26781,-25,4,2,1,75,0,1
26957,-1000,4,2,1,75,0,1
28369,-1000,4,2,1,50,0,0

[Colours]
Combo1 : 128,255,255
Combo2 : 0,0,255
Combo3 : 255,0,128
Combo4 : 159,97,11

[HitObjects]
159,187,134,6,0,L|167:185,1,7.5
247,147,486,2,0,B|104:196|60:269|60:269|217:258,1,337.500012874604
252,223,1192,2,0,L|244:221,1,7.5
173,166,1545,2,0,B|218:206|218:206|228:268,1,112.500004291535
151,351,1898,2,0,B|238:286|271:165|271:165|279:238|318:303|318:303|336:195|378:168,1,450
372,112,2604,2,0,L|379:117,1,7.5
453,165,2957,2,0,B|416:88|416:88|384:69,1,112.500004291535
314,165,3310,2,0,B|356:250|426:252|426:252|413:154|413:154|316:345,1,450
215,277,4016,2,0,L|217:268,1,7.5
263,192,4369,6,0,L|77:162,1,168.750006437302
96,165,4722,2,0,L|338:79,1,225
308,89,5075,2,0,L|217:123,1,93.75
219,121,5251,2,0,L|311:170,1,93.75
302,165,5428,2,0,L|243:261,1,93.75
252,245,5604,2,0,L|267:345,1,93.75
266,337,5781,2,0,L|266:325,1,11.25
252,245,6133,2,0,L|265:224,1,22.4999993133545
300,160,6486,2,0,B|231:115|153:137|153:137|220:70|160:38|160:38|104:96|6:115,1,450
60,250,7898,6,0,P|127:273|214:248,1,150
212,134,8075,2,0,P|142:115|60:135,1,150
60,250,8251,2,0,P|127:273|214:248,1,150
212,134,8428,2,0,P|142:115|60:135,1,150
56,250,8604,2,0,B|128:279|51:370|51:370|154:291|170:362|170:362|268:249|241:216,1,450
85,53,10016,6,0,L|231:83,1,150
231,83,10369,2,0,L|116:202,1,150
171,251,10722,2,0,L|105:161,1,75
126,190,10898,2,0,L|215:157,1,75
196,163,11075,2,0,L|113:160,1,75
121,160,11251,2,0,L|206:190,1,75
153,231,11428,2,0,B|102:313|41:320|41:320|73:396|170:336|170:336|146:411|318:334,1,450
438,271,12133,6,0,B|364:207|245:40|245:40|198:185|79:284|79:284|96:135|96:135|284:186,1,900
477,298,13545,6,0,P|495:226|471:155,1,150
352,163,13722,2,0,P|336:236|355:307,1,150
477,298,13898,2,0,P|495:226|471:155,1,150
352,163,14075,2,0,P|336:236|355:307,1,150
474,299,14251,2,0,B|424:223|396:87|396:87|386:13|457:0|527:52|418:132|418:132|296:190,1,525
295,172,14957,2,0,L|376:158,1,75
368,159,15133,2,0,L|382:240,1,75
380,232,15310,2,0,L|306:244,1,75
306,244,15486,2,0,L|293:170,1,75
293,170,15663,6,0,L|306:169,1,11.25
302,240,16016,2,0,L|299:228,1,11.25
373,225,16369,2,0,L|371:223,1,3.75
173,44,16545,2,0,L|171:48,1,3.75
139,312,16722,2,0,L|143:309,1,3.75
308,102,16898,2,0,L|306:106,1,3.75
72,178,17075,2,0,P|101:257|205:374,1,225.000008583069
340,196,17428,2,0,L|328:190,1,11.25
329,190,17781,6,0,B|188:147|207:298|33:238|33:238|100:82|261:85|261:85|124:206|302:361,1,900
403,295,19192,2,0,B|358:233|358:233|403:174,1,150
319,176,19369,2,0,B|364:235|364:235|319:297,1,150
403,295,19545,2,0,B|358:233|358:233|403:174,1,150
319,176,19722,2,0,B|364:235|364:235|319:297,1,150
404,293,19898,2,0,B|403:161|403:161|552:227|435:303,1,337.5
231,305,21310,6,0,L|295:185,1,112.500004291535
322,213,21663,2,0,L|286:88,1,112.500004291535
138,109,22016,6,0,L|71:94,1,56.2500021457673
227,187,22192,2,0,L|299:142,1,56.2500021457673
134,269,22369,2,0,L|103:338,1,56.2500021457673
292,297,22545,2,0,L|354:279,1,56.2500021457673
190,373,22722,2,0,B|130:301|76:175|76:175|-15:87|96:10|184:102|88:178|88:178|34:257|34:257|341:111|554:148|323:255|323:255|319:33|227:-2|227:-2|231:73|193:109,1,1500
135,176,24839,6,0,L|135:175,4,1.875
210,65,25016,2,0,L|210:64,4,1.875
241,266,25192,2,0,L|241:265,4,1.875
336,14,25369,2,0,L|336:13,4,1.875
434,337,25545,2,0,L|420:318,1,22.5
396,110,26251,6,0,L|358:210,1,56.2500021457673
340,258,26428,2,0,L|291:125,1,75
258,37,26604,2,0,L|219:199,1,112.500004291535
183,343,26781,2,0,L|116:174,1,150
55,25,26957,2,0,L|55:35,1,7.5
137,201,27310,2,0,L|142:195,1,7.5
258,37,27663,6,0,L|258:41,1,3.75
256,171,27839,2,0,L|260:167,1,3.75
335,61,28016,2,0,L|331:64,1,3.75
208,107,28192,2,0,L|213:109,1,3.75
338,143,28369,2,0,L|332:137,3,7.5
338,143,29075,2,0,L|344:138,3,7.5
338,143,29781,2,0,L|341:152,2,10
338,143,30663,2,0,L|331:147,1,7.5
339,143,31192,2,0,L|334:124,1,18.75
334,124,32251,2,0,B|340:120|340:120|326:129|326:129|338:122|338:122|331:127,1,45
