osu file format v14

[General]
AudioFilename: audio.mp3
AudioLeadIn: 0
PreviewTime: 6129
Countdown: 1
SampleSet: Soft
StackLeniency: 0.7
Mode: 0
LetterboxInBreaks: 0
WidescreenStoryboard: 1

[Editor]
Bookmarks: 5777,17071
DistanceSpacing: 2
BeatDivisor: 4
GridSize: 4
TimelineZoom: 1

[Metadata]
Title:The Office Theme Song
TitleUnicode:The Office Theme Song
Artist:Scrantones
ArtistUnicode:Scrantones
Creator:TheDustOfTimes
Version:Hard: Phyllis
Source:The Office
Tags:Comedy Dwight Michael Jim Kevin Creed Pam Angela Clark Ryan Meredith Toby Phyllis Oscar Stanley Sans Undertale Papyrus Jay Ferguson vallewabbel parkour Dunder Mifflin paper Collab Phytotoxicity
BeatmapID:1828143
BeatmapSetID:837419

[Difficulty]
HPDrainRate:6
CircleSize:4.3
OverallDifficulty:9.1
ApproachRate:8
SliderMultiplier:1
SliderTickRate:1

[Events]
//Background and Video events
0,0,"the office.jpg",0,0
//Break Periods
//Storyboard Layer 0 (Background)
//Storyboard Layer 1 (Fail)
//Storyboard Layer 2 (Pass)
//Storyboard Layer 3 (Foreground)
//Storyboard Sound Samples

[TimingPoints]
134,352.941176470588,4,2,0,50,1,0
398,-200,4,2,0,50,0,0
751,-200,4,2,0,25,0,0
1016,-100,4,2,0,50,0,0
1810,-200,4,2,0,50,0,0
2163,-200,4,2,0,25,0,0
2339,-100,4,2,0,50,0,0
3222,-200,4,2,0,50,0,0
3575,-200,4,2,0,25,0,0
3751,-100,4,2,0,50,0,0
4281,-200,4,2,0,50,0,0
4986,-100,4,2,0,50,0,0
5692,-200,4,2,0,50,0,0
6045,-100,4,2,0,50,0,0
6398,-200,4,2,0,50,0,0
6928,-100,4,2,0,50,0,0
8869,-400,4,2,0,50,0,0
9839,-100,4,2,0,50,0,0
11339,-200,4,2,0,50,0,0
12486,-100,4,2,0,50,0,0
14339,-200,4,2,0,50,0,0
14781,-100,4,2,0,50,0,0
15575,-200,4,2,0,50,0,0
16722,-100,4,2,0,18,0,0
16810,-100,4,2,0,26,0,0
16898,-100,4,2,0,34,0,0
16986,-100,4,2,0,42,0,0
17075,-100,4,2,0,50,0,1
17692,-200,4,2,0,50,0,1
18133,-100,4,2,0,50,0,1
19810,-100,4,2,0,50,0,1
20163,-400,4,2,0,50,0,1
21133,-100,4,2,0,50,0,1
22633,-200,4,2,0,50,0,1
23163,-100,4,2,0,50,0,1
25803,-200,4,2,0,50,0,1
26339,-100,4,2,0,50,0,1
28369,-100,4,2,0,50,0,0
28898,-100,4,2,0,42,0,0
29075,-100,4,2,0,34,0,0
29428,-100,4,2,0,26,0,0
29781,-100,4,2,0,18,0,0

[Colours]
Combo1 : 128,255,255
Combo2 : 0,0,255
Combo3 : 255,0,128
Combo4 : 159,97,11

[HitObjects]
135,118,134,6,0,L|153:172,1,50
250,161,486,2,0,L|251:213,1,50
228,11,1192,6,0,L|231:78,1,50
328,83,1545,2,0,L|318:132,1,50
409,173,1898,2,0,L|374:229,1,50
197,138,2604,6,0,L|205:194,1,50
104,197,2957,2,0,L|134:249,1,50
45,295,3310,2,0,L|90:317,1,50
113,117,4016,6,0,L|136:175,1,50
231,174,4369,2,0,L|234:207,1,25
318,75,4722,2,0,L|314:100,1,25
425,52,5075,1,0,0:0:0:0:
444,92,5251,1,0,0:0:0:0:
408,118,5428,1,0,0:0:0:0:
420,160,5604,1,0,0:0:0:0:
381,182,5781,2,0,L|370:212,1,25,2|0,0:0|0:0,0:0:0:0:
291,147,6133,6,0,L|279:201,1,50,8|0,0:3|0:0,0:0:0:0:
214,99,6486,2,0,L|219:166,1,50,2|8,0:0|0:3,0:0:0:0:
116,154,7016,2,0,L|153:212,1,50,0|2,0:0|0:0,0:0:0:0:
38,220,7369,2,0,L|89:265,1,50,0|8,0:0|0:3,0:0:0:0:
244,122,7898,6,0,L|244:173,3,50,2|0|8|0,0:0|0:0|0:3|0:0,0:0:0:0:
344,152,8604,2,0,L|322:215,1,50,2|0,0:0|0:0,0:0:0:0:
240,160,8957,2,0,L|241:216,1,50,8|8,0:3|0:3,0:0:0:0:
333,85,10016,6,0,L|320:142,1,50,2|0,0:0|0:0,0:0:0:0:
257,5,10369,2,0,L|257:58,1,50,8|0,0:3|0:0,0:0:0:0:
164,88,10722,1,2,2:0:0:0:
188,105,10898,1,0,2:0:0:0:
175,135,11075,1,8,2:3:0:0:
196,137,11251,1,0,2:0:0:0:
195,159,11428,2,0,L|208:208,1,50,2|8,0:0|0:3,0:0:0:0:
280,76,12133,6,0,L|272:128,1,50,2|8,0:0|0:3,0:0:0:0:
368,152,12663,2,0,L|336:208,1,50,0|2,0:0|0:0,0:0:0:0:
436,236,13016,2,0,L|380:284,1,50,0|8,0:0|0:3,0:0:0:0:
384,68,13545,6,0,L|364:136,2,50,2|0|8,0:0|0:0|0:3,0:0:0:0:
480,40,14075,2,0,L|444:100,1,50,0|2,0:0|0:0,0:0:0:0:
456,184,14428,2,0,L|424:220,1,25,0|8,0:0|0:3,0:0:0:0:
273,91,14957,6,0,L|267:160,1,50,2|0,0:0|0:0,0:0:0:0:
371,155,15310,2,0,L|346:214,1,50,8|0,0:3|0:0,0:0:0:0:
444,237,15663,2,0,L|417:258,1,25,2|0,0:0|0:0,0:0:0:0:
440,154,16016,2,0,L|421:181,1,25,8|0,0:3|0:0,0:0:0:0:
367,126,16369,1,2,0:0:0:0:
367,126,16545,1,0,0:0:0:0:
372,234,16722,1,8,0:3:0:0:
363,270,16810,1,8,0:3:0:0:
342,311,16898,1,8,0:3:0:0:
305,339,16986,1,8,0:3:0:0:
258,356,17075,1,2,0:0:0:0:
184,287,17428,6,0,L|146:247,1,50,8|0,0:3|0:0,0:0:0:0:
243,222,17781,2,0,L|238:167,1,50,2|8,0:0|0:3,0:0:0:0:
223,73,18310,1,0,0:0:0:0:
150,141,18486,1,2,0:0:0:0:
246,167,18663,1,0,0:0:0:0:
230,69,18839,1,8,0:3:0:0:
157,136,19192,6,0,L|129:89,1,50,2|0,0:0|0:0,0:0:0:0:
253,162,19545,2,0,L|252:109,1,50,8|0,0:3|0:0,0:0:0:0:
343,200,19898,2,0,L|373:152,1,50,2|0,0:0|0:0,0:0:0:0:
419,256,20251,2,0,L|374:288,1,50,8|8,0:3|0:3,0:0:0:0:
298,156,21310,6,0,L|314:91,1,50,2|0,0:0|0:0,0:0:0:0:
209,107,21663,2,0,L|201:44,1,50,8|0,0:3|0:0,0:0:0:0:
88,186,22016,1,2,0:0:0:0:
138,182,22192,1,0,0:0:0:0:
123,153,22369,1,8,0:3:0:0:
98,150,22545,1,0,0:0:0:0:
109,109,22722,2,0,L|141:168,1,50,2|8,0:0|0:3,0:0:0:0:
218,205,23428,2,0,L|207:133,1,50,2|0,0:0|0:0,0:0:0:0:
180,59,23781,5,8,0:3:0:0:
118,137,23957,1,0,0:0:0:0:
217,147,24133,1,2,0:0:0:0:
188,52,24310,1,0,0:0:0:0:
126,129,24486,1,8,0:3:0:0:
222,143,24839,2,0,L|213:76,3,50,2|0|8|0,0:0|0:0|0:3|0:0,0:0:0:0:
273,217,25545,2,0,L|278:165,1,50,2|0,0:0|0:0,0:0:0:0:
199,273,25898,2,0,L|222:319,1,50,8|2,0:3|0:0,0:0:0:0:
297,251,26428,6,0,L|317:199,1,50,0|8,0:0|0:3,0:0:0:0:
395,264,26781,2,0,L|445:227,1,50,0|2,0:0|0:0,0:0:0:0:
485,148,27310,1,8,0:3:0:0:
384,141,27663,1,2,0:0:0:0:
378,117,27839,1,0,0:0:0:0:
403,112,28016,1,8,0:3:0:0:
416,151,28192,1,0,0:0:0:0:
380,176,28369,1,0,0:0:0:0:
256,192,28898,12,0,32339,0:0:0:0:
