osu file format v14

[General]
AudioFilename: audio.mp3
AudioLeadIn: 0
PreviewTime: 6129
Countdown: 1
SampleSet: Soft
StackLeniency: 0.2
Mode: 0
LetterboxInBreaks: 0
WidescreenStoryboard: 1

[Editor]
Bookmarks: 5777,17071
DistanceSpacing: 1.2
BeatDivisor: 4
GridSize: 4
TimelineZoom: 1.4

[Metadata]
Title:The Office Theme Song
TitleUnicode:The Office Theme Song
Artist:Scrantones
ArtistUnicode:Scrantones
Creator:TheDustOfTimes
Version:Hard: Clark
Source:The Office
Tags:Comedy Dwight Michael Jim Kevin Creed Pam Angela Clark Ryan Meredith Toby Phyllis Oscar Stanley Sans Undertale Papyrus Jay Ferguson vallewabbel parkour Dunder Mifflin paper Collab Phytotoxicity
BeatmapID:1818261
BeatmapSetID:837419

[Difficulty]
HPDrainRate:6.3
CircleSize:2
OverallDifficulty:8
ApproachRate:7
SliderMultiplier:1.4
SliderTickRate:1

[Events]
//Background and Video events
0,0,"the office.jpg",0,0
//Break Periods
//Storyboard Layer 0 (Background)
//Storyboard Layer 1 (Fail)
//Storyboard Layer 2 (Pass)
//Storyboard Layer 3 (Foreground)
//Storyboard Sound Samples

[TimingPoints]
134,352.941176470588,4,2,0,50,1,0
5692,-66.6666666666667,4,2,0,50,0,0
6045,-200,4,2,0,50,0,0
6398,-400,4,2,0,50,0,0
8516,-400,4,2,0,50,0,0
11339,-133.333333333333,4,2,0,50,0,0
12928,-66.6666666666667,4,2,0,50,0,0
14163,-133.333333333333,4,2,0,50,0,0
15575,-66.6666666666667,4,2,0,50,0,0
16722,-100,4,2,0,18,0,0
16810,-100,4,2,0,26,0,0
16898,-100,4,2,0,34,0,0
16986,-100,4,2,0,42,0,0
17075,-100,4,2,0,50,0,1
17339,-66.6666666666667,4,2,0,50,0,1
21222,-1000,4,2,0,50,0,1
22633,-133.333333333333,4,2,0,50,0,1
23251,-66.6666666666667,4,2,0,50,0,1
25457,-133.333333333333,4,2,0,50,0,1
26869,-66.6666666666667,4,2,0,50,0,1
28369,-100,4,2,0,50,0,0
28898,-100,4,2,0,42,0,0
29075,-100,4,2,0,34,0,0
29428,-100,4,2,0,26,0,0
29781,-100,4,2,0,18,0,0

[Colours]
Combo1 : 128,255,255
Combo2 : 0,0,255
Combo3 : 255,0,128
Combo4 : 159,97,11

[HitObjects]
265,203,134,5,0,0:0:0:0:
261,212,310,1,0,0:0:0:0:
247,207,486,1,0,0:0:0:0:
241,189,1192,5,0,0:0:0:0:
255,175,1369,1,0,0:0:0:0:
272,187,1545,1,0,0:0:0:0:
274,203,1722,1,0,0:0:0:0:
251,217,1898,1,0,0:0:0:0:
221,196,2604,5,0,0:0:0:0:
224,164,2781,1,0,0:0:0:0:
254,145,2957,1,0,0:0:0:0:
288,169,3133,1,0,0:0:0:0:
272,210,3310,1,0,0:0:0:0:
244,224,4016,5,0,0:0:0:0:
196,199,4192,1,0,0:0:0:0:
194,141,4369,1,0,0:0:0:0:
241,107,4722,5,0,0:0:0:0:
296,131,5075,5,0,0:0:0:0:
241,107,5251,1,0,0:0:0:0:
194,141,5428,1,0,0:0:0:0:
196,199,5604,1,0,0:0:0:0:
244,224,5781,2,0,P|197:189|206:129,1,105.000004005432,2|0,0:0|0:0,0:0:0:0:
196,199,6133,6,0,P|193:163|201:141,1,52.5,8|0,0:3|0:0,0:0:0:0:
193,140,6486,2,0,P|207:197|256:228,1,105.000004005432,2|8,0:0|0:3,0:0:0:0:
296,197,7898,5,2,0:0:0:0:
296,131,8075,1,0,0:0:0:0:
241,107,8251,1,8,0:3:0:0:
296,131,8428,1,0,0:0:0:0:
241,107,8516,1,0,0:0:0:0:
241,107,8604,2,0,P|292:126|289:210,1,105.000004005432,2|8,0:0|0:3,0:0:0:0:
244,224,9839,5,0,0:0:0:0:
196,199,9928,1,0,0:0:0:0:
244,224,10016,1,2,0:0:0:0:
194,141,10369,5,8,0:3:0:0:
196,199,10722,5,2,0:0:0:0:
241,107,10898,1,0,0:0:0:0:
194,141,11075,1,8,0:3:0:0:
296,131,11251,1,0,0:0:0:0:
196,199,11428,2,0,P|194:143|272:114,1,105.000004005432,2|8,0:0|0:3,0:0:0:0:
296,131,12133,2,0,P|250:109|203:130,2,105.000004005432,2|8|2,0:0|0:3|0:0,0:0:0:0:
296,131,13016,2,0,P|250:109|203:130,2,105.000004005432,0|8|0,0:0|0:3|0:0,0:0:0:0:
196,199,13545,5,2,0:0:0:0:
244,224,13722,1,0,0:0:0:0:
194,141,13898,1,8,0:3:0:0:
296,131,14075,2,0,P|277:115|246:106,1,52.5000020027161
241,107,14251,2,0,P|292:126|289:210,1,105.000004005432,2|8,0:0|0:3,0:0:0:0:
296,131,14957,5,2,0:0:0:0:
194,141,15133,1,0,0:0:0:0:
241,107,15310,1,8,0:3:0:0:
296,197,15486,1,0,0:0:0:0:
194,141,15663,2,0,P|238:107|307:154,1,105.000004005432,2|0,0:0|0:0,0:0:0:0:
196,199,16016,2,8,P|191:143|267:110,1,105.000004005432,8|0,0:3|0:0,0:0:0:0:
296,197,16369,5,2,0:0:0:0:
244,224,16545,1,0,0:0:0:0:
296,131,16722,5,8,0:3:0:0:
194,141,16810,1,8,0:3:0:0:
241,107,16898,1,8,0:3:0:0:
296,131,16986,2,0,P|250:109|203:130,1,105.000004005432,8|0,0:3|0:0,0:0:0:0:
196,199,17428,2,0,P|191:143|267:110,1,105.000004005432,8|0,0:3|0:0,0:0:0:0:
195,201,17781,2,0,P|201:130|297:142,1,157.500006008148,2|0,0:0|0:0,0:0:0:0:
194,141,18133,5,8,0:3:0:0:
296,197,18310,1,0,0:0:0:0:
194,141,18486,5,2,0:0:0:0:
296,197,18663,1,0,0:0:0:0:
296,197,18839,6,0,P|248:225|185:169,1,105.000004005432,8|0,0:3|0:0,0:0:0:0:
302,201,19192,5,2,0:0:0:0:
302,201,19369,5,0,0:0:0:0:
196,199,19545,5,8,0:3:0:0:
194,141,19722,6,0,P|190:165|199:196,1,52.5000020027161
241,107,19898,6,0,P|292:126|289:210,1,105.000004005432,2|0,0:0|0:0,0:0:0:0:
295,193,20251,2,0,P|299:142|263:106,1,105.000004005432,8|0,0:3|0:0,0:0:0:0:
196,199,20604,5,2,0:0:0:0:
196,199,20781,1,0,0:0:0:0:
196,199,20957,1,8,0:3:0:0:
196,199,21133,1,0,0:0:0:0:
244,224,21310,2,0,L|253:221,1,7,2|0,0:0|0:0,0:0:0:0:
194,141,21663,2,0,L|193:148,1,7,8|0,0:3|0:0,0:0:0:0:
296,197,22016,5,2,0:0:0:0:
296,197,22192,5,0,0:0:0:0:
196,199,22369,5,8,0:3:0:0:
244,224,22545,5,0,0:0:0:0:
194,141,22722,6,0,P|193:191|231:224,1,105.000004005432,2|8,0:0|0:3,0:0:0:0:
296,197,23428,2,0,P|228:220|200:127,1,157.500006008148,2|0,0:0|0:0,0:0:0:0:
194,141,23781,5,8,0:3:0:0:
244,224,23957,1,0,0:0:0:0:
244,224,24133,5,2,0:0:0:0:
194,141,24310,1,0,0:0:0:0:
244,224,24486,5,8,0:3:0:0:
244,224,24839,5,2,0:0:0:0:
196,199,25016,5,0,0:0:0:0:
296,131,25192,5,8,0:3:0:0:
194,141,25369,5,0,0:0:0:0:
241,107,25545,2,0,P|200:137|197:188,1,105.000004005432,2|8,0:0|0:3,0:0:0:0:
241,107,26251,5,2,0:0:0:0:
196,199,26428,1,0,0:0:0:0:
194,141,26604,1,8,0:3:0:0:
196,199,26781,1,0,0:0:0:0:
194,141,26957,6,0,P|193:191|231:224,1,105.000004005432,2|0,0:0|0:0,0:0:0:0:
295,193,27310,2,0,P|299:142|263:106,1,105.000004005432,8|0,0:3|0:0,0:0:0:0:
244,224,27663,5,2,0:0:0:0:
296,197,27839,1,0,0:0:0:0:
296,131,28016,1,8,0:3:0:0:
241,107,28192,1,0,0:0:0:0:
194,141,28369,1,0,0:0:0:0:
244,224,28898,5,0,0:0:0:0:
296,197,29075,1,0,0:0:0:0:
296,131,29251,1,0,0:0:0:0:
241,107,29428,1,0,0:0:0:0:
194,141,29604,1,0,0:0:0:0:
196,199,29781,1,0,0:0:0:0:
244,224,29957,1,0,0:0:0:0:
296,197,30222,1,0,0:0:0:0:
296,131,30575,5,0,0:0:0:0:
244,224,30839,1,0,0:0:0:0:
194,141,31192,1,0,0:0:0:0:
256,192,31633,12,0,32251,0:0:0:0:
