osu file format v14

[General]
AudioFilename: audio.mp3
AudioLeadIn: 0
PreviewTime: 6129
Countdown: 1
SampleSet: Soft
StackLeniency: 0.7
Mode: 0
LetterboxInBreaks: 0
WidescreenStoryboard: 1

[Editor]
Bookmarks: 5777,17071
DistanceSpacing: 0.8
BeatDivisor: 4
GridSize: 4
TimelineZoom: 1.5

[Metadata]
Title:The Office Theme Song
TitleUnicode:The Office Theme Song
Artist:Scrantones
ArtistUnicode:Scrantones
Creator:TheDustOfTimes
Version:Extra: Toby
Source:The Office
Tags:Comedy Dwight Michael Jim Kevin Creed Pam Angela Clark Ryan Meredith Toby Phyllis Oscar Stanley Sans Undertale Papyrus Jay Ferguson vallewabbel parkour Dunder Mifflin paper Collab Phytotoxicity
BeatmapID:1827450
BeatmapSetID:837419

[Difficulty]
HPDrainRate:4
CircleSize:3
OverallDifficulty:7.2
ApproachRate:9
SliderMultiplier:1.4
SliderTickRate:1

[Events]
//Background and Video events
0,0,"the office.jpg",0,0
//Break Periods
//Storyboard Layer 0 (Background)
//Storyboard Layer 1 (Fail)
//Storyboard Layer 2 (Pass)
//Storyboard Layer 3 (Foreground)
//Storyboard Sound Samples

[TimingPoints]
134,352.941176470588,4,2,0,50,1,0
16722,-100,4,2,0,18,0,0
16810,-100,4,2,0,26,0,0
16898,-100,4,2,0,34,0,0
16986,-100,4,2,0,42,0,0
17075,-100,4,2,0,50,0,1
28369,-142.857142857143,4,2,0,50,0,0
28898,-142.857142857143,4,2,0,42,0,0
29075,-142.857142857143,4,2,0,34,0,0
29428,-142.857142857143,4,2,0,26,0,0
29781,-142.857142857143,4,2,0,18,0,0
30398,-166.666666666667,4,2,0,18,0,0
31633,-250,4,2,0,18,0,0

[Colours]
Combo1 : 128,255,255
Combo2 : 0,0,255
Combo3 : 255,0,128
Combo4 : 159,97,11

[HitObjects]
110,219,134,5,0,0:0:0:0:
297,57,310,1,0,0:0:0:0:
342,300,486,1,0,0:0:0:0:
383,86,1192,5,0,0:0:0:0:
265,303,1369,1,0,0:0:0:0:
136,93,1545,1,0,0:0:0:0:
386,130,1722,1,0,0:0:0:0:
223,315,1898,1,0,0:0:0:0:
112,275,2604,5,0,0:0:0:0:
357,238,2781,1,0,0:0:0:0:
203,45,2957,1,0,0:0:0:0:
153,293,3133,1,0,0:0:0:0:
383,203,3310,1,0,0:0:0:0:
210,65,4016,5,0,0:0:0:0:
105,213,4192,1,0,0:0:0:0:
210,358,4369,1,0,0:0:0:0:
113,96,4722,5,0,0:0:0:0:
185,348,5075,5,0,0:0:0:0:
274,135,5251,1,0,0:0:0:0:
61,359,5428,1,0,0:0:0:0:
180,47,5604,1,0,0:0:0:0:
278,353,5781,2,0,P|335:338|370:268,1,140,2|8,0:0|0:3,0:0:0:0:
480,13,6486,6,0,B|421:103|387:117,1,140,2|8,0:0|0:3,0:0:0:0:
163,350,7016,1,0,0:0:0:0:
285,7,7192,1,2,0:0:0:0:
240,349,7369,1,0,0:0:0:0:
213,11,7545,1,8,0:3:0:0:
55,123,7898,6,0,L|115:80,1,70,2|0,0:0|0:0,0:0:0:0:
412,39,8251,2,0,L|355:110,1,70,8|0,0:3|0:0,0:0:0:0:
120,254,8604,1,2,0:0:0:0:
421,318,8781,1,0,0:0:0:0:
138,35,8957,1,8,0:3:0:0:
301,344,9310,6,0,P|265:303|251:272,1,70,2|0,0:0|0:0,0:0:0:0:
211,40,9663,2,0,P|247:81|261:112,1,70,2|0,0:0|0:0,0:0:0:0:
86,259,10016,1,2,0:0:0:0:
389,71,10369,1,8,0:3:0:0:
453,261,10722,5,2,0:0:0:0:
231,66,10898,1,0,0:0:0:0:
284,300,11075,1,8,0:3:0:0:
317,32,11251,1,0,0:0:0:0:
368,281,11428,2,0,P|357:214|299:156,1,140,2|8,0:0|0:3,0:0:0:0:
102,384,12133,6,0,L|207:290,1,140,2|8,0:0|0:3,0:0:0:0:
433,127,12663,1,0,0:0:0:0:
166,179,12839,1,2,0:0:0:0:
431,308,13016,1,0,0:0:0:0:
301,62,13192,1,8,0:3:0:0:
56,310,13545,5,2,0:0:0:0:
104,224,13722,1,0,0:0:0:0:
154,309,13898,1,8,0:3:0:0:
202,223,14075,1,0,0:0:0:0:
252,308,14251,5,2,0:0:0:0:
418,93,14428,1,0,0:0:0:0:
149,57,14604,1,8,0:3:0:0:
170,334,14957,6,0,P|173:299|192:264,1,70,2|0,0:0|0:0,0:0:0:0:
352,232,15310,2,0,P|349:197|330:162,1,70,8|0,0:3|0:0,0:0:0:0:
70,58,15663,1,2,0:0:0:0:
367,262,16016,5,8,0:3:0:0:
114,321,16369,5,2,0:0:0:0:
325,24,16545,1,0,0:0:0:0:
109,133,16722,5,8,0:3:0:0:
109,133,16810,1,8,0:3:0:0:
109,133,16898,2,0,L|72:152,2,35,8|8|2,0:3|0:3|0:0,0:0:0:0:
399,47,17428,5,8,0:3:0:0:
131,302,17781,5,2,0:0:0:0:
301,51,17957,1,0,0:0:0:0:
379,331,18133,1,8,0:3:0:0:
80,250,18310,1,0,0:0:0:0:
356,49,18486,1,2,0:0:0:0:
327,359,18663,1,0,0:0:0:0:
100,29,18839,1,8,0:3:0:0:
425,94,19192,5,2,0:0:0:0:
152,359,19369,1,0,0:0:0:0:
152,24,19545,1,8,0:3:0:0:
425,269,19722,1,0,0:0:0:0:
51,263,19898,1,2,0:0:0:0:
327,24,20075,1,0,0:0:0:0:
327,359,20251,1,8,0:3:0:0:
259,81,20604,5,2,0:0:0:0:
134,328,20781,1,0,0:0:0:0:
381,202,20957,1,8,0:3:0:0:
108,159,21133,1,0,0:0:0:0:
304,355,21310,1,2,0:0:0:0:
145,24,21663,1,8,0:3:0:0:
165,366,22016,5,2,0:0:0:0:
289,11,22192,1,0,0:0:0:0:
277,365,22369,1,8,0:3:0:0:
191,23,22545,1,0,0:0:0:0:
371,342,22722,2,0,P|405:311|448:224,1,140,2|8,0:0|0:3,0:0:0:0:
377,0,23428,6,0,P|364:32|324:70,1,70,2|0,0:0|0:0,0:0:0:0:
48,258,23781,1,8,0:3:0:0:
249,22,23957,1,0,0:0:0:0:
305,282,24133,1,2,0:0:0:0:
95,59,24310,1,0,0:0:0:0:
193,360,24486,1,8,0:3:0:0:
248,43,24839,6,0,L|276:116,1,70,2|0,0:0|0:0,0:0:0:0:
346,144,25192,2,0,L|318:217,1,70,8|0,0:3|0:0,0:0:0:0:
232,293,25545,1,2,0:0:0:0:
330,27,25722,1,0,0:0:0:0:
362,355,25898,1,8,0:3:0:0:
99,30,26251,5,2,0:0:0:0:
285,362,26428,1,0,0:0:0:0:
391,3,26604,1,8,0:3:0:0:
31,277,26781,5,0,0:0:0:0:
467,60,26957,1,2,0:0:0:0:
143,74,27310,5,8,0:3:0:0:
155,344,27663,5,2,0:0:0:0:
272,31,27839,1,0,0:0:0:0:
404,366,28016,1,8,0:3:0:0:
58,110,28192,1,0,0:0:0:0:
469,228,28369,2,0,L|443:337,1,97.9999970092774
339,333,28898,2,0,P|305:327|270:332,1,48.9999985046387
201,366,29251,2,0,P|162:351|147:332,1,48.9999985046387
195,246,29604,6,0,P|177:215|173:183,1,48.9999985046387
116,106,29957,2,0,P|123:82|149:50,1,65.3333313395183
299,27,30398,6,0,B|351:34,1,48.9999985046387
424,115,30898,2,0,P|407:150|396:192,1,76.9999976501466
445,274,31633,2,0,P|404:307|355:333,1,107.333333333333
