osu file format v14

[General]
AudioFilename: audio.mp3
AudioLeadIn: 0
PreviewTime: 6129
Countdown: 1
SampleSet: Soft
StackLeniency: 0.7
Mode: 0
LetterboxInBreaks: 0
WidescreenStoryboard: 1

[Editor]
Bookmarks: 1365,5777,17071
DistanceSpacing: 1
BeatDivisor: 4
GridSize: 4
TimelineZoom: 1

[Metadata]
Title:The Office Theme Song
TitleUnicode:The Office Theme Song
Artist:Scrantones
ArtistUnicode:Scrantones
Creator:TheDustOfTimes
Version:Extra: Ryan
Source:The Office
Tags:Comedy Dwight Michael Jim Kevin Creed Pam Angela Clark Ryan Meredith Toby Phyllis Oscar Stanley Sans Undertale Papyrus Jay Ferguson vallewabbel parkour Dunder Mifflin paper Collab Phytotoxicity
BeatmapID:1818921
BeatmapSetID:837419

[Difficulty]
HPDrainRate:6
CircleSize:4.2
OverallDifficulty:9
ApproachRate:9.5
SliderMultiplier:2
SliderTickRate:1

[Events]
//Background and Video events
0,0,"the office.jpg",0,0
//Break Periods
//Storyboard Layer 0 (Background)
//Storyboard Layer 1 (Fail)
//Storyboard Layer 2 (Pass)
//Storyboard Layer 3 (Foreground)
//Storyboard Sound Samples

[TimingPoints]
134,352.941176470588,4,2,0,50,1,0
4281,-200,4,2,0,50,0,0
4986,-100,4,2,0,50,0,0
7810,-200,4,2,0,50,0,0
8251,-100,4,2,0,50,0,0
13457,-200,4,2,0,50,0,0
13898,-100,4,2,0,50,0,0
16722,-100,4,2,0,18,0,0
16810,-100,4,2,0,26,0,0
16898,-100,4,2,0,34,0,0
16986,-100,4,2,0,42,0,0
17075,-100,4,2,0,50,0,1
28369,-100,4,2,0,50,0,0
28898,-100,4,2,0,42,0,0
29075,-100,4,2,0,34,0,0
29428,-100,4,2,0,26,0,0
29781,-100,4,2,0,18,0,0

[Colours]
Combo1 : 128,255,255
Combo2 : 0,0,255
Combo3 : 255,0,128
Combo4 : 159,97,11

[HitObjects]
139,258,134,5,0,0:0:0:0:
239,85,310,1,0,0:0:0:0:
287,278,486,1,0,0:0:0:0:
299,161,1192,5,0,0:0:0:0:
199,334,1369,1,0,0:0:0:0:
151,141,1545,1,0,0:0:0:0:
199,334,1722,1,0,0:0:0:0:
299,161,1898,1,0,0:0:0:0:
287,278,2604,5,0,0:0:0:0:
299,161,2781,1,0,0:0:0:0:
287,278,2957,1,0,0:0:0:0:
299,161,3133,1,0,0:0:0:0:
287,278,3310,1,0,0:0:0:0:
186,107,4016,5,0,0:0:0:0:
287,278,4192,1,0,0:0:0:0:
86,280,4369,2,0,L|117:231,1,50
186,107,4722,2,0,L|156:156,1,50
87,280,5075,1,0,0:0:0:0:
287,278,5251,1,0,0:0:0:0:
87,280,5428,1,0,0:0:0:0:
186,107,5604,1,0,0:0:0:0:
287,278,5781,1,2,0:0:0:0:
398,112,6133,6,0,L|266:110,1,100,8|0,0:3|0:0,0:0:0:0:
186,107,6486,2,0,L|121:218,1,100,2|0,0:0|0:0,0:0:0:0:
87,280,6839,1,8,0:3:0:0:
283,239,7016,1,0,0:0:0:0:
448,127,7192,1,2,0:0:0:0:
450,227,7369,1,0,0:0:0:0:
367,292,7545,1,8,0:3:0:0:
283,239,7898,6,0,L|331:271,2,50,2|0|8,0:0|0:0|0:3,0:0:0:0:
230,152,8428,1,0,0:0:0:0:
213,55,8604,1,2,0:0:0:0:
153,246,8781,1,0,0:0:0:0:
0,367,8957,1,8,0:3:0:0:
0,367,9310,5,2,0:0:0:0:
0,367,9663,5,8,0:3:0:0:
51,174,9839,1,0,0:0:0:0:
213,55,10016,1,2,0:0:0:0:
161,140,10369,1,8,0:3:0:0:
181,237,10722,1,2,0:0:0:0:
237,154,10898,1,0,0:0:0:0:
213,55,11075,5,8,0:3:0:0:
259,248,11251,1,0,0:0:0:0:
443,326,11428,1,2,0:0:0:0:
359,380,11604,1,0,0:0:0:0:
267,340,11781,1,8,0:3:0:0:
259,248,12133,2,0,L|310:153,1,100,2|0,0:0|0:0,0:0:0:0:
340,65,12486,5,8,0:3:0:0:
142,98,12663,1,0,0:0:0:0:
59,279,12839,1,2,0:0:0:0:
159,266,13016,1,0,0:0:0:0:
201,175,13192,1,8,0:3:0:0:
142,98,13545,6,0,L|72:69,2,50,2|0|8,0:0|0:0|0:3,0:0:0:0:
242,87,14075,1,0,0:0:0:0:
297,169,14251,1,2,0:0:0:0:
96,178,14428,1,0,0:0:0:0:
0,340,14604,1,8,0:3:0:0:
0,340,14957,5,2,0:0:0:0:
199,343,15133,1,0,0:0:0:0:
297,169,15310,1,8,0:3:0:0:
245,254,15486,1,0,0:0:0:0:
144,254,15663,1,2,0:0:0:0:
196,168,16016,1,8,0:3:0:0:
144,254,16369,5,2,0:0:0:0:
337,203,16545,1,0,0:0:0:0:
455,40,16722,1,8,0:3:0:0:
467,88,16810,1,8,0:3:0:0:
496,130,16898,1,8,0:3:0:0:
461,169,16986,1,8,0:3:0:0:
445,216,17075,1,2,0:0:0:0:
59,323,17428,5,8,0:3:0:0:
319,176,17604,1,0,0:0:0:0:
18,184,17781,1,2,0:0:0:0:
295,296,17957,1,0,0:0:0:0:
59,323,18133,5,8,0:3:0:0:
382,85,18310,1,0,0:0:0:0:
14,240,18486,1,2,0:0:0:0:
408,164,18663,1,0,0:0:0:0:
9,150,18839,1,8,0:3:0:0:
69,233,19192,5,2,0:0:0:0:
370,261,19369,1,0,0:0:0:0:
385,62,19545,5,8,0:3:0:0:
46,276,19722,1,0,0:0:0:0:
319,12,19898,1,2,0:0:0:0:
109,353,20075,1,0,0:0:0:0:
50,0,20251,1,8,0:3:0:0:
149,74,20604,5,2,0:0:0:0:
449,76,20781,1,0,0:0:0:0:
165,172,20957,1,8,0:3:0:0:
464,167,21133,1,0,0:0:0:0:
180,267,21310,1,2,0:0:0:0:
479,261,21663,1,8,0:3:0:0:
196,360,22016,5,2,0:0:0:0:
123,293,22192,1,0,0:0:0:0:
504,168,22369,1,8,0:3:0:0:
440,109,22545,1,0,0:0:0:0:
196,360,22722,1,2,0:0:0:0:
114,201,23075,5,8,0:3:0:0:
409,247,23251,1,0,0:0:0:0:
372,151,23428,1,2,0:0:0:0:
113,301,23604,1,0,0:0:0:0:
114,201,23781,5,8,0:3:0:0:
482,353,23957,1,0,0:0:0:0:
274,12,24133,1,2,0:0:0:0:
108,377,24310,1,0,0:0:0:0:
455,181,24486,1,8,0:3:0:0:
371,88,24839,5,2,0:0:0:0:
122,257,25016,1,0,0:0:0:0:
112,140,25192,5,8,0:3:0:0:
473,314,25369,1,0,0:0:0:0:
74,328,25545,1,2,0:0:0:0:
429,141,25722,1,0,0:0:0:0:
39,55,25898,1,8,0:3:0:0:
183,101,26251,5,2,0:0:0:0:
144,245,26428,1,0,0:0:0:0:
274,100,26604,1,8,0:3:0:0:
235,244,26781,1,0,0:0:0:0:
367,101,26957,1,2,0:0:0:0:
328,245,27310,1,8,0:3:0:0:
367,101,27663,5,2,0:0:0:0:
328,245,27839,1,0,0:0:0:0:
273,80,28016,1,8,0:3:0:0:
223,299,28192,1,0,0:0:0:0:
178,31,28369,1,0,0:0:0:0:
256,192,28722,12,0,32251,0:0:0:0:
