osu file format v14

[General]
AudioFilename: audio.mp3
AudioLeadIn: 0
PreviewTime: 6129
Countdown: 1
SampleSet: Soft
StackLeniency: 0.7
Mode: 0
LetterboxInBreaks: 0
WidescreenStoryboard: 1

[Editor]
Bookmarks: 5777,17071
DistanceSpacing: 1.7
BeatDivisor: 4
GridSize: 4
TimelineZoom: 1.4

[Metadata]
Title:The Office Theme Song
TitleUnicode:The Office Theme Song
Artist:Scrantones
ArtistUnicode:Scrantones
Creator:TheDustOfTimes
Version:Extra: Michael
Source:The Office
Tags:Comedy Dwight Michael Jim Kevin Creed Pam Angela Clark Ryan Meredith Toby Phyllis Oscar Stanley Sans Undertale Papyrus Jay Ferguson vallewabbel parkour Dunder Mifflin paper Collab Phytotoxicity
BeatmapID:1846843
BeatmapSetID:837419

[Difficulty]
HPDrainRate:6
CircleSize:4.2
OverallDifficulty:9.3
ApproachRate:9.3
SliderMultiplier:1.4
SliderTickRate:1

[Events]
//Background and Video events
0,0,"the office.jpg",0,0
//Break Periods
//Storyboard Layer 0 (Background)
//Storyboard Layer 1 (Fail)
//Storyboard Layer 2 (Pass)
//Storyboard Layer 3 (Foreground)
//Storyboard Sound Samples

[TimingPoints]
134,352.941176470588,4,2,0,50,1,0
16722,-100,4,2,0,18,0,0
16810,-100,4,2,0,26,0,0
16898,-100,4,2,0,34,0,0
16986,-100,4,2,0,42,0,0
17075,-100,4,2,0,50,0,1
17251,-43.4782608695652,4,2,0,50,0,1
21310,-71.4285714285714,4,2,0,50,0,1
21839,-43.4782608695652,4,2,0,50,0,1
24133,-50,4,2,0,50,0,1
28369,-100,4,2,0,50,0,0
28898,-100,4,2,0,42,0,0
29075,-100,4,2,0,34,0,0
29428,-100,4,2,0,26,0,0
29781,-138.888888888889,4,2,0,18,0,0

[Colours]
Combo1 : 128,255,255
Combo2 : 0,0,255
Combo3 : 255,0,128
Combo4 : 159,97,11

[HitObjects]
15,262,134,5,0,0:0:0:0:
132,288,310,1,0,0:0:0:0:
249,261,486,1,0,0:0:0:0:
249,261,1192,5,0,0:0:0:0:
350,267,1369,1,0,0:0:0:0:
411,186,1545,1,0,0:0:0:0:
512,192,1722,1,0,0:0:0:0:
411,186,1898,1,0,0:0:0:0:
355,284,2604,5,0,0:0:0:0:
249,261,2781,1,0,0:0:0:0:
143,285,2957,1,0,0:0:0:0:
37,262,3133,1,0,0:0:0:0:
143,285,3310,1,0,0:0:0:0:
99,150,4016,5,0,0:0:0:0:
289,54,4192,1,0,0:0:0:0:
99,150,4369,1,0,0:0:0:0:
349,163,4722,5,0,0:0:0:0:
349,163,5075,5,0,0:0:0:0:
177,63,5251,1,0,0:0:0:0:
288,229,5428,1,0,0:0:0:0:
295,30,5604,1,0,0:0:0:0:
173,188,5781,2,0,P|130:149|104:112,1,70,2|0,0:0|0:0,0:0:0:0:
49,23,6133,5,8,0:3:0:0:
211,191,6310,1,0,0:0:0:0:
374,21,6486,2,0,P|362:76|337:107,1,70,2|0,0:0|0:0,0:0:0:0:
66,263,6839,5,8,0:3:0:0:
381,163,7016,1,0,0:0:0:0:
112,143,7192,1,2,0:0:0:0:
383,295,7369,1,0,0:0:0:0:
66,263,7545,2,0,P|91:239|111:210,1,70,8|0,0:3|0:0,0:0:0:0:
235,26,7898,5,2,0:0:0:0:
144,303,8075,1,0,0:0:0:0:
400,114,8251,1,8,0:3:0:0:
98,28,8428,1,0,0:0:0:0:
244,297,8604,2,0,P|279:363|292:380,1,70,2|0,0:0|0:0,0:0:0:0:
238,97,8957,2,0,P|203:31|190:14,1,70,8|0,0:3|0:0,0:0:0:0:
71,324,9310,1,2,0:0:0:0:
445,20,9663,5,8,0:3:0:0:
319,228,9839,1,0,0:0:0:0:
175,29,10016,1,2,0:0:0:0:
397,336,10369,5,8,0:3:0:0:
17,311,10722,5,2,0:0:0:0:
196,93,10898,1,0,0:0:0:0:
242,362,11075,1,8,0:3:0:0:
93,122,11251,1,0,0:0:0:0:
330,253,11428,2,0,P|364:239|408:198,1,70,2|0,0:0|0:0,0:0:0:0:
508,69,11781,5,8,0:3:0:0:
257,19,11957,1,0,0:0:0:0:
469,169,12133,2,0,P|400:145|323:156,1,140,2|8,0:0|0:3,0:0:0:0:
86,262,12663,5,0,0:0:0:0:
90,20,12839,1,2,0:0:0:0:
230,219,13016,1,0,0:0:0:0:
0,141,13192,1,8,0:3:0:0:
273,363,13545,5,2,0:0:0:0:
178,94,13722,1,0,0:0:0:0:
452,236,13898,1,8,0:3:0:0:
169,335,14075,1,0,0:0:0:0:
256,39,14251,5,2,0:0:0:0:
246,325,14428,1,0,0:0:0:0:
190,13,14604,1,8,0:3:0:0:
390,282,14957,5,2,0:0:0:0:
46,140,15133,1,0,0:0:0:0:
351,0,15310,1,8,0:3:0:0:
358,362,15486,1,0,0:0:0:0:
78,60,15663,1,2,0:0:0:0:
42,338,16016,5,8,0:3:0:0:
421,177,16369,5,2,0:0:0:0:
32,36,16545,1,0,0:0:0:0:
122,217,16722,5,8,0:3:0:0:
148,250,16810,1,8,0:3:0:0:
185,271,16898,1,8,0:3:0:0:
227,280,16986,1,8,0:3:0:0:
270,275,17075,2,0,P|323:266|369:281,1,70,2|0,0:0|0:0,0:0:0:0:
467,53,17428,5,8,0:3:0:0:
426,337,17604,1,0,0:0:0:0:
255,101,17781,1,2,0:0:0:0:
512,232,17957,1,0,0:0:0:0:
183,233,18133,1,8,0:3:0:0:
344,25,18310,1,0,0:0:0:0:
251,327,18486,6,0,B|165:341|94:304,1,161.000003070831,2|0,0:0|0:0,0:0:0:0:
344,25,18839,2,0,P|420:3|505:14,1,161.999995056153,8|0,0:3|0:0,0:0:0:0:
182,360,19192,1,2,0:0:0:0:
298,87,19369,1,0,0:0:0:0:
473,229,19545,1,8,0:3:0:0:
203,225,19722,1,0,0:0:0:0:
473,229,19898,6,0,B|503:153|497:72,1,161.000003070831,2|0,0:0|0:0,0:0:0:0:
127,146,20251,2,0,B|97:222|103:303,1,161.000003070831,8|0,0:3|0:0,0:0:0:0:
354,77,20604,1,2,0:0:0:0:
9,24,20781,1,0,0:0:0:0:
390,217,20957,5,8,0:3:0:0:
44,269,21133,1,0,0:0:0:0:
71,48,21310,6,0,B|137:33|167:70|167:70|192:101|259:81,1,195.999994018555,2|8,0:0|0:3,0:0:0:0:
477,206,21839,1,0,0:0:0:0:
477,206,21928,1,0,0:0:0:0:
477,206,22016,2,0,B|399:231|309:216,1,161.000003070831,2|0,0:0|0:0,0:0:0:0:
30,372,22369,5,8,0:3:0:0:
152,36,22545,1,0,0:0:0:0:
245,384,22722,2,0,B|222:289|200:337|169:229,1,161.000003070831,2|0,0:0|0:0,0:0:0:0:
46,117,23075,5,8,0:3:0:0:
362,40,23251,1,0,0:0:0:0:
362,361,23428,1,2,0:0:0:0:
114,86,23604,1,0,0:0:0:0:
436,7,23781,1,8,0:3:0:0:
436,328,23957,1,0,0:0:0:0:
57,43,24133,6,0,B|33:111|33:111|41:205,1,140,2|0,0:0|0:0,0:0:0:0:
387,358,24486,2,0,B|413:281|413:281|403:191,1,140,8|0,0:3|0:0,0:0:0:0:
243,27,24839,1,0,0:0:0:0:
243,360,25016,1,0,0:0:0:0:
402,135,25192,1,8,0:3:0:0:
84,252,25369,1,0,0:0:0:0:
43,18,25545,1,0,0:0:0:0:
383,188,25722,5,0,0:1:0:0:
66,135,25898,1,8,0:3:0:0:
404,93,26075,5,0,0:1:0:0:
84,252,26251,1,2,0:0:0:0:
476,158,26428,5,0,0:0:0:0:
43,18,26604,1,8,0:3:0:0:
496,60,26781,5,0,0:0:0:0:
100,359,26957,1,2,0:0:0:0:
431,12,27310,5,8,0:3:0:0:
42,355,27663,5,2,0:0:0:0:
499,59,27839,1,0,0:0:0:0:
0,192,28016,1,8,0:3:0:0:
499,319,28192,1,0,0:0:0:0:
42,21,28369,2,0,P|115:37|200:42,1,140
262,88,28898,5,0,0:0:0:0:
299,129,29075,1,0,0:0:0:0:
353,115,29251,1,0,0:0:0:0:
393,75,29428,1,0,0:0:0:0:
447,62,29604,1,0,0:0:0:0:
484,104,29781,1,0,0:0:0:0:
468,157,29957,1,0,0:0:0:0:
488,209,30133,2,0,B|446:243|400:249,1,84.0000020507813
373,365,30604,5,0,0:0:0:0:
305,336,30898,1,0,0:0:0:0:
286,235,31222,1,0,0:0:0:0:
208,132,31604,1,0,0:0:0:0:
42,234,32251,5,0,0:0:0:0:
