osu file format v14

[General]
AudioFilename: audio.mp3
AudioLeadIn: 0
PreviewTime: 6129
Countdown: 1
SampleSet: Soft
StackLeniency: 0.7
Mode: 0
LetterboxInBreaks: 0
WidescreenStoryboard: 1

[Editor]
Bookmarks: 5777,17071
DistanceSpacing: 1.3
BeatDivisor: 4
GridSize: 4
TimelineZoom: 1

[Metadata]
Title:The Office Theme Song
TitleUnicode:The Office Theme Song
Artist:Scrantones
ArtistUnicode:Scrantones
Creator:TheDustOfTimes
Version:Collab Insane: Stanley
Source:The Office
Tags:Comedy Dwight Michael Jim Kevin Creed Pam Angela Clark Ryan Meredith Toby Phyllis Oscar Stanley Sans Undertale Papyrus Jay Ferguson vallewabbel parkour Dunder Mifflin paper Collab Phytotoxicity
BeatmapID:1828273
BeatmapSetID:837419

[Difficulty]
HPDrainRate:7
CircleSize:3.6
OverallDifficulty:9
ApproachRate:9.5
SliderMultiplier:2
SliderTickRate:1

[Events]
//Background and Video events
0,0,"the office.jpg",0,0
//Break Periods
//Storyboard Layer 0 (Background)
//Storyboard Layer 1 (Fail)
//Storyboard Layer 2 (Pass)
//Storyboard Layer 3 (Foreground)
//Storyboard Sound Samples

[TimingPoints]
134,352.941176470588,4,2,0,50,1,0
16722,-100,4,2,0,18,0,0
16810,-100,4,2,0,26,0,0
16898,-100,4,2,0,34,0,0
16986,-100,4,2,0,42,0,0
17075,-140.845070422535,4,2,0,50,0,1
17428,-909.090909090901,4,2,0,50,0,1
28369,-156.25,4,2,0,50,0,0
28898,-100,4,2,0,42,0,0
29075,-100,4,2,0,34,0,0
29428,-100,4,2,0,26,0,0
29781,-100,4,2,0,18,0,0

[Colours]
Combo1 : 128,255,255
Combo2 : 0,0,255
Combo3 : 255,0,128
Combo4 : 159,97,11

[HitObjects]
5,255,134,5,0,0:0:0:0:
104,251,310,1,0,0:0:0:0:
145,341,486,1,0,0:0:0:0:
414,35,1192,5,0,0:0:0:0:
432,133,1369,1,0,0:0:0:0:
153,21,1545,1,0,0:0:0:0:
137,119,1722,1,0,0:0:0:0:
189,203,1898,1,0,0:0:0:0:
437,137,2604,5,0,0:0:0:0:
356,77,2781,1,0,0:0:0:0:
300,371,2957,1,0,0:0:0:0:
260,279,3133,1,0,0:0:0:0:
164,248,3310,1,0,0:0:0:0:
194,39,4016,5,0,0:0:0:0:
107,89,4192,1,0,0:0:0:0:
270,203,4369,1,0,0:0:0:0:
318,115,4722,1,0,0:0:0:0:
123,159,5075,1,0,0:0:0:0:
205,214,5251,1,0,0:0:0:0:
167,17,5428,1,0,0:0:0:0:
81,68,5604,1,0,0:0:0:0:
271,127,5781,1,0,0:0:0:0:
248,29,6133,6,0,L|348:69,1,100
359,195,6486,2,0,L|245:183,1,100
72,232,6839,5,0,0:0:0:0:
141,342,7016,1,0,0:0:0:0:
237,100,7192,1,0,0:0:0:0:
107,117,7369,1,0,0:0:0:0:
26,15,7545,1,0,0:0:0:0:
273,43,7898,6,0,L|281:155,1,100
350,107,8251,1,0,0:0:0:0:
380,233,8428,1,0,0:0:0:0:
121,202,8604,1,0,0:0:0:0:
165,323,8781,1,0,0:0:0:0:
294,328,8957,1,0,0:0:0:0:
294,328,9310,1,0,0:0:0:0:
463,72,9663,5,0,0:0:0:0:
343,20,9839,1,0,0:0:0:0:
370,278,10016,2,0,L|283:223,1,100
167,168,10369,2,0,L|260:115,1,100
499,32,10722,1,0,0:0:0:0:
371,3,10898,1,0,0:0:0:0:
414,259,11075,1,0,0:0:0:0:
491,154,11251,1,0,0:0:0:0:
296,164,11428,5,0,0:0:0:0:
229,275,11604,1,0,0:0:0:0:
312,375,11781,1,0,0:0:0:0:
312,375,12133,1,0,0:0:0:0:
54,350,12486,5,0,0:0:0:0:
3,229,12663,1,0,0:0:0:0:
232,106,12839,1,0,0:0:0:0:
226,235,13016,1,0,0:0:0:0:
328,315,13192,1,0,0:0:0:0:
435,78,13545,6,0,L|339:121,1,100
319,49,13898,1,0,0:0:0:0:
233,294,14075,1,0,0:0:0:0:
171,178,14251,1,0,0:0:0:0:
430,166,14428,1,0,0:0:0:0:
307,210,14604,1,0,0:0:0:0:
100,53,14957,6,0,L|82:167,1,100
214,139,15310,1,0,0:0:0:0:
320,64,15486,1,0,0:0:0:0:
499,252,15663,2,0,L|382:245,1,100
458,362,16016,2,0,L|347:276,1,100
298,187,16369,5,0,0:0:0:0:
234,327,16545,1,0,0:0:0:0:
174,227,16722,5,0,0:0:0:0:
143,205,16810,1,0,0:0:0:0:
121,175,16898,1,0,0:0:0:0:
112,139,16986,1,0,0:0:0:0:
115,102,17075,1,0,0:0:0:0:
373,32,17428,6,0,L|384:55,1,22.0000006713867
185,345,18133,1,0,0:0:0:0:
137,362,18310,1,0,0:0:0:0:
106,321,18486,1,0,0:0:0:0:
135,278,18663,1,0,0:0:0:0:
185,293,18839,1,0,0:0:0:0:
426,191,19192,6,0,L|433:202,1,11.0000003356934
64,47,19545,2,0,L|60:58,1,11.0000003356934
468,347,19898,5,0,0:0:0:0:
432,201,20075,1,0,0:0:0:0:
324,306,20251,1,0,0:0:0:0:
27,31,20604,5,0,0:0:0:0:
152,221,20781,1,0,0:0:0:0:
159,12,20957,1,0,0:0:0:0:
18,166,21133,1,0,0:0:0:0:
240,118,21310,1,0,0:0:0:0:
485,18,21663,5,0,0:0:0:0:
437,248,22016,5,0,0:0:0:0:
221,248,22192,1,0,0:0:0:0:
363,352,22369,1,0,0:0:0:0:
290,112,22545,1,0,0:0:0:0:
290,306,22722,2,0,L|289:332,1,22.0000006713867
378,48,23428,5,0,0:0:0:0:
362,133,23604,1,0,0:0:0:0:
451,103,23781,5,0,0:0:0:0:
349,221,23957,1,0,0:0:0:0:
300,74,24133,5,0,0:0:0:0:
464,26,24310,1,0,0:0:0:0:
430,185,24486,1,0,0:0:0:0:
26,352,24839,5,0,0:0:0:0:
76,274,25016,1,0,0:0:0:0:
118,356,25192,1,0,0:0:0:0:
168,278,25369,1,0,0:0:0:0:
210,360,25545,5,0,0:0:0:0:
310,204,25722,1,0,0:0:0:0:
126,196,25898,1,0,0:0:0:0:
479,24,26251,5,0,0:0:0:0:
478,77,26428,1,0,0:0:0:0:
477,130,26604,1,0,0:0:0:0:
476,183,26781,1,0,0:0:0:0:
475,236,26957,5,0,0:0:0:0:
473,342,27310,1,0,0:0:0:0:
479,24,27663,5,0,0:0:0:0:
473,342,27839,1,0,0:0:0:0:
262,97,28016,5,0,0:0:0:0:
258,280,28192,1,0,0:0:0:0:
284,121,28369,6,0,B|239:118|185:169|132:218|89:225|7:150|21:61|46:2|136:4|197:13|205:62|219:97|201:141|201:141|169:176|152:194|176:227|190:274|310:295|333:345|373:363|403:349|437:328|418:280|466:276|477:229|459:192|398:187|421:144|348:155|323:161|305:191|296:215|248:270|248:270|213:280|190:295|159:307|122:297|122:297|92:330|45:325,1,1408
