osu file format v14

[General]
AudioFilename: audio.mp3
AudioLeadIn: 0
PreviewTime: 56896
Countdown: 1
SampleSet: None
StackLeniency: 0.7
Mode: 3
LetterboxInBreaks: 0
SpecialStyle: 0
WidescreenStoryboard: 0

[Editor]
DistanceSpacing: 1
BeatDivisor: 4
GridSize: 4
TimelineZoom: 1

[Metadata]
Title:BRUCO GIANLUCO cantato da Giorgio Vanni
TitleUnicode:BRUCO GIANLUCO cantato da Giorgio Vanni
Artist:Scottecs
ArtistUnicode:Scottecs
Creator:SpeckyYT
Version:Caterpillar
Source:
Tags:
BeatmapID:1689222
BeatmapSetID:804685

[Difficulty]
HPDrainRate:5
CircleSize:5
OverallDifficulty:5
ApproachRate:5
SliderMultiplier:1.4
SliderTickRate:1

[Events]
//Background and Video events
0,0,"maxresdefault (1).jpg",0,0
Video,0,"Il VERO Giorgio Vanni canta BRUCO GIANLUCO!.mp4"
//Break Periods
2,16221,19884
//Storyboard Layer 0 (Background)
//Storyboard Layer 1 (Fail)
//Storyboard Layer 2 (Pass)
//Storyboard Layer 3 (Foreground)
//Storyboard Sound Samples

[TimingPoints]
84,375,4,2,0,100,1,0

[Colours]
Combo1 : 255,0,128
Combo2 : 255,0,0
Combo3 : 255,255,0
Combo4 : 0,255,64
Combo5 : 0,0,255

[HitObjects]
51,192,3084,5,0,0:0:0:0:
460,192,3084,128,0,5896:0:0:0:0:
153,192,3271,1,0,0:0:0:0:
256,192,3459,1,0,0:0:0:0:
153,192,3646,1,0,0:0:0:0:
256,192,3834,1,0,0:0:0:0:
358,192,4021,1,0,0:0:0:0:
256,192,4209,1,0,0:0:0:0:
153,192,4396,1,0,0:0:0:0:
256,192,4584,1,0,0:0:0:0:
153,192,4771,1,0,0:0:0:0:
256,192,4959,1,0,0:0:0:0:
358,192,5146,1,0,0:0:0:0:
256,192,5334,1,0,0:0:0:0:
153,192,5521,1,0,0:0:0:0:
256,192,5709,1,0,0:0:0:0:
358,192,5896,1,0,0:0:0:0:
51,192,6084,128,0,8896:0:0:0:0:
358,192,6084,1,0,0:0:0:0:
256,192,6271,1,0,0:0:0:0:
153,192,6459,1,0,0:0:0:0:
256,192,6646,1,0,0:0:0:0:
358,192,6834,1,0,0:0:0:0:
256,192,7021,1,0,0:0:0:0:
358,192,7209,1,0,0:0:0:0:
256,192,7396,1,0,0:0:0:0:
153,192,7584,1,0,0:0:0:0:
256,192,7771,1,0,0:0:0:0:
358,192,7959,1,0,0:0:0:0:
460,192,8146,1,0,0:0:0:0:
358,192,8334,1,0,0:0:0:0:
256,192,8521,1,0,0:0:0:0:
358,192,8709,1,0,0:0:0:0:
460,192,9084,128,0,9365:0:0:0:0:
358,192,9459,128,0,9740:0:0:0:0:
256,192,9834,128,0,10115:0:0:0:0:
153,192,10209,128,0,10490:0:0:0:0:
51,192,10584,128,0,10865:0:0:0:0:
256,192,12084,1,0,0:0:0:0:
153,192,12834,1,0,0:0:0:0:
358,192,12834,1,0,0:0:0:0:
51,192,13584,1,0,0:0:0:0:
460,192,13584,1,0,0:0:0:0:
256,192,13584,1,0,0:0:0:0:
51,192,13959,1,0,0:0:0:0:
153,192,13959,1,0,0:0:0:0:
460,192,13959,1,0,0:0:0:0:
358,192,13959,1,0,0:0:0:0:
51,192,14334,1,0,0:0:0:0:
153,192,14334,1,0,0:0:0:0:
256,192,14334,1,0,0:0:0:0:
358,192,14334,1,0,0:0:0:0:
460,192,14334,1,0,0:0:0:0:
153,192,14709,1,0,0:0:0:0:
358,192,14709,1,0,0:0:0:0:
51,192,16021,1,0,0:0:0:0:
460,192,16021,1,0,0:0:0:0:
358,192,21084,5,0,0:0:0:0:
460,192,21271,1,0,0:0:0:0:
51,192,21459,1,0,0:0:0:0:
153,192,21646,1,0,0:0:0:0:
358,192,21646,1,0,0:0:0:0:
358,192,22771,1,0,0:0:0:0:
460,192,22959,1,0,0:0:0:0:
153,192,23146,1,0,0:0:0:0:
51,192,23334,1,0,0:0:0:0:
256,192,23521,1,0,0:0:0:0:
460,192,23709,1,0,0:0:0:0:
358,192,23896,1,0,0:0:0:0:
256,192,24084,1,0,0:0:0:0:
153,192,24271,1,0,0:0:0:0:
51,192,24459,1,0,0:0:0:0:
153,192,24646,1,0,0:0:0:0:
358,192,24646,1,0,0:0:0:0:
153,192,25865,1,0,0:0:0:0:
460,192,25865,1,0,0:0:0:0:
153,192,26052,1,0,0:0:0:0:
460,192,26052,1,0,0:0:0:0:
358,192,26334,1,0,0:0:0:0:
256,192,26521,1,0,0:0:0:0:
153,192,26709,1,0,0:0:0:0:
358,192,26896,128,0,27365:0:0:0:0:
256,192,27459,1,0,0:0:0:0:
51,192,27646,128,0,28302:0:0:0:0:
51,192,28771,1,0,0:0:0:0:
51,192,28959,1,0,0:0:0:0:
51,192,29146,1,0,0:0:0:0:
153,192,29334,1,0,0:0:0:0:
256,192,29521,1,0,0:0:0:0:
358,192,29709,1,0,0:0:0:0:
256,192,29896,128,0,30177:0:0:0:0:
460,192,30271,1,0,0:0:0:0:
153,192,30459,1,0,0:0:0:0:
51,192,30646,1,0,0:0:0:0:
256,192,30646,1,0,0:0:0:0:
51,192,31771,1,0,0:0:0:0:
460,192,31771,1,0,0:0:0:0:
358,192,32521,1,0,0:0:0:0:
358,192,32709,1,0,0:0:0:0:
358,192,32896,1,0,0:0:0:0:
358,192,33084,1,0,0:0:0:0:
256,192,33271,1,0,0:0:0:0:
153,192,33459,1,0,0:0:0:0:
51,192,33646,128,0,34584:0:0:0:0:
153,192,34771,1,0,0:0:0:0:
256,192,34959,1,0,0:0:0:0:
358,192,35146,1,0,0:0:0:0:
460,192,35334,1,0,0:0:0:0:
358,192,35521,1,0,0:0:0:0:
460,192,35709,1,0,0:0:0:0:
153,192,35896,1,0,0:0:0:0:
51,192,36084,1,0,0:0:0:0:
153,192,36271,1,0,0:0:0:0:
256,192,36459,1,0,0:0:0:0:
153,192,36646,128,0,37584:0:0:0:0:
358,192,37959,1,0,0:0:0:0:
153,192,38146,128,0,38427:0:0:0:0:
256,192,38521,1,0,0:0:0:0:
358,192,38709,1,0,0:0:0:0:
460,192,38896,128,0,39834:0:0:0:0:
153,192,40771,1,0,0:0:0:0:
256,192,40959,1,0,0:0:0:0:
358,192,41146,1,0,0:0:0:0:
460,192,41334,1,0,0:0:0:0:
358,192,41521,1,0,0:0:0:0:
256,192,41709,1,0,0:0:0:0:
153,192,41896,128,0,42084:0:0:0:0:
358,192,42271,1,0,0:0:0:0:
256,192,42459,1,0,0:0:0:0:
153,192,42646,1,0,0:0:0:0:
460,192,42646,1,0,0:0:0:0:
51,192,44896,1,0,0:0:0:0:
153,192,44990,1,0,0:0:0:0:
256,192,45084,1,0,0:0:0:0:
153,192,45365,1,0,0:0:0:0:
51,192,45552,1,0,0:0:0:0:
153,192,45646,1,0,0:0:0:0:
