osu file format v14

[General]
AudioFilename: audio.mp3
AudioLeadIn: 0
PreviewTime: 32018
Countdown: 0
SampleSet: Soft
StackLeniency: 0.7
Mode: 2
LetterboxInBreaks: 0
WidescreenStoryboard: 1

[Editor]
Bookmarks: 42518,48518
DistanceSpacing: 1
BeatDivisor: 4
GridSize: 4
TimelineZoom: 1

[Metadata]
Title:Underground
TitleUnicode:Underground
Artist:Scott Lloyd Shelly
ArtistUnicode:Scott Lloyd Shelly
Creator:wonjae
Version:Cup
Source:Terraria
Tags:cavern whimsical track robotic tone kukkai [_-Kukkai-_] paranoid grapes re-logic re logic original soundtrack volume 1 one ost instrumental resonance array video game electronic
BeatmapID:2860307
BeatmapSetID:1380751

[Difficulty]
HPDrainRate:3
CircleSize:2.4
OverallDifficulty:5.5
ApproachRate:5.5
SliderMultiplier:1.9
SliderTickRate:1

[Events]
//Background and Video events
0,0,"Capture 2021-02-20 13_23_29.png",0,0
//Break Periods
//Storyboard Layer 0 (Background)
//Storyboard Layer 1 (Fail)
//Storyboard Layer 2 (Pass)
//Storyboard Layer 3 (Foreground)
//Storyboard Layer 4 (Overlay)
//Storyboard Sound Samples

[TimingPoints]
523,500,4,2,0,40,1,0
523,-133.333333333333,4,2,0,40,0,0
8023,-100,4,2,0,40,0,0
8523,-133.333333333333,4,2,0,40,0,0
14023,-100,4,2,0,40,0,0
17023,-100,4,2,0,40,0,0
17523,-100,4,2,0,40,0,0
21023,-100,4,2,0,40,0,0
21523,-100,4,2,0,40,0,0
25023,-100,4,2,0,40,0,0
25523,-100,4,2,0,40,0,0
29023,-100,4,2,0,40,0,0
29523,-100,4,2,0,40,0,0
32523,-100,4,2,2,40,0,0
64523,-100,4,2,0,40,0,0
65023,-100,4,2,0,40,0,0
65523,-100,4,2,0,40,0,0
69023,-100,4,2,0,40,0,0
69523,-100,4,2,0,40,0,0
72523,-100,4,2,2,40,0,0
78523,-100,4,2,0,40,0,0
80523,-100,4,2,0,25,0,0
84523,-100,4,2,0,15,0,0
86523,-100,4,2,0,5,0,0

[Colours]
Combo1 : 196,196,0
Combo2 : 255,128,0
Combo3 : 128,128,128
Combo4 : 128,64,0

[HitObjects]
378,106,523,6,0,P|272:90|79:331,1,427.500016307831,0|0,0:0|0:0,0:0:0:0:
77,306,2523,6,0,P|288:299|378:99,1,427.500016307831,0|0,0:0|0:0,0:0:0:0:
380,124,4523,6,0,P|242:-66|60:144,1,570.000021743775
55,122,8023,1,2,0:0:0:0:
55,122,8273,1,2,0:0:0:0:
154,116,8523,6,0,P|280:116|434:347,1,427.500016307831,8|0,0:0|0:0,0:0:0:0:
434,345,10523,6,0,P|236:345|128:109,1,427.500016307831
122,166,12523,6,0,P|154:259|379:132,1,427.500016307831,0|2,0:0|0:0,0:0:0:0:
385,165,14273,1,2,0:0:0:0:
287,162,14523,5,8,0:0:0:0:
293,161,16023,1,8,0:0:0:0:
195,54,16523,6,0,L|423:55,1,190,8|2,0:3|0:3,0:0:0:0:
470,137,17523,1,2,0:0:0:0:
470,137,17648,1,2,0:0:0:0:
372,138,17898,1,2,0:0:0:0:
256,134,18273,1,0,3:0:0:0:
256,134,18773,5,2,0:0:0:0:
357,184,19023,2,0,L|357:299,1,95,2|0,0:3|3:0,0:0:0:0:
256,134,19523,2,0,L|98:136,2,142.5,2|2|2,0:3|0:0|0:0,0:0:0:0:
161,138,20523,6,0,P|93:197|179:249,1,190,8|2,0:3|0:3,0:0:0:0:
282,266,21523,1,2,0:0:0:0:
282,266,21648,1,2,0:0:0:0:
175,274,22023,1,0,0:0:0:0:
97,282,22273,1,2,0:0:0:0:
233,253,22773,5,0,3:0:0:0:
228,253,24273,1,0,3:0:0:0:
322,252,24523,6,0,L|322:132,1,95,8|0,0:3|0:0,0:0:0:0:
419,138,25023,2,0,L|221:139,1,190,2|2,0:3|0:0,0:0:0:0:
324,153,25898,1,2,0:0:0:0:
419,203,26273,1,0,3:0:0:0:
324,153,26523,6,0,L|323:274,1,95,0|0,3:0|0:0,0:0:0:0:
225,272,27023,1,2,0:3:0:0:
225,272,27523,2,0,L|61:271,2,142.5,0|2|2,0:3|0:0|0:0,0:0:0:0:
317,231,28523,6,0,L|317:117,1,95,8|0,0:3|3:0,0:0:0:0:
415,126,29023,2,0,P|482:86|406:53,1,190,2|2,0:3|0:0,0:0:0:0:
310,57,29898,1,0,0:0:0:0:
211,81,30273,1,2,0:0:0:0:
310,57,30523,5,0,3:0:0:0:
310,57,30773,1,0,0:0:0:0:
310,57,31523,1,0,3:0:0:0:
213,81,32023,1,2,0:0:0:0:
213,81,32273,1,2,0:0:0:0:
316,124,32523,6,0,L|440:128,2,95,8|0|0,0:0|0:0|3:0,0:0:0:0:
211,125,33273,2,0,P|169:190|253:283,1,190,2|0,0:0|0:0,0:0:0:0:
345,277,34023,1,0,3:0:0:0:
194,281,34523,6,0,L|71:301,2,95,8|0|0,0:0|0:0|3:0,0:0:0:0:
291,252,35273,2,0,P|391:202|389:97,1,190,2|0,0:0|0:0,0:0:0:0:
311,98,36023,1,0,3:0:0:0:
173,58,36523,6,0,L|48:72,2,95,8|0|0,0:0|0:0|3:0,0:0:0:0:
279,102,37273,2,0,P|276:189|172:219,1,190,2|0,0:0|0:0,0:0:0:0:
94,244,38023,1,0,3:0:0:0:
94,244,38273,1,0,0:0:0:0:
192,302,38523,5,8,0:0:0:0:
192,302,39023,1,2,0:0:0:0:
285,290,39273,1,2,0:0:0:0:
366,230,39523,1,2,0:0:0:0:
393,131,39773,1,0,3:0:0:0:
366,230,40023,1,0,3:0:0:0:
292,287,40273,1,0,3:0:0:0:
188,302,40523,6,0,L|79:311,2,95,8|0|0,0:0|0:0|3:0,0:0:0:0:
287,292,41273,2,0,P|376:244|353:127,1,190,2|0,0:0|0:0,0:0:0:0:
293,122,42023,1,0,3:0:0:0:
166,82,42523,6,0,L|54:68,2,95,8|0|0,0:0|0:0|3:0,0:0:0:0:
262,118,43273,2,0,L|491:127,1,190,2|0,0:0|0:0,0:0:0:0:
366,187,44023,1,0,3:0:0:0:
191,377,44523,6,0,P|22:224|226:14,1,570,8|0,0:0|3:0,0:0:0:0:
357,95,46523,5,8,0:0:0:0:
267,120,46773,1,2,0:0:0:0:
213,206,47023,1,2,0:0:0:0:
204,292,47273,1,2,0:0:0:0:
213,206,47523,1,0,3:0:0:0:
267,120,47773,1,0,3:0:0:0:
361,93,48023,1,0,3:0:0:0:
361,93,48273,1,2,0:0:0:0:
263,109,48523,6,0,L|140:122,2,95,8|0|0,0:0|0:0|3:0,0:0:0:0:
359,148,49273,2,0,P|368:250|271:290,1,190,2|0,0:0|0:0,0:0:0:0:
211,302,50023,1,0,3:0:0:0:
342,328,50523,6,0,L|458:326,2,95,8|0|0,0:0|0:0|3:0,0:0:0:0:
250,330,51273,2,0,P|180:285|230:197,1,190,2|0,0:0|0:0,0:0:0:0:
310,184,52023,1,0,3:0:0:0:
159,163,52523,6,0,L|30:188,2,95,8|0|0,0:0|0:0|3:0,0:0:0:0:
250,105,53273,2,0,P|289:181|214:232,1,190,2|0,0:0|0:0,0:0:0:0:
122,81,54023,1,0,3:0:0:0:
122,81,54273,1,0,0:0:0:0:
216,138,54523,5,8,0:0:0:0:
216,138,55023,1,2,0:0:0:0:
319,150,55273,1,2,0:0:0:0:
388,192,55523,1,2,0:0:0:0:
409,283,55773,1,0,3:0:0:0:
409,283,56023,1,0,3:0:0:0:
388,192,56273,1,0,3:0:0:0:
283,185,56523,6,0,L|150:187,2,95,8|0|0,0:0|0:0|3:0,0:0:0:0:
180,186,57273,2,0,P|124:265|201:311,1,190,2|0,0:0|0:0,0:0:0:0:
289,314,58023,1,0,3:0:0:0:
127,325,58523,6,0,L|32:328,2,95,8|0|0,0:0|0:0|3:0,0:0:0:0:
222,323,59273,2,0,B|299:280|299:280|300:165,1,190,2|0,0:0|0:0,0:0:0:0:
206,179,60023,1,0,3:0:0:0:
113,190,60273,1,0,0:0:0:0:
211,154,60523,6,0,P|335:135|191:335,1,570,8|0,0:0|3:0,0:0:0:0:
99,334,62523,5,8,0:0:0:0:
193,311,62773,1,2,0:0:0:0:
253,247,63023,1,2,0:0:0:0:
270,146,63273,1,2,0:0:0:0:
253,247,63523,1,0,3:0:0:0:
193,311,63773,1,0,3:0:0:0:
99,335,64023,1,0,3:0:0:0:
99,335,64273,1,2,0:0:0:0:
193,311,64523,6,0,L|395:310,1,190,8|2,3:0|0:3,0:0:0:0:
301,254,65523,1,2,0:0:0:0:
301,254,65648,1,2,0:0:0:0:
183,256,65898,1,2,0:0:0:0:
285,254,66273,1,0,3:0:0:0:
194,232,66523,6,0,L|193:102,1,95,0|2,3:3|0:0,0:0:0:0:
285,254,67023,1,2,0:3:0:0:
418,70,67523,2,0,L|275:72,2,142.5,2|2|2,0:3|0:0|0:0,0:0:0:0:
323,70,68523,6,0,L|123:70,1,190,8|2,0:3|0:3,0:0:0:0:
237,142,69523,1,2,0:0:0:0:
237,142,69648,1,2,0:0:0:0:
349,172,70023,1,0,0:0:0:0:
247,211,70273,1,2,0:0:0:0:
147,251,70523,6,0,L|149:369,1,95,0|0,3:3|3:0,0:0:0:0:
148,345,71523,1,0,3:3:0:0:
251,334,72023,2,0,L|345:331,1,95,2|0,3:0|3:3,0:0:0:0:
231,302,72523,6,0,P|164:271|237:223,1,190,8|2,0:3|0:3,0:0:0:0:
351,203,73523,1,2,0:0:0:0:
351,151,73648,1,2,0:0:0:0:
269,88,73898,1,2,0:0:0:0:
130,76,74273,1,0,3:0:0:0:
227,88,74523,6,0,L|430:88,1,190,0|2,3:0|0:3,0:0:0:0:
418,86,75523,2,0,L|417:202,1,95,0|0,0:3|3:0,0:0:0:0:
379,187,75898,2,0,L|204:189,1,142.5,2|2,0:0|0:0,0:0:0:0:
137,228,76523,6,0,P|74:272|165:318,1,190,8|2,0:3|0:3,0:0:0:0:
270,326,77523,1,2,0:0:0:0:
272,274,77648,1,0,3:0:0:0:
160,216,77898,1,2,0:0:0:0:
159,158,78023,1,0,3:0:0:0:
270,118,78273,1,2,0:0:0:0:
399,87,78523,5,0,3:0:0:0:
399,87,79023,2,0,L|178:94,2,190,0|0|2,0:0|3:0|0:0,0:0:0:0:
256,192,80523,12,0,83523,0:0:0:0:
393,130,84023,5,2,0:0:0:0:
393,130,84273,1,2,0:0:0:0:
270,134,84523,1,0,3:0:0:0:
256,192,85023,12,0,86523,0:0:0:0:
