osu file format v14

[General]
AudioFilename: audio.mp3
AudioLeadIn: 0
PreviewTime: 19241
Countdown: 0
SampleSet: Soft
StackLeniency: 0.7
Mode: 2
LetterboxInBreaks: 0
WidescreenStoryboard: 1

[Editor]
Bookmarks: 4853,11003,19253,57653,72653,76853
DistanceSpacing: 0.8
BeatDivisor: 8
GridSize: 32
TimelineZoom: 1.5

[Metadata]
Title:Plantera
TitleUnicode:Plantera
Artist:Scott Lloyd Shelly
ArtistUnicode:Scott Lloyd Shelly
Creator:wonjae
Version:Salad
Source:Terraria
Tags:re-logic re logic original soundtrack volume 2 two ost [_-Kukkai-_] kukkai paranoid grapes instrumental resonance array video game electronic boss music jungle
BeatmapID:2411509
BeatmapSetID:1154783

[Difficulty]
HPDrainRate:5
CircleSize:3
OverallDifficulty:7
ApproachRate:7
SliderMultiplier:2.19
SliderTickRate:1

[Events]
//Background and Video events
0,0,"gamer time.jpg",0,0
//Break Periods
//Storyboard Layer 0 (Background)
//Storyboard Layer 1 (Fail)
//Storyboard Layer 2 (Pass)
//Storyboard Layer 3 (Foreground)
//Storyboard Layer 4 (Overlay)
//Storyboard Sound Samples

[TimingPoints]
4841,600,4,2,1,50,1,0
9641,-100,4,2,1,60,0,0
13241,-66.6666666666667,4,2,1,60,0,0
14441,-100,4,2,1,60,0,0
18341,-66.6666666666667,4,2,1,60,0,0
19241,-100,4,2,1,70,0,0
28841,-66.6666666666667,4,2,1,70,0,0
29441,-100,4,2,1,70,0,0
33641,-66.6666666666667,4,2,1,70,0,0
33941,-100,4,2,1,70,0,0
38441,-100,4,2,1,60,0,0
46241,-66.6666666666667,4,2,1,60,0,0
46841,-100,4,2,1,60,0,0
57641,-100,4,2,1,55,0,0
63491,-66.6666666666667,4,2,1,55,0,0
64241,-100,4,2,1,55,0,0
67241,-66.6666666666667,4,2,1,55,0,0
67841,-100,4,2,1,50,0,0

[Colours]
Combo1 : 255,128,0
Combo2 : 0,255,64
Combo3 : 0,128,64
Combo4 : 78,157,6
Combo5 : 0,113,113
Combo6 : 147,0,0

[HitObjects]
156,244,4841,6,0,L|386:245,1,219,10|10,0:0|0:0,0:0:0:0:
196,166,6041,1,10,0:0:0:0:
276,164,6191,1,8,0:0:0:0:
97,100,6641,2,0,L|212:187,1,109.5,10|10,0:0|0:0,0:0:0:0:
444,121,7241,6,0,P|490:186|430:243,1,164.25,10|0,0:0|0:0,0:0:0:0:
381,249,7841,1,10,0:0:0:0:
314,252,7991,1,0,0:0:0:0:
164,240,8291,1,0,0:0:0:0:
243,307,8441,2,0,L|340:302,2,54.75,10|0|0,0:0|0:0|0:0,0:0:0:0:
160,351,8891,1,0,0:0:0:0:
243,307,9041,2,0,L|369:299,1,109.5,10|0,0:0|0:0,0:0:0:0:
74,278,9641,6,0,L|-5:279,2,54.75,10|0|0,0:0|0:0|0:0,0:0:0:0:
158,277,10091,1,0,0:0:0:0:
244,260,10241,2,0,L|131:260,1,109.5,10|0,0:0|0:0,0:0:0:0:
275,203,10841,5,10,0:0:0:0:
273,134,10991,1,0,0:0:0:0:
219,94,11141,1,0,0:0:0:0:
159,93,11291,1,0,0:0:0:0:
66,97,11441,2,0,L|195:100,1,109.5,10|0,0:0|0:0,0:0:0:0:
456,178,12041,6,0,P|499:251|466:301,1,109.5,10|0,0:0|0:0,0:0:0:0:
404,292,12491,1,0,0:0:0:0:
317,311,12641,2,0,L|313:234,1,54.75,10|0,0:0|0:0,0:0:0:0:
397,223,12941,2,0,L|395:150,1,54.75,0|0,0:0|0:0,0:0:0:0:
223,154,13241,6,0,B|55:159|55:159|237:154,1,328.500012531281,10|8,0:0|0:0,0:0:0:0:
419,276,14441,6,0,L|275:278,1,109.5,10|0,0:0|0:0,0:0:0:0:
387,273,14891,1,0,0:0:0:0:
471,255,15041,2,0,L|474:173,1,54.75,10|0,0:0|0:0,0:0:0:0:
390,163,15341,1,0,0:0:0:0:
248,161,15641,6,0,L|235:71,1,54.75,10|0,0:0|0:0,0:0:0:0:
321,84,15941,2,0,L|484:79,1,109.5,0|10,0:0|0:0,0:0:0:0:
314,38,16541,1,0,0:0:0:0:
71,25,16841,6,0,L|9:26,2,54.75,10|0|8,0:0|0:0|0:0,0:0:0:0:
155,30,17291,1,0,0:0:0:0:
256,47,17441,2,0,L|357:129,1,109.5,10|8,0:0|0:0,0:0:0:0:
61,294,18041,5,0,3:0:0:0:
9,304,18141,1,0,3:0:0:0:
10,265,18241,1,0,3:0:0:0:
61,294,18341,1,0,3:0:0:0:
329,351,18641,2,0,B|419:326|419:326|330:303|330:303|295:178,1,246.375009398461,14|0,0:0|0:0,0:0:0:0:
387,209,19241,6,0,L|507:213,1,109.5,14|2,0:0|0:0,0:0:0:0:
414,172,19691,1,0,0:0:0:0:
340,135,19841,1,10,0:0:0:0:
266,91,19991,1,0,0:0:0:0:
342,61,20141,1,0,0:0:0:0:
197,48,20441,5,10,0:0:0:0:
196,114,20591,1,0,0:0:0:0:
273,115,20741,1,0,0:0:0:0:
356,115,20891,1,0,0:0:0:0:
273,115,21041,2,0,L|139:119,1,109.5,10|10,0:0|0:0,0:0:0:0:
410,198,21641,5,10,0:0:0:0:
295,255,21941,1,2,0:0:0:0:
369,293,22091,1,0,0:0:0:0:
294,336,22241,1,10,0:0:0:0:
216,344,22391,1,0,0:0:0:0:
137,351,22541,1,2,0:0:0:0:
377,272,23141,5,10,0:0:0:0:
308,270,23291,1,0,0:0:0:0:
139,188,23441,2,0,L|12:190,1,109.5,10|0,0:0|0:0,0:0:0:0:
92,188,23891,1,0,0:0:0:0:
265,216,24041,6,0,L|391:215,1,109.5,14|0,0:0|0:0,0:0:0:0:
264,152,24641,1,10,0:0:0:0:
330,151,24941,1,0,0:0:0:0:
211,153,25241,5,10,0:0:0:0:
272,153,25391,1,0,0:0:0:0:
330,151,25541,1,2,0:0:0:0:
211,161,25841,1,10,0:0:0:0:
395,154,26141,1,2,0:0:0:0:
119,162,26441,5,10,0:0:0:0:
41,208,26741,2,0,L|40:306,1,54.75,10|0,0:0|0:0,0:0:0:0:
104,272,27041,1,10,0:0:0:0:
170,285,27191,1,0,0:0:0:0:
170,285,27341,2,0,L|45:285,1,109.5,0|0,0:0|0:0,0:0:0:0:
306,247,27941,6,0,P|410:214|430:104,1,219,10|8,0:0|0:0,0:0:0:0:
348,104,28691,1,0,0:0:0:0:
181,110,28841,6,0,B|69:111|69:111|73:192|73:192|152:192,1,246.375009398461,14|0,0:0|0:0,0:0:0:0:
187,192,29441,1,10,0:0:0:0:
268,191,29741,1,0,0:0:0:0:
187,192,30041,5,10,0:0:0:0:
314,191,30341,1,10,0:0:0:0:
191,192,30641,1,10,0:0:0:0:
351,191,30941,1,2,0:0:0:0:
102,202,31241,6,0,P|33:288|90:327,1,164.25,10|0,0:0|0:0,0:0:0:0:
102,328,31841,2,0,L|238:328,1,109.5,10|2,0:0|0:0,0:0:0:0:
349,290,32441,6,0,L|340:191,1,54.75,10|0,0:0|0:0,0:0:0:0:
261,206,32741,2,0,L|184:214,1,54.75,0|0,0:0|0:0,0:0:0:0:
277,187,33041,1,10,0:0:0:0:
357,163,33191,2,0,L|360:296,1,109.5,8|0,0:0|0:0,0:0:0:0:
166,115,33641,6,0,B|115:195|75:203|75:203|207:204,1,246.375009398461,14|0,0:0|0:0,0:0:0:0:
258,203,34241,1,10,0:0:0:0:
382,205,34541,1,0,0:0:0:0:
258,203,34841,5,10,0:0:0:0:
192,204,34991,1,0,0:0:0:0:
133,204,35141,1,2,0:0:0:0:
258,203,35441,1,10,0:0:0:0:
99,205,35741,1,2,0:0:0:0:
359,241,36041,6,0,P|489:275|495:314,1,164.25,10|0,3:0|0:0,0:0:0:0:
441,272,36641,2,0,L|327:283,1,109.5,8|2,3:0|0:0,0:0:0:0:
441,321,37241,1,0,0:0:0:0:
201,356,37541,2,0,L|10:361,1,164.25,14|14,0:0|0:0,0:0:0:0:
411,261,38441,6,0,P|467:213|455:116,1,164.25,14|0,0:0|0:0,0:0:0:0:
405,119,39041,2,0,L|254:119,1,109.5,10|0,0:0|0:0,0:0:0:0:
14,80,39641,5,10,0:0:0:0:
14,80,39791,2,0,L|130:76,1,109.5,8|0,0:0|0:0,0:0:0:0:
225,181,40241,2,0,L|87:180,1,109.5,10|8,0:0|0:0,0:0:0:0:
238,149,40841,6,0,L|241:269,1,109.5,10|0,0:0|0:0,0:0:0:0:
157,291,41291,1,8,0:0:0:0:
238,276,41441,2,0,L|388:273,1,109.5,10|8,0:0|0:0,0:0:0:0:
39,199,42041,6,0,L|26:52,1,109.5,10|0,0:0|0:0,0:0:0:0:
184,86,42641,1,10,0:0:0:0:
140,115,42791,1,0,0:0:0:0:
190,135,42941,1,8,0:0:0:0:
247,160,43091,1,0,0:0:0:0:
404,109,43241,6,0,P|439:182|398:251,1,164.25,14|0,0:0|0:0,0:0:0:0:
324,247,43841,1,10,0:0:0:0:
206,223,44141,1,0,0:0:0:0:
221,245,44291,1,0,0:0:0:0:
399,287,44441,5,10,0:0:0:0:
477,293,44591,2,0,L|276:296,1,164.25,0|10,0:0|0:0,0:0:0:0:
170,284,45341,1,0,0:0:0:0:
317,220,45641,2,0,L|323:107,1,109.5,10|0,0:0|0:0,0:0:0:0:
51,67,46241,6,0,B|149:88|149:88|139:201|139:201|93:205,1,246.375009398461,10|0,0:0|0:0,0:0:0:0:
28,222,46841,2,0,L|281:223,1,219,10|10,0:0|0:0,0:0:0:0:
170,240,47741,2,0,L|94:237,1,54.75,10|0,0:0|0:0,0:0:0:0:
278,292,48041,5,14,0:0:0:0:
424,305,48341,2,0,L|443:189,1,109.5,0|10,0:0|0:0,0:0:0:0:
313,152,48941,1,0,0:0:0:0:
31,92,49241,5,10,0:0:0:0:
33,141,49391,1,0,0:0:0:0:
104,146,49541,2,0,L|242:150,1,109.5,0|10,0:0|0:0,0:0:0:0:
500,161,50141,1,10,0:0:0:0:
432,242,50441,6,0,L|322:239,1,109.5,10|0,0:0|0:0,0:0:0:0:
255,243,50891,1,0,0:0:0:0:
130,291,51191,1,0,0:0:0:0:
179,291,51341,1,8,0:0:0:0:
442,256,51641,6,0,P|481:186|416:116,1,164.25,10|0,0:0|0:0,0:0:0:0:
349,120,52241,2,0,L|233:118,1,109.5,10|8,0:0|0:0,0:0:0:0:
239,118,52691,1,0,0:0:0:0:
421,140,52841,6,0,P|447:209|406:271,1,109.5,14|0,0:0|0:0,0:0:0:0:
154,142,53441,2,0,P|50:216|95:283,1,219,10|10,0:0|0:0,0:0:0:0:
156,275,54191,1,0,0:0:0:0:
331,207,54641,6,0,L|329:67,1,109.5,10|0,0:0|0:0,0:0:0:0:
250,78,55091,1,0,0:0:0:0:
83,50,55241,1,10,0:0:0:0:
29,76,55391,2,0,P|81:164|130:170,1,109.5,0|0,0:0|0:0,0:0:0:0:
197,197,55841,2,0,L|306:195,1,109.5,10|10,0:0|0:0,0:0:0:0:
35,285,56441,6,0,L|124:296,1,54.75,10|0,3:0|0:0,0:0:0:0:
223,345,57041,2,0,L|139:348,1,54.75,10|0,3:0|0:0,0:0:0:0:
490,221,57641,6,0,P|490:145|425:93,1,164.25,14|0,0:0|0:0,0:0:0:0:
348,82,58241,2,0,L|225:77,1,109.5,10|0,0:0|0:0,0:0:0:0:
319,58,58691,1,8,0:0:0:0:
395,32,58841,5,10,0:0:0:0:
275,102,59141,2,0,L|143:121,2,109.5,0|10|10,0:0|0:0|0:0,0:0:0:0:
24,142,60041,2,0,P|17:207|39:279,1,109.5,10|0,0:0|0:0,0:0:0:0:
90,234,60491,1,0,0:0:0:0:
159,269,60641,1,10,0:0:0:0:
96,285,60791,1,0,0:0:0:0:
199,338,61091,6,0,L|406:331,1,164.25,8|8,0:0|0:0,0:0:0:0:
465,284,61841,2,0,L|474:150,1,109.5,10|0,0:0|0:0,0:0:0:0:
222,134,62441,6,0,L|84:135,1,109.5,14|0,0:0|0:0,0:0:0:0:
175,132,62891,1,8,0:0:0:0:
303,127,63191,2,0,L|307:241,1,109.5,0|8,0:0|0:0,0:0:0:0:
113,298,63941,5,0,0:0:0:0:
6,345,64241,2,0,L|137:355,1,109.5,10|0,0:0|0:0,0:0:0:0:
386,253,64841,5,10,0:0:0:0:
473,283,65141,2,0,L|473:372,1,54.75,0|8,0:0|0:0,0:0:0:0:
344,351,65591,2,0,L|262:360,1,54.75,0|0,0:0|0:0,0:0:0:0:
111,316,65891,6,0,P|63:263|151:211,1,164.25,10|10,0:0|0:0,0:0:0:0:
252,187,66641,2,0,L|367:189,1,109.5,10|10,0:0|0:0,0:0:0:0:
118,121,67241,5,10,0:0:0:0:
48,118,67391,2,0,L|313:127,1,246.375009398461,0|10,0:0|0:0,0:0:0:0:
386,135,68141,1,0,0:0:0:0:
439,141,68441,5,0,0:0:0:0:
386,135,68741,1,0,0:0:0:0:
271,139,69041,2,0,L|158:137,1,109.5,10|0,0:0|0:0,0:0:0:0:
417,275,69641,6,0,L|507:291,1,54.75,10|0,0:0|0:0,0:0:0:0:
413,232,69941,1,0,0:0:0:0:
349,207,70091,1,0,0:0:0:0:
417,275,70241,1,10,0:0:0:0:
254,276,70841,6,0,L|255:187,1,54.75,10|0,0:0|0:0,0:0:0:0:
331,185,71141,2,0,L|331:99,1,54.75,0|0,0:0|0:0,0:0:0:0:
248,92,71441,1,10,0:0:0:0:
395,98,71741,1,0,0:0:0:0:
108,179,72041,5,12,0:0:0:0:
256,192,72641,12,0,76241,0:0:0:0:
