osu file format v14

[General]
AudioFilename: audio.mp3
AudioLeadIn: 0
PreviewTime: 19241
Countdown: 0
SampleSet: Soft
StackLeniency: 0.7
Mode: 2
LetterboxInBreaks: 0
WidescreenStoryboard: 1

[Editor]
Bookmarks: 38453,72653,76253,76853
DistanceSpacing: 0.8
BeatDivisor: 4
GridSize: 32
TimelineZoom: 1.5

[Metadata]
Title:Plantera
TitleUnicode:Plantera
Artist:Scott Lloyd Shelly
ArtistUnicode:Scott Lloyd Shelly
Creator:wonjae
Version:Platter
Source:Terraria
Tags:re-logic re logic original soundtrack volume 2 two ost [_-Kukkai-_] kukkai paranoid grapes instrumental resonance array video game electronic boss music jungle
BeatmapID:2411523
BeatmapSetID:1154783

[Difficulty]
HPDrainRate:6
CircleSize:3.5
OverallDifficulty:8
ApproachRate:8
SliderMultiplier:2.53
SliderTickRate:1

[Events]
//Background and Video events
0,0,"gamer time.jpg",0,0
//Break Periods
//Storyboard Layer 0 (Background)
//Storyboard Layer 1 (Fail)
//Storyboard Layer 2 (Pass)
//Storyboard Layer 3 (Foreground)
//Storyboard Layer 4 (Overlay)
//Storyboard Sound Samples

[TimingPoints]
4841,600,4,2,1,50,1,0
9641,-100,4,2,1,60,0,0
13241,-75.187969924812,4,2,1,60,0,0
14441,-100,4,2,1,60,0,0
18341,-66.6666666666667,4,2,1,60,0,0
19241,-100,4,2,1,70,0,0
28841,-66.6666666666667,4,2,1,70,0,0
29441,-100,4,2,1,70,0,0
33641,-66.6666666666667,4,2,1,70,0,0
33941,-100,4,2,1,70,0,0
38441,-100,4,2,1,60,0,0
46241,-66.6666666666667,4,2,1,60,0,0
46841,-100,4,2,1,60,0,0
57641,-100,4,2,1,55,0,0
63491,-66.6666666666667,4,2,1,55,0,0
64241,-100,4,2,1,55,0,0
67241,-66.6666666666667,4,2,1,55,0,0
67841,-100,4,2,1,50,0,0

[Colours]
Combo1 : 255,128,0
Combo2 : 0,255,64
Combo3 : 0,128,64
Combo4 : 78,157,6
Combo5 : 0,113,113
Combo6 : 147,0,0

[HitObjects]
125,198,4841,6,0,L|377:190,1,253,10|10,0:0|0:0,0:0:0:0:
269,298,6041,2,0,L|331:292,1,63.25,10|8,0:0|0:0,0:0:0:0:
468,288,6641,2,0,L|306:291,1,126.5,10|10,0:0|0:0,0:0:0:0:
67,253,7241,6,0,P|27:200|83:188,1,126.5,10|2,0:0|0:0,0:0:0:0:
145,177,7691,1,0,0:0:0:0:
321,184,7841,2,0,L|405:190,1,63.25,10|0,0:0|0:0,0:0:0:0:
246,129,8291,1,0,0:0:0:0:
416,148,8441,5,10,0:0:0:0:
485,189,8591,1,0,0:0:0:0:
504,230,8741,1,0,0:0:0:0:
485,189,8891,1,0,0:0:0:0:
416,148,9041,1,10,0:0:0:0:
345,103,9191,1,0,0:0:0:0:
419,63,9341,1,0,0:0:0:0:
41,77,9641,6,0,L|39:234,1,126.5,10|0,0:0|0:0,0:0:0:0:
126,207,10091,1,0,0:0:0:0:
289,291,10241,2,0,P|292:194|250:163,1,126.5,10|0,0:0|0:0,0:0:0:0:
189,165,10691,1,0,0:0:0:0:
353,133,10841,6,0,L|435:116,2,63.25,10|0|0,0:0|0:0|0:0,0:0:0:0:
210,173,11441,2,0,L|373:166,1,126.5,10|0,0:0|0:0,0:0:0:0:
348,238,11891,1,0,0:0:0:0:
183,258,12041,6,0,L|39:268,1,126.5,10|0,0:0|0:0,0:0:0:0:
215,216,12641,2,0,P|218:156|164:100,1,126.5,10|0,0:0|0:0,0:0:0:0:
91,103,13091,1,0,0:0:0:0:
366,346,13241,6,0,P|308:131|27:26,1,504.73497920556,10|0,0:0|0:0,0:0:0:0:
442,211,14441,6,0,L|465:282,2,63.25,10|0|0,0:0|0:0|0:0,0:0:0:0:
315,202,15041,1,10,0:0:0:0:
475,165,15191,2,0,L|473:51,1,63.25,0|0,0:0|0:0,0:0:0:0:
388,69,15491,1,0,0:0:0:0:
230,61,15641,6,0,L|87:63,1,126.5,10|0,0:0|0:0,0:0:0:0:
213,80,16241,1,10,0:0:0:0:
210,154,16391,1,0,0:0:0:0:
156,199,16541,1,0,0:0:0:0:
86,198,16691,1,0,0:0:0:0:
255,291,16841,6,0,L|369:296,1,63.25,10|0,0:0|0:0,0:0:0:0:
247,264,17141,2,0,L|159:271,1,63.25,8|0,0:0|0:0,0:0:0:0:
359,206,17441,2,0,L|284:208,1,63.25,10|0,0:0|0:0,0:0:0:0:
227,194,17741,2,0,L|163:196,1,63.25,8|0,0:0|0:0,0:0:0:0:
325,126,18041,5,0,3:0:0:0:
374,125,18141,1,0,3:0:0:0:
419,123,18241,1,0,3:0:0:0:
464,123,18341,1,0,3:0:0:0:
234,78,18641,2,0,B|166:144|166:144|67:69,1,189.750007238388,14|0,0:0|0:0,0:0:0:0:
457,127,19241,6,0,P|496:198|488:285,1,126.5,14|2,0:0|0:0,0:0:0:0:
330,284,19691,1,0,0:0:0:0:
246,242,19841,1,10,0:0:0:0:
321,200,19991,1,0,0:0:0:0:
398,156,20141,1,0,0:0:0:0:
33,352,20441,6,0,L|23:274,1,63.25,10|0,0:0|0:0,0:0:0:0:
92,235,20741,2,0,L|163:226,1,63.25,0|0,0:0|0:0,0:0:0:0:
315,205,21041,2,0,P|335:135|288:74,1,126.5,10|10,0:0|0:0,0:0:0:0:
225,83,21491,1,0,0:0:0:0:
474,205,21641,5,10,0:0:0:0:
460,237,21941,1,2,0:0:0:0:
398,280,22091,1,0,0:0:0:0:
457,340,22241,1,10,0:0:0:0:
379,363,22391,1,0,0:0:0:0:
457,340,22541,1,2,0:0:0:0:
185,320,22841,6,0,P|168:231|196:221,1,126.5,0|10,0:0|0:0,0:0:0:0:
256,210,23291,1,0,0:0:0:0:
418,187,23441,2,0,L|431:92,2,63.25,14|8|0,0:0|0:0|0:0,0:0:0:0:
49,275,24041,6,0,L|217:276,1,126.5,14|0,0:0|0:0,0:0:0:0:
256,229,24491,2,0,L|261:140,1,63.25,0|10,0:0|0:0,0:0:0:0:
113,28,24941,1,0,0:0:0:0:
192,46,25091,1,0,0:0:0:0:
273,66,25241,5,10,0:0:0:0:
42,114,25541,1,2,0:0:0:0:
40,161,25691,1,0,0:0:0:0:
98,174,25841,1,10,0:0:0:0:
151,199,25991,1,0,0:0:0:0:
85,242,26141,2,0,L|20:240,1,63.25,2|0,0:0|0:0,0:0:0:0:
106,293,26441,5,10,0:0:0:0:
503,239,26741,2,0,L|501:151,1,63.25,10|0,0:0|0:0,0:0:0:0:
341,134,27041,1,10,0:0:0:0:
303,120,27116,1,0,0:0:0:0:
293,94,27191,1,0,0:0:0:0:
347,57,27341,1,0,0:0:0:0:
463,56,27641,5,0,0:0:0:0:
189,257,27941,2,0,L|75:198,1,126.5,10|8,0:0|0:0,0:0:0:0:
323,162,28541,2,0,L|438:145,1,63.25,8|0,0:0|0:0,0:0:0:0:
159,100,28841,6,0,P|33:199|192:329,1,379.500014476777,14|10,0:0|0:0,0:0:0:0:
266,314,29741,1,0,0:0:0:0:
207,264,29891,1,0,0:0:0:0:
266,314,30041,5,10,0:0:0:0:
173,258,30191,1,0,0:0:0:0:
263,309,30341,1,10,0:0:0:0:
310,309,30416,1,0,0:0:0:0:
348,277,30491,1,0,0:0:0:0:
337,236,30566,1,0,0:0:0:0:
287,214,30641,2,0,L|453:216,1,126.5,10|2,0:0|0:0,0:0:0:0:
150,183,31241,6,0,L|1:184,1,126.5,10|2,0:0|0:0,0:0:0:0:
87,179,31691,1,0,0:0:0:0:
239,276,31841,2,0,L|406:274,2,126.5,10|2|10,0:0|0:0|0:0,0:0:0:0:
159,247,32591,5,0,0:0:0:0:
239,197,32741,1,0,0:0:0:0:
323,159,32891,1,0,0:0:0:0:
155,95,33041,1,10,0:0:0:0:
87,94,33191,2,0,L|86:161,1,63.25,8|0,0:0|0:0,0:0:0:0:
457,132,33641,6,0,P|499:225|324:309,1,284.625010857582,14|0,0:0|0:0,0:0:0:0:
213,334,34241,2,0,L|51:326,1,126.5,10|0,0:0|0:0,0:0:0:0:
149,310,34691,1,8,0:0:0:0:
310,260,34841,5,10,0:0:0:0:
326,212,34991,1,0,0:0:0:0:
260,189,35141,1,2,0:0:0:0:
207,187,35291,1,0,0:0:0:0:
300,147,35441,1,10,0:0:0:0:
400,111,35591,1,0,0:0:0:0:
361,99,35741,1,2,0:0:0:0:
262,63,35891,1,0,0:0:0:0:
49,35,36041,5,10,3:0:0:0:
19,69,36116,1,0,0:0:0:0:
30,110,36191,1,0,0:0:0:0:
102,159,36341,2,0,L|171:163,1,63.25,0|0,0:0|0:0,0:0:0:0:
318,195,36641,1,8,3:0:0:0:
340,249,36716,1,0,0:0:0:0:
322,310,36791,1,0,0:0:0:0:
270,329,36866,1,0,0:0:0:0:
228,329,36941,1,2,0:0:0:0:
270,329,37016,1,0,0:0:0:0:
317,332,37091,1,0,0:0:0:0:
163,262,37241,5,8,3:0:0:0:
163,262,37316,1,0,0:0:0:0:
230,223,37391,1,0,3:0:0:0:
368,270,37541,2,0,B|488:248|355:223,1,126.5,14|0,0:0|0:0,0:0:0:0:
218,225,37991,2,0,L|51:225,1,126.5,14|0,0:0|0:0,0:0:0:0:
325,169,38441,6,0,L|393:176,1,63.25,14|0,0:0|0:0,0:0:0:0:
259,113,38891,1,0,0:0:0:0:
97,104,39041,2,0,B|95:158|95:158|209:156,1,126.5,10|0,0:0|0:0,0:0:0:0:
425,248,39641,6,0,L|522:245,1,63.25,10|8,0:0|0:0,0:0:0:0:
446,278,39941,1,0,0:0:0:0:
378,295,40091,1,0,0:0:0:0:
224,315,40241,2,0,L|92:310,1,126.5,10|8,0:0|0:0,0:0:0:0:
214,327,40841,5,10,0:0:0:0:
357,179,41141,2,0,L|359:108,1,63.25,0|8,0:0|0:0,0:0:0:0:
260,65,41591,1,0,0:0:0:0:
327,120,41741,2,0,L|411:119,1,63.25,8|0,0:0|0:0,0:0:0:0:
220,286,42041,6,0,B|108:266|108:266|76:146,1,189.75,10|0,0:0|0:0,0:0:0:0:
244,154,42641,1,10,0:0:0:0:
317,152,42791,1,0,0:0:0:0:
244,154,42941,1,8,0:0:0:0:
216,154,43091,1,0,0:0:0:0:
438,178,43241,6,0,L|509:175,1,63.25,14|0,0:0|0:0,0:0:0:0:
334,282,43691,1,0,0:0:0:0:
166,314,43841,2,0,B|125:285|125:285|234:259,1,126.5,10|0,0:0|0:0,0:0:0:0:
465,225,44441,6,0,L|508:154,1,63.25,10|0,0:0|0:0,0:0:0:0:
423,133,44741,1,0,0:0:0:0:
350,108,44891,1,0,0:0:0:0:
192,88,45041,2,0,B|156:44|156:44|267:39,1,126.5,10|0,0:0|0:0,0:0:0:0:
254,60,45391,1,0,0:0:0:0:
254,60,45441,1,0,0:0:0:0:
224,85,45491,1,0,0:0:0:0:
140,148,45641,6,0,L|61:150,1,63.25,10|0,0:0|0:0,0:0:0:0:
79,219,45941,2,0,L|149:218,1,63.25,0|0,0:0|0:0,0:0:0:0:
372,339,46241,2,0,B|445:326|563:289|492:191|356:173,1,284.625010857582,10|0,0:0|0:0,0:0:0:0:
237,168,46841,6,0,L|84:170,1,126.5,10|0,0:0|0:0,0:0:0:0:
187,115,47441,2,0,L|320:113,1,126.5,10|10,0:0|0:0,0:0:0:0:
327,178,47891,1,0,0:0:0:0:
92,235,48041,6,0,P|51:268|111:268,1,126.5,14|0,0:0|0:0,0:0:0:0:
160,356,48491,1,0,0:0:0:0:
286,357,48641,1,0,0:0:0:0:
328,327,48716,1,0,0:0:0:0:
333,281,48791,1,0,0:0:0:0:
303,244,48866,1,0,0:0:0:0:
252,238,48941,1,0,0:0:0:0:
177,228,49241,5,10,0:0:0:0:
346,172,49391,2,0,L|340:68,1,63.25,0|0,0:0|0:0,0:0:0:0:
227,68,49841,1,10,0:0:0:0:
495,148,50141,6,0,L|352:148,1,126.5,10|10,0:0|0:0,0:0:0:0:
276,230,50741,2,0,L|361:234,1,63.25,0|0,0:0|0:0,0:0:0:0:
430,312,51191,2,0,L|360:311,1,63.25,0|8,0:0|0:0,0:0:0:0:
98,291,51641,6,0,P|49:221|127:138,1,189.75,10|0,0:0|0:0,0:0:0:0:
274,137,52241,2,0,L|358:136,1,63.25,10|0,0:0|0:0,0:0:0:0:
264,99,52541,2,0,L|173:98,1,63.25,8|0,0:0|0:0,0:0:0:0:
424,104,52841,6,0,B|499:122|499:122|389:130,1,126.5,14|0,0:0|0:0,0:0:0:0:
206,224,53441,1,10,0:0:0:0:
313,235,53741,1,0,0:0:0:0:
66,264,54041,6,0,L|69:341,1,63.25,10|0,0:0|0:0,0:0:0:0:
212,330,54491,1,0,0:0:0:0:
370,317,54641,2,0,L|451:318,1,63.25,10|0,0:0|0:0,0:0:0:0:
370,317,54941,2,0,L|304:324,1,63.25,0|0,0:0|0:0,0:0:0:0:
93,208,55241,6,0,L|92:135,1,63.25,10|0,0:0|0:0,0:0:0:0:
204,109,55691,1,0,0:0:0:0:
374,226,55841,2,0,L|376:152,1,63.25,10|0,0:0|0:0,0:0:0:0:
303,121,56141,1,10,0:0:0:0:
381,107,56291,1,0,0:0:0:0:
152,249,56441,6,0,L|73:243,1,63.25,10|0,3:0|0:0,0:0:0:0:
195,208,56891,1,0,0:0:0:0:
369,167,57041,2,0,L|437:172,1,63.25,0|0,0:0|0:0,0:0:0:0:
96,98,57641,6,0,P|64:176|90:234,1,126.5,14|0,0:0|0:0,0:0:0:0:
150,217,58091,1,0,0:0:0:0:
310,213,58241,2,0,L|436:216,1,126.5,10|0,0:0|0:0,0:0:0:0:
365,212,58691,2,0,L|229:219,1,126.5,8|0,0:0|0:0,0:0:0:0:
170,224,59141,1,0,0:0:0:0:
453,287,59441,5,10,0:0:0:0:
490,246,59591,1,0,0:0:0:0:
436,214,59741,1,10,0:0:0:0:
381,205,59891,1,0,0:0:0:0:
220,138,60041,6,0,L|151:138,2,63.25,10|0|0,0:0|0:0|0:0,0:0:0:0:
279,141,60491,2,0,L|114:148,1,126.5,0|0,0:0|0:0,0:0:0:0:
385,264,61091,2,0,L|511:279,1,126.5,8|0,0:0|0:0,0:0:0:0:
449,271,61541,1,8,0:0:0:0:
178,220,61841,5,10,0:0:0:0:
179,160,61991,1,0,0:0:0:0:
248,159,62141,1,0,0:0:0:0:
315,158,62291,1,0,0:0:0:0:
103,94,62441,2,0,P|100:190|138:228,1,126.5,14|0,0:0|0:0,0:0:0:0:
201,239,62891,2,0,L|337:257,1,126.5,8|0,0:0|0:0,0:0:0:0:
72,332,63491,6,0,B|13:294|13:294|26:235|26:235|11:203|133:153|223:165,1,284.625010857582,8|0,0:0|0:0,0:0:0:0:
384,237,64241,2,0,P|434:201|394:112,1,126.5,10|0,0:0|0:0,0:0:0:0:
167,173,64841,6,0,P|139:228|183:298,1,126.5,10|0,0:0|0:0,0:0:0:0:
251,319,65291,2,0,L|396:331,1,126.5,8|0,0:0|0:0,0:0:0:0:
115,269,65891,6,0,L|41:267,1,63.25,10|0,0:0|0:0,0:0:0:0:
318,180,66341,1,10,0:0:0:0:
387,175,66491,1,0,0:0:0:0:
318,180,66641,1,10,0:0:0:0:
87,142,66941,1,10,0:0:0:0:
110,116,67091,1,0,0:0:0:0:
325,67,67241,6,0,B|431:101|431:101|434:149|364:314|231:189,1,379.500014476777,10|10,0:0|0:0,0:0:0:0:
140,191,68141,1,0,0:0:0:0:
140,191,68291,1,0,0:0:0:0:
213,164,68441,5,0,0:0:0:0:
286,139,68591,1,0,0:0:0:0:
326,156,68741,1,0,0:0:0:0:
184,226,69041,2,0,L|108:226,1,63.25,10|0,0:0|0:0,0:0:0:0:
217,234,69341,2,0,L|283:241,1,63.25,0|0,0:0|0:0,0:0:0:0:
453,277,69641,5,10,0:0:0:0:
501,275,69791,1,0,0:0:0:0:
453,277,69941,1,0,0:0:0:0:
352,309,70241,1,10,0:0:0:0:
420,294,70391,1,0,0:0:0:0:
485,279,70541,1,0,0:0:0:0:
214,229,70841,5,10,0:0:0:0:
140,228,70991,1,0,0:0:0:0:
214,229,71141,1,0,0:0:0:0:
140,228,71291,1,0,0:0:0:0:
83,222,71441,2,0,L|239:208,1,126.5,10|0,0:0|0:0,0:0:0:0:
471,185,72041,5,12,0:0:0:0:
256,192,72641,12,0,76241,0:0:0:0:
